osu file format v14

[General]
AudioFilename: audio.mp3
AudioLeadIn: 0
PreviewTime: 4169
Countdown: 0
SampleSet: Soft
StackLeniency: 0.7
Mode: 0
LetterboxInBreaks: 0
EpilepsyWarning: 1
WidescreenStoryboard: 1

[Editor]
Bookmarks: 4387,26203,85112,120020
DistanceSpacing: 0.1
BeatDivisor: 8
GridSize: 32
TimelineZoom: 1.899999

[Metadata]
Title:Joushou no Tabi ~ The Ascending Journey
TitleUnicode:上昇の旅 ~ The Ascending Journey
Artist:VINXIS
ArtistUnicode:VINXIS
Creator:Shurelia
Version:Lowlia's Abyss
Source:Genshin Impact
Tags:skystar amamiya yuko captin1 rlc xlni lcfc lowcomboFC scubdomino uberfazz lit120 -Hakurei- Crissa Ascended -Ascended- -_ascended_- Cubby Yohanes -Atri- Firis Mistlud Anxient Ajisai- Ducky- -keitaro Video Game Instrumental breakcore hoyoverse 原神 shizuku- Kazato Asa shikibe Mayu Ayesha Altugle Enkrypton hokichi nitrous tofumang rizen munehime ningguang KuranteMelodii sinnoh jemzuu kukkai 原げん神しん electronic natsume shiki anime girl jungkyuyoung [keqing] faputa Cynplytholowazy deif
BeatmapID:3818019
BeatmapSetID:1857663

[Difficulty]
HPDrainRate:6
CircleSize:4.3
OverallDifficulty:9
ApproachRate:9.5
SliderMultiplier:2
SliderTickRate:1

[Events]
//Background and Video events
0,0,"stars.jpg",0,0
//Break Periods
//Storyboard Layer 0 (Background)
//Storyboard Layer 1 (Fail)
//Storyboard Layer 2 (Pass)
//Storyboard Layer 3 (Foreground)
Sprite,Foreground,Centre,"sb\text\difficulty\_01e.png",600,100 S,0,52942,,0.4 F,0,52942,53442,0,1 F,0,56215,56715,1,0
Sprite,Foreground,Centre,"sb\text\difficulty\_01f.png",600,100 S,0,56760,,0.4 F,0,56760,57260,0,1 F,0,59487,59987,1,0
Sprite,Foreground,TopLeft,"sb\p.png",-107,0 F,0,78283,,0 C,0,78283,,255,255,255 F,0,78533,,1 V,0,78533,,854,480 C,0,80715,,29,28,34 C,0,81260,,255,255,255 C,0,81805,,29,28,34 F,0,82931,,0
Sprite,Foreground,TopLeft,"sb\p.png",0,0 F,0,78299,,0,0.06 V,0,78299,,862.29,484.8 F,0,78299,78523,0.06,0.96 F,0,78523,78539,0.96,1 C,0,80699,80715,255,255,255,29,28,34 M,0,81259,81275,-106.9,0,205.6,0 C,0,81259,81275,29,28,34,255,255,255 M,0,81803,81819,205.6,0,-356.9,-187.5 C,0,81803,81819,255,255,255,29,28,34 F,0,82475,82491,1,0
Sprite,Foreground,Centre,"sb\text\loading\_000.png",0,0 F,0,78299,,0,0.06 S,0,78299,,0.38 F,0,78299,78523,0.06,0.96 F,0,78523,78539,0.96,1 C,0,80699,80715,134,153,168,211,188,144 M,0,81259,81275,320,377.5,632.5,377.5 C,0,81259,81275,211,188,144,134,153,168 M,0,81803,81819,632.5,377.5,70,190 C,0,81803,81819,134,153,168,211,188,144 F,0,82475,82491,1,0
Sprite,Foreground,Centre,"sb\text\loading\_001.png",0,0 F,0,78299,,0,0.06 S,0,78299,,0.28 F,0,78299,78523,0.06,0.96 F,0,78523,78539,0.96,1 C,0,80699,80715,134,153,168,211,188,144 M,0,81259,81275,320,396.3,632.5,396.3 C,0,81259,81275,211,188,144,134,153,168 M,0,81803,81819,632.5,396.3,70,208.8 C,0,81803,81819,134,153,168,211,188,144 F,0,82475,82491,1,0
Sprite,Foreground,Centre,"sb\bg_loading_logo_day.png",0,0 F,0,78299,,0,0.06 S,0,78299,,0.63 F,0,78299,78523,0.06,0.96 F,0,78523,78539,0.96,1 F,0,80699,80715,1,0 M,0,81275,,320,227.5,632.5,227.5 F,0,81275,,0,1 M,0,81803,81819,632.5,227.5,70,40 F,0,81803,81819,1,0
Sprite,Foreground,Centre,"sb\bg_loading_logo_night.png",0,0 F,0,80715,,0,1 S,0,80715,,0.63 M,0,81259,81275,320,227.5,632.5,227.5 F,0,81259,81275,1,0 M,0,81819,,632.5,227.5,70,40 F,0,81819,,0,1 F,0,82475,82491,1,0
Sprite,Foreground,CentreLeft,"sb\p.png",0,0 F,0,78539,,0,1 V,0,78539,,862.29,1.26 C,0,80699,80715,235,236,238,48,47,52 M,0,81259,81275,-106.9,427.5,205.6,427.5 C,0,81259,81275,48,47,52,235,236,238 M,0,81803,81819,205.6,427.5,-356.9,240 C,0,81803,81819,235,236,238,48,47,52 F,0,82475,82491,1,0
Sprite,Foreground,CentreLeft,"sb\p.png",0,0 F,0,78539,,0,1 V,0,78539,,151.5,25.25 C,0,80699,80715,235,236,238,48,47,52 M,0,81259,81275,245,427.5,557.5,427.5 C,0,81259,81275,48,47,52,235,236,238 M,0,81803,81819,557.5,427.5,-5,240 C,0,81803,81819,235,236,238,48,47,52 F,0,82475,82491,1,0
Sprite,Foreground,CentreLeft,"sb\p.png",0,0 F,0,78539,,0,1 V,0,79435,79451,26.15,25.25,52.94,25.25 V,0,80219,80235,52.94,25.25,71.21,25.25 C,0,80699,80715,73,82,101,237,229,217 V,0,80987,81003,71.21,25.25,100.09,25.25 M,0,81259,81275,245,427.5,557.5,427.5 C,0,81259,81275,237,229,217,73,82,101 V,0,81707,81723,100.09,25.25,130.05,25.25 M,0,81803,81819,557.5,427.5,-5,240 C,0,81803,81819,73,82,101,237,229,217 V,0,82347,82363,130.05,25.25,149.62,25.25 F,0,82475,82491,1,0
Sprite,Foreground,Centre,"sb\bg_loading_mask.png",0,0 F,0,78539,,0,1 S,0,78539,,0.41 C,0,80699,80715,255,255,255,29,28,34 M,0,81259,81275,320,427.5,632.5,427.5 C,0,81259,81275,29,28,34,255,255,255 M,0,81803,81819,632.5,427.5,70,240 C,0,81803,81819,255,255,255,29,28,34 F,0,82475,82491,1,0
Animation,Foreground,TopLeft,"sb\noise.jpg",-107,0,3,10,LoopForever F,0,78533,,0.1 S,0,78533,,0.625 P,0,78533,,A F,0,80715,,0.4 F,0,81976,82794,0.4,0.8
Animation,Foreground,TopLeft,"sb\noise.jpg",320,0,3,10,LoopForever F,0,78533,,0.1 S,0,78533,,0.625 P,0,78533,,A F,0,80715,,0.4 F,0,81976,82794,0.4,0.8
Animation,Foreground,TopLeft,"sb\noise.jpg",-107,240,3,10,LoopForever F,0,78533,,0.1 S,0,78533,,0.625 P,0,78533,,A F,0,80715,,0.4 F,0,81976,82794,0.4,0.8
Animation,Foreground,TopLeft,"sb\noise.jpg",320,240,3,10,LoopForever F,0,78533,,0.1 S,0,78533,,0.625 P,0,78533,,A F,0,80715,,0.4 F,0,81976,82794,0.4,0.8
Sprite,Foreground,Centre,"sb\light.png",320,241 S,0,82522,,0.25 P,0,82522,,A F,0,82522,82931,0.2,0.6 F,0,82931,,0.6,1 S,0,82931,,0.25,0.3 F,0,82931,83067,1,0
Sprite,Foreground,Centre,"sb\p.png",320,240 F,0,82522,,1 V,0,82522,,854,480 P,0,82522,,A V,0,82794,82931,854,480,854,1 V,0,82931,83067,854,1,3,1
//Storyboard Layer 4 (Overlay)
//Storyboard Sound Samples

[TimingPoints]
4344,697.674418604651,3,2,1,35,1,8
4344,-100,3,2,1,35,0,8
4867,-100,3,2,1,5,0,0
5253,727.272727272727,3,2,1,35,1,0
5253,-100,3,2,1,35,0,0
6434,-100,3,2,1,5,0,8
6525,750,3,2,1,35,1,8
6712,-100,3,2,1,5,0,8
6916,821.917808219178,3,2,1,35,1,0
7121,-100,3,2,1,5,0,8
7245,789.473684210526,3,2,1,35,1,0
7245,-100,3,2,1,35,0,0
8429,800,3,2,1,35,1,8
8429,-100,3,2,1,35,0,8
8629,750,3,2,1,35,1,8
8629,-100,3,2,1,35,0,8
9379,740.740740740741,3,2,1,35,1,0
9379,-100,3,2,1,35,0,0
10860,618.556701030928,3,2,1,35,1,8
10860,-100,3,2,1,35,0,8
11169,722.89156626506,3,2,1,35,1,8
11169,-100,3,2,1,35,0,8
11530,731.707317073171,3,2,1,35,1,0
11530,-100,3,2,1,35,0,0
12993,789.473684210526,3,2,1,35,1,8
12993,-100,3,2,1,35,0,8
13387,769.230769230769,3,2,1,35,1,8
13387,-100,3,2,1,35,0,8
13771,681.818181818182,3,2,1,35,1,0
13771,-100,3,2,1,35,0,0
15475,833.333333333333,3,2,1,35,1,8
15475,-100,3,2,1,35,0,8
15891,759.493670886076,3,2,1,35,1,0
15891,-100,3,2,1,35,0,0
16650,731.707317073171,3,2,1,35,1,8
16650,-100,3,2,1,35,0,8
17747,638.297872340426,3,2,1,35,1,8
17747,-100,3,2,1,35,0,8
18066,623.441396508728,3,2,1,35,1,0
18066,-100,3,2,1,35,0,0
21806,272.727272727273,4,2,1,45,1,0
21806,-100,4,2,1,45,0,0
26169,-200,4,2,1,45,0,0
27533,-133.333333333333,4,2,1,45,0,0
27942,-200,4,2,1,45,0,0
29715,-133.333333333333,4,2,1,45,0,0
30124,-200,4,2,1,45,0,0
31896,-133.333333333333,4,2,1,45,0,0
32306,-200,4,2,1,45,0,0
34896,-133.333333333333,4,2,1,55,0,0
36806,-100,4,2,1,55,0,0
37078,-133.333333333333,4,2,1,55,0,0
37760,-100,4,2,1,55,0,0
39260,-133.333333333333,4,2,1,55,0,0
41169,-100,4,2,1,55,0,0
41442,-80,4,2,1,55,0,0
43078,-100,4,2,1,55,0,0
43624,-100,4,2,1,65,0,0
45533,-80,4,2,1,65,0,0
45806,-66.6666666666667,4,2,1,65,0,0
46624,-80,4,2,1,65,0,0
46896,-100,4,2,1,65,0,0
49896,-80,4,2,1,65,0,0
50987,-57.1428571428571,4,2,1,65,0,0
51806,-66.6666666666667,4,2,1,65,0,0
52078,-57.1428571428571,4,2,1,65,0,0
52351,-100,4,2,1,65,0,0
54260,-80,4,2,1,65,0,0
54533,-66.6666666666667,4,2,1,65,0,0
55351,-80,4,2,1,65,0,0
55624,-100,4,2,1,65,0,0
58624,-80,4,2,1,65,0,0
59715,-57.1428571428571,4,2,1,65,0,0
60533,-66.6666666666667,4,2,1,65,0,0
60806,-57.1428571428571,4,2,1,65,0,0
61078,-66.6666666666667,4,2,1,75,0,1
64351,-200,4,2,1,75,0,1
64896,-133.333333333333,4,2,1,75,0,1
65169,-100,4,2,1,75,0,1
65442,-66.6666666666667,4,2,1,75,0,1
73078,-40,4,2,1,75,0,1
73181,-40,4,2,1,5,0,1
73215,-44.4444444444445,4,2,1,75,0,1
73317,-44.4444444444445,4,2,1,5,0,1
73351,-50,4,2,1,75,0,1
73453,-50,4,2,1,5,0,1
73487,-57.1428571428571,4,2,1,75,0,1
73590,-57.1428571428571,4,2,1,5,0,1
73624,-66.6666666666667,4,2,1,75,0,1
73726,-66.6666666666667,4,2,1,5,0,1
73760,-80,4,2,1,75,0,1
73862,-80,4,2,1,5,0,1
73896,-100,4,2,1,75,0,1
74169,-66.6666666666667,4,2,1,75,0,1
75396,-100,4,2,1,75,0,1
76351,-66.6666666666667,4,2,1,75,0,1
78533,545.454545454546,4,2,1,75,1,0
78533,-100,4,2,1,75,0,0
79623,-100,4,2,1,35,0,0
80578,-100,4,2,1,25,0,0
83987,-100,4,2,1,15,0,0
85078,545.454545454546,4,2,1,35,1,0
85078,-100,4,2,1,35,0,0
100350,-500,4,2,1,25,0,0
101714,-100,4,2,1,25,0,0
101987,-100,4,2,1,35,0,0
102055,-100,4,2,1,40,0,0
102123,-100,4,2,1,45,0,0
102191,-100,4,2,1,50,0,0
102259,-100,4,2,1,55,0,0
102328,-100,4,2,1,60,0,0
102396,-100,4,2,1,65,0,0
102464,-100,4,2,1,70,0,0
102532,272.727272727273,4,2,1,75,1,0
102532,-100,4,2,1,75,0,0
109350,-50,4,2,1,75,0,0
109486,-100,4,2,1,75,0,0
109759,-50,4,2,1,75,0,0
109895,-66.6666666666667,4,2,1,75,0,0
110304,-166.666666666667,4,2,1,75,0,0
110577,-100,4,2,1,75,0,0
110713,-66.6666666666667,4,2,1,75,0,0
111259,-100,4,2,1,75,0,0
117804,-100,4,2,1,40,0,0
119713,-50,4,2,1,60,0,0
119986,-66.6666666666667,4,2,1,85,0,1
123259,-200,4,2,1,85,0,1
123804,-133.333333333333,4,2,1,85,0,1
124077,-100,4,2,1,85,0,1
124350,-66.6666666666667,4,2,1,85,0,1
131986,-40,4,2,1,85,0,1
132088,-40,4,2,1,5,0,1
132122,-44.4444444444445,4,2,1,85,0,1
132225,-44.4444444444445,4,2,1,5,0,1
132259,-50,4,2,1,85,0,1
132361,-50,4,2,1,5,0,1
132395,-57.1428571428571,4,2,1,85,0,1
132497,-57.1428571428571,4,2,1,5,0,1
132532,-66.6666666666667,4,2,1,85,0,1
132634,-66.6666666666667,4,2,1,5,0,1
132668,-80,4,2,1,85,0,1
132770,-80,4,2,1,5,0,1
132804,-100,4,2,1,85,0,1
133077,-66.6666666666667,4,2,1,85,0,1
140713,-200,4,2,1,85,0,1
141259,-133.333333333333,4,2,1,85,0,1
141532,-100,4,2,1,85,0,1
141804,-66.6666666666667,4,2,1,85,0,1
146168,545.454545454546,4,2,1,35,1,0
146168,-66.6666666666667,4,2,1,35,0,0
149986,-50,4,2,1,25,0,0
150532,-100,4,2,1,20,0,0

[Colours]
Combo1 : 240,140,140
Combo2 : 200,180,220
Combo3 : 240,200,155
Combo4 : 150,185,220

[HitObjects]
50,168,4344,6,0,P|124:171|190:138,1,150,2|0,2:0|2:0,2:0:0:0:
92,17,5253,2,0,P|219:116|374:162,1,325,2|0,2:0|2:0,2:0:0:0:
437,117,6525,2,0,P|431:92|421:70,1,49.4666666666667,2|0,2:0|2:0,2:0:0:0:
331,243,6916,2,0,P|336:267|348:289,1,50,2|0,2:0|2:0,2:0:0:0:
512,329,7245,6,0,P|387:325|265:353,1,250,2|0,2:0|2:0,2:0:0:0:
201,378,8429,2,0,L|176:372,1,25,2|2,2:0|2:0,2:0:0:0:
111,357,8629,1,2,2:0:0:0:
257,218,9004,1,2,2:0:0:0:
41,32,9379,2,0,B|112:135|-14:304|38:371,1,350,2|0,2:0|2:0,2:0:0:0:
123,269,10860,1,2,2:0:0:0:
253,289,11169,1,2,2:0:0:0:
372,137,11530,2,0,P|276:119|202:182,1,200,2|2,2:0|2:0,2:0:0:0:
202,181,12993,2,0,P|216:162|236:145,1,50,2|0,2:0|2:0,2:0:0:0:
328,113,13387,2,0,P|351:122|371:136,1,50,2|0,2:0|2:0,2:0:0:0:
499,15,13771,6,0,B|400:-11|189:109|109:35,1,400,2|2,2:0|2:0,2:0:0:0:
4,0,15475,1,2,2:0:0:0:
180,159,15891,2,0,P|110:132|37:143,1,150,2|0,2:0|2:0,2:0:0:0:
65,325,16650,2,0,P|145:286|100:209,1,200,2|0,2:0|2:0,2:0:0:0:
1,254,17747,1,2,2:0:0:0:
208,374,18066,1,0,2:0:0:0:
256,192,18221,12,0,21806,2:0:0:0:
256,192,21874,12,0,24942,2:0:0:0:
467,305,26169,6,0,P|466:331|473:357,1,50,2|0,3:2|2:0,2:0:0:0:
389,318,26578,2,0,P|388:344|395:370,1,50,2|0,2:0|2:0,2:0:0:0:
306,302,26987,2,0,P|305:328|312:354,1,50,2|0,2:0|2:0,2:0:0:0:
416,239,27260,2,0,P|416:212|410:187,1,50,2|0,2:0|2:0,2:0:0:0:
241,96,27533,2,0,P|237:133|244:169,1,75.0000000000002,2|0,2:0|2:0,2:0:0:0:
143,332,27806,1,2,2:0:0:0:
143,332,27942,6,0,L|129:214,1,100,2|0,2:0|2:0,2:0:0:0:
87,172,28351,6,0,P|109:162|134:159,1,50,2|0,2:0|2:0,2:0:0:0:
193,83,28760,2,0,P|217:85|240:95,1,50,2|0,2:0|2:0,2:0:0:0:
329,58,29169,2,0,P|349:72|364:92,1,50,2|0,2:0|2:0,2:0:0:0:
256,220,29442,2,0,P|258:195|268:172,1,50,2|0,2:0|2:0,2:0:0:0:
445,204,29715,2,0,P|411:217|373:216,1,75.0000000000002,2|0,2:0|2:0,2:0:0:0:
239,94,29987,1,2,2:0:0:0:
239,94,30124,6,0,P|190:94|145:115,1,100,2|0,2:0|2:0,2:0:0:0:
98,176,30533,6,0,P|119:188|144:191,1,50,2|0,2:0|2:0,2:0:0:0:
72,253,30942,2,0,P|93:265|118:268,1,50,2|0,2:0|2:0,2:0:0:0:
46,330,31351,2,0,P|67:342|92:345,1,50,2|0,2:0|2:0,2:0:0:0:
248,234,31624,2,0,P|226:246|201:249,1,50,2|0,2:0|2:0,2:0:0:0:
2,165,31896,2,0,P|39:160|71:142,1,75.0000000000002,2|0,2:0|2:0,2:0:0:0:
271,56,32169,1,2,2:0:0:0:
271,56,32306,6,0,P|219:46|167:8,1,100,2|0,2:0|2:0,2:0:0:0:
337,11,32715,6,0,P|349:32|351:57,1,50,2|0,2:0|2:0,2:0:0:0:
249,184,33124,2,0,P|236:162|234:137,1,50,2|0,2:0|2:0,2:0:0:0:
442,163,33533,2,0,P|454:184|456:209,1,50,2|0,2:0|2:0,2:0:0:0:
330,347,33806,1,2,2:0:0:0:
330,347,33942,5,2,2:0:0:0:
255,325,34078,1,2,2:0:0:0:
180,303,34215,1,2,2:0:0:0:
105,281,34351,5,2,2:0:0:0:
158,374,34487,1,2,2:0:0:0:
236,253,34624,1,2,2:0:0:0:
314,132,34760,1,2,2:0:0:0:
272,71,34896,6,0,L|168:90,1,75.0000000000002,2|0,3:2|3:2,2:0:0:0:
194,82,35101,1,0,3:2:0:0:
190,80,35169,1,8,2:0:0:0:
70,121,35306,2,0,P|100:141|137:146,1,75.0000000000002,2|0,2:0|3:2,2:0:0:0:
335,24,35578,2,0,P|350:53|350:81,1,37.5000000000001,0|0,3:2|2:0,2:0:0:0:
432,49,35715,2,0,P|427:85|406:116,1,75.0000000000002,10|0,2:0|2:0,2:0:0:0:
496,230,35987,5,2,3:2:0:0:
424,201,36192,5,0,3:2:0:0:
421,198,36260,1,10,2:0:0:0:
349,232,36396,1,8,2:0:0:0:
274,200,36533,1,2,3:2:0:0:
202,234,36669,1,2,3:2:0:0:
274,199,36806,6,0,P|282:176|281:151,1,50,8|0,2:0|2:0,2:0:0:0:
238,83,36942,2,0,P|237:58|245:34,1,50,8|0,2:0|2:0,2:0:0:0:
127,203,37078,6,0,P|94:219|57:220,1,75.0000000000002,2|0,3:2|3:2,2:0:0:0:
53,218,37283,1,0,3:2:0:0:
51,215,37351,1,8,2:0:0:0:
115,34,37487,1,2,2:0:0:0:
114,33,37760,2,0,P|135:45|160:48,1,50,0|0,3:2|2:0,2:0:0:0:
281,151,37896,2,0,P|338:147|380:115,1,100,10|0,2:0|2:0,2:0:0:0:
456,13,38169,5,2,3:2:0:0:
443,89,38442,5,10,2:0:0:0:
456,165,38578,1,8,2:0:0:0:
443,241,38715,1,2,3:2:0:0:
441,245,38783,1,0,3:2:0:0:
438,249,38851,2,0,P|416:259|391:260,1,50,2|0,3:2|2:0,2:0:0:0:
252,238,38987,2,0,P|274:227|299:226,1,50,8|0,2:0|2:0,2:0:0:0:
214,364,39124,2,0,P|191:374|166:375,1,50,8|0,2:0|2:0,2:0:0:0:
10,229,39260,6,0,L|21:154,1,75.0000000000002,2|0,3:2|3:2,2:0:0:0:
24,152,39465,1,0,3:2:0:0:
27,150,39533,1,8,2:0:0:0:
233,61,39669,2,0,P|249:94|252:131,1,75.0000000000002,2|0,2:0|3:2,2:0:0:0:
197,331,39942,2,0,P|195:312|188:295,1,37.5000000000001,0|0,3:2|2:0,2:0:0:0:
122,254,40078,2,0,P|105:220|102:183,1,75.0000000000002,10|0,2:0|2:0,2:0:0:0:
173,10,40351,5,2,3:2:0:0:
116,65,40556,5,0,2:0:0:0:
112,67,40624,1,10,2:0:0:0:
33,58,40760,1,8,2:0:0:0:
124,100,40896,1,2,3:2:0:0:
215,142,41033,1,2,3:2:0:0:
306,184,41169,6,0,L|373:174,1,50,8|0,2:0|2:0,2:0:0:0:
336,105,41306,2,0,L|403:95,1,50,8|0,2:0|2:0,2:0:0:0:
270,32,41442,6,0,B|278:18|269:2|269:2|238:10|235:52|264:77,1,125,2|0,3:2|2:0,2:0:0:0:
230,227,41715,1,10,2:0:0:0:
169,312,41851,2,0,B|177:326|168:342|168:342|137:334|134:292|163:267,1,125,2|0,2:0|3:2,2:0:0:0:
94,143,42124,1,2,3:2:0:0:
33,58,42260,2,0,B|41:44|32:28|32:28|1:36|-2:78|27:103,1,125,10|0,2:0|2:0,2:0:0:0:
2,254,42533,5,2,3:2:0:0:
2,254,42669,1,2,3:2:0:0:
77,237,42806,1,10,2:0:0:0:
152,220,42942,1,2,2:0:0:0:
227,203,43078,2,0,L|240:259,1,50,2|0,3:2|2:0,2:0:0:0:
302,186,43215,1,2,3:2:0:0:
377,169,43351,2,0,L|390:225,1,50,10|0,2:0|2:0,2:0:0:0:
452,152,43487,1,2,2:0:0:0:
508,206,43624,6,0,B|405:228|441:269|329:290,1,200,6|8,3:2|2:0,2:0:0:0:
122,31,44169,1,0,3:2:0:0:
135,110,44306,1,0,3:2:0:0:
68,81,44442,2,0,L|8:65,1,50,8|0,2:0|2:0,2:0:0:0:
189,60,44578,2,0,L|228:28,1,50,0|0,3:2|2:0,2:0:0:0:
417,113,44715,6,0,P|353:75|280:83,1,150,2|0,3:2|2:0,2:0:0:0:
270,97,44987,2,0,P|299:136|301:185,1,100,8|0,2:0|2:0,2:0:0:0:
178,287,45260,5,2,3:2:0:0:
101,294,45396,1,0,3:2:0:0:
258,308,45533,2,0,P|261:277|250:248,1,62.5,8|0,2:0|2:0,2:0:0:0:
21,276,45669,2,0,P|17:306|28:335,1,62.5,8|0,2:0|2:0,2:0:0:0:
335,347,45806,6,0,P|273:220|132:224,1,300,2|8,3:2|2:0,2:0:0:0:
18,44,46351,1,0,3:2:0:0:
18,44,46487,1,0,3:2:0:0:
95,16,46624,2,0,P|101:47|92:77,1,62.5,10|0,2:0|2:0,2:0:0:0:
27,129,46760,2,0,P|32:159|23:189,1,62.5,2|0,3:2|2:0,2:0:0:0:
103,332,46896,6,0,B|165:319|165:319|170:307|170:307|242:292,1,150,2|0,3:2|2:0,2:0:0:0:
261,308,47169,2,0,L|274:185,1,100,8|0,2:0|2:0,2:0:0:0:
293,34,47442,1,2,3:2:0:0:
292,43,47510,1,0,3:2:0:0:
291,53,47578,1,0,3:2:0:0:
214,105,47715,2,0,P|200:83|198:59,1,50,8|0,2:0|2:0,2:0:0:0:
371,15,47851,2,0,P|385:37|387:61,1,50,8|0,2:0|2:0,2:0:0:0:
289,183,47987,6,0,B|186:161|222:120|110:98,1,200,2|8,3:2|2:0,2:0:0:0:
384,271,48533,1,0,3:2:0:0:
413,351,48669,1,0,3:2:0:0:
337,334,48806,2,0,L|288:323,1,50,10|0,2:0|2:0,2:0:0:0:
460,288,48942,2,0,L|488:234,1,50,0|0,3:2|2:0,2:0:0:0:
372,51,49078,6,0,P|355:122|384:190,1,150,2|0,3:2|2:0,2:0:0:0:
404,197,49351,2,0,P|364:226|315:228,1,100,10|0,2:0|2:0,2:0:0:0:
118,186,49624,1,2,3:2:0:0:
98,110,49760,1,2,3:2:0:0:
161,57,49896,2,0,P|176:83|181:114,1,62.5,8|0,2:0|2:0,2:0:0:0:
36,184,50033,2,0,P|40:214|56:241,1,62.5,8|0,2:0|2:0,2:0:0:0:
209,289,50169,6,0,B|223:281|239:290|239:290|231:321|189:324|164:295,1,125,2|0,3:2|2:0,2:0:0:0:
344,122,50442,1,10,2:0:0:0:
250,183,50578,2,0,B|236:175|220:184|220:184|228:215|270:218|295:189,1,125,2|0,2:0|3:2,2:0:0:0:
412,338,50851,1,2,3:2:0:0:
512,288,50987,2,0,B|521:282|532:288|532:288|527:310|498:312|480:292,1,87.5000000000001,10|0,2:0|2:0,2:0:0:0:
374,258,51124,2,0,B|364:263|353:257|353:257|358:235|387:233|405:253,1,87.5000000000001,2|0,2:0|2:0,2:0:0:0:
473,211,51260,5,0,3:2:0:0:
473,211,51396,1,2,2:0:0:0:
461,131,51533,1,10,2:0:0:0:
449,51,51669,1,2,2:0:0:0:
321,2,51806,6,0,P|307:36|312:73,1,75,2|0,3:2|2:0,2:0:0:0:
262,134,51942,2,0,P|260:171|277:204,1,75,2|0,3:2|2:0,2:0:0:0:
405,254,52078,6,0,P|362:248|323:267,1,87.5000000000001,10|0,3:2|2:0,2:0:0:0:
192,207,52215,2,0,P|149:216|120:247,1,87.5000000000001,2|0,3:2|2:0,2:0:0:0:
21,349,52351,6,0,P|-16:259|7:164,1,200,6|8,3:2|2:0,2:0:0:0:
384,44,52896,1,0,3:2:0:0:
312,73,53033,1,0,3:2:0:0:
442,100,53169,2,0,L|498:114,1,50,8|0,2:0|2:0,2:0:0:0:
254,17,53306,2,0,L|198:3,1,50,0|0,3:2|2:0,2:0:0:0:
71,92,53442,6,0,B|146:84|141:123|217:112,1,150,2|0,3:2|2:0,2:0:0:0:
229,95,53715,2,0,P|253:156|219:217,1,100,8|0,2:0|2:0,2:0:0:0:
171,342,53987,1,2,3:2:0:0:
93,316,54124,1,0,3:2:0:0:
228,282,54260,2,0,P|246:309|252:339,1,62.5,8|0,2:0|2:0,2:0:0:0:
35,375,54396,2,0,P|17:348|11:318,1,62.5,0|0,2:0|2:0,2:0:0:0:
133,219,54533,6,0,P|241:315|380:278,1,300,2|8,3:2|2:0,2:0:0:0:
353,49,55078,1,0,3:2:0:0:
353,49,55215,1,0,3:2:0:0:
268,37,55351,2,0,P|270:67|283:96,1,62.5,10|0,2:0|2:0,2:0:0:0:
437,60,55487,2,0,P|434:29|421:0,1,62.5,2|0,3:2|2:0,2:0:0:0:
189,4,55624,6,0,L|179:153,1,150,2|0,3:2|2:0,2:0:0:0:
165,172,55896,2,0,B|208:196|208:196|257:187,1,100,8|0,2:0|2:0,2:0:0:0:
470,153,56169,1,2,3:2:0:0:
473,143,56237,1,0,3:2:0:0:
476,133,56306,1,0,3:2:0:0:
392,62,56442,2,0,L|400:132,1,50,8|0,2:0|2:0,2:0:0:0:
322,281,56578,2,0,L|327:231,1,50,8|0,2:0|2:0,2:0:0:0:
226,69,56715,6,0,B|134:84|134:84|128:96|128:96|36:111,1,200,2|8,3:2|2:0,2:0:0:0:
86,300,57260,1,2,3:2:0:0:
163,315,57396,1,0,3:2:0:0:
2,291,57533,2,0,L|12:339,1,50,10|0,2:0|2:0,2:0:0:0:
247,324,57669,2,0,L|236:275,1,50,0|0,3:2|2:0,2:0:0:0:
147,209,57806,6,0,B|222:217|217:178|293:189,1,150,2|0,3:2|2:0,2:0:0:0:
309,202,58078,2,0,P|331:158|323:110,1,100,10|0,2:0|2:0,2:0:0:0:
184,0,58351,1,2,3:2:0:0:
111,30,58487,1,2,3:2:0:0:
239,56,58624,2,0,P|269:51|296:35,1,62.5,8|0,2:0|2:0,2:0:0:0:
409,163,58760,2,0,P|439:158|466:142,1,62.5,0|0,2:0|2:0,2:0:0:0:
298,280,58896,6,0,B|282:275|269:288|269:288|285:316|326:308|343:274,1,125,2|0,3:2|2:0,2:0:0:0:
68,168,59169,1,10,2:0:0:0:
190,202,59306,2,0,B|205:197|218:210|218:210|202:238|161:230|144:196,1,125,2|0,2:0|2:0,2:0:0:0:
395,89,59578,1,2,3:2:0:0:
289,132,59715,2,0,B|278:129|268:138|268:138|279:157|308:152|320:127,1,87.5000000000001,10|0,2:0|2:0,2:0:0:0:
498,43,59851,2,0,B|508:45|518:36|518:36|507:17|478:22|466:47,1,87.5000000000001,2|0,2:0|2:0,2:0:0:0:
438,181,59987,5,0,3:2:0:0:
438,181,60124,1,2,3:2:0:0:
326,217,60260,1,10,2:0:0:0:
214,253,60396,1,2,3:2:0:0:
102,289,60533,6,0,P|151:318|198:305,1,75,10|0,2:0|2:0,2:0:0:0:
353,322,60669,2,0,P|304:293|257:306,1,75,10|0,2:0|2:0,2:0:0:0:
40,238,60806,6,0,P|74:212|117:211,1,87.5000000000001,10|0,2:0|2:0,2:0:0:0:
397,100,60942,2,0,P|362:125|319:126,1,87.5000000000001,10|0,2:0|2:0,2:0:0:0:
182,13,61078,6,0,L|171:87,1,75,6|2,3:2|2:0,2:0:0:0:
427,255,61215,2,0,L|437:180,1,75,6|0,3:2|2:0,2:0:0:0:
262,63,61351,1,8,2:0:0:0:
319,126,61487,6,0,L|329:200,1,75,6|2,3:2|2:0,2:0:0:0:
40,238,61624,2,0,L|29:163,1,75,6|0,3:2|2:0,2:0:0:0:
170,87,61760,1,10,2:0:0:0:
229,264,61896,6,0,L|304:275,1,75,6|0,3:2|2:0,2:0:0:0:
170,87,62033,2,0,L|96:77,1,75,10|0,2:0|2:0,2:0:0:0:
199,176,62169,5,4,3:2:0:0:
341,51,62306,1,8,2:0:0:0:
199,176,62442,1,8,2:0:0:0:
341,51,62578,1,0,3:2:0:0:
339,36,62646,1,0,3:2:0:0:
337,21,62715,5,0,3:2:0:0:
204,58,62851,1,8,2:0:0:0:
65,96,62987,1,8,2:3:0:0:
204,58,63124,1,0,3:2:0:0:
414,177,63260,6,0,P|429:143|428:106,1,75,6|2,3:2|2:0,2:0:0:0:
241,69,63396,2,0,P|225:102|226:139,1,75,6|0,3:2|2:0,2:0:0:0:
328,124,63533,1,8,2:0:0:0:
150,38,63669,6,0,P|112:41|81:60,1,75,6|2,3:2|2:0,2:0:0:0:
143,241,63806,2,0,P|180:237|211:218,1,75,6|0,3:2|2:0,2:0:0:0:
147,138,63942,1,10,2:0:0:0:
163,335,64078,6,0,P|184:365|217:382,1,75,6|0,3:2|2:0,2:0:0:0:
343,239,64215,2,0,P|321:208|288:191,1,75,10|0,2:0|2:0,2:0:0:0:
251,286,64351,6,0,L|258:321,1,25,0|0,3:2|2:0,2:0:0:0:
444,248,64624,2,0,L|450:282,1,25,0|0,3:2|2:0,2:0:0:0:
411,371,64896,6,0,L|403:335,1,37.5000000000001,4|0,3:2|2:0,2:0:0:0:
343,239,65033,2,0,L|353:282,1,37.5000000000001,4|0,3:2|2:0,2:0:0:0:
265,358,65169,6,0,L|255:310,1,50,4|0,3:2|2:0,2:0:0:0:
120,166,65306,2,0,L|130:214,1,50,4|0,3:2|2:0,2:0:0:0:
74,301,65442,6,0,L|-31:284,1,75,6|2,3:2|2:0,2:0:0:0:
100,75,65578,2,0,L|205:92,1,75,6|0,3:2|2:0,2:0:0:0:
52,215,65715,1,10,2:0:0:0:
275,1,65851,6,0,L|170:18,1,75,6|0,3:2|2:0,2:0:0:0:
301,227,65987,2,0,L|406:210,1,75,6|0,3:2|2:0,2:0:0:0:
253,87,66124,1,10,2:0:0:0:
227,313,66260,6,0,L|122:296,1,75,6|0,3:2|2:0,2:0:0:0:
253,87,66396,2,0,L|358:104,1,75,10|0,2:0|2:0,2:0:0:0:
205,227,66533,5,4,3:2:0:0:
399,135,66669,1,8,2:0:0:0:
282,235,66806,5,8,2:0:0:0:
346,180,66942,1,8,2:0:0:0:
274,192,67078,1,8,2:0:0:0:
353,221,67215,1,8,2:0:0:0:
306,166,67351,1,8,2:0:0:0:
321,249,67487,1,4,3:2:0:0:
167,371,67624,6,0,P|150:337|152:300,1,75,6|0,3:2|2:0,2:0:0:0:
189,154,67760,2,0,P|191:116|174:83,1,75,6|2,3:2|2:0,2:0:0:0:
126,215,67896,1,10,2:0:0:0:
44,45,68033,6,0,P|77:28|114:30,1,75,6|0,3:2|2:0,2:0:0:0:
261,67,68169,2,0,P|298:69|331:52,1,75,6|0,3:2|2:0,2:0:0:0:
200,4,68306,1,10,2:0:0:0:
394,6,68442,6,0,P|410:39|408:76,1,75,6|0,3:2|2:0,2:0:0:0:
291,220,68578,2,0,P|274:186|276:149,1,75,10|0,2:0|2:0,2:0:0:0:
483,23,68715,5,4,3:2:0:0:
350,171,68851,1,10,2:0:0:0:
483,23,68987,1,6,3:2:0:0:
350,171,69124,1,4,3:2:0:0:
466,122,69260,5,10,2:0:0:0:
463,141,69328,1,8,2:0:0:0:
427,176,69396,1,8,2:0:0:0:
430,195,69465,1,8,2:0:0:0:
466,230,69533,1,10,2:0:0:0:
463,249,69601,1,8,2:0:0:0:
427,284,69669,1,10,2:0:0:0:
430,303,69737,1,8,2:0:0:0:
466,338,69806,6,0,L|391:329,1,75,6|2,3:2|2:0,2:0:0:0:
260,118,69942,2,0,L|334:126,1,75,6|0,3:2|2:0,2:0:0:0:
315,359,70078,1,8,2:0:0:0:
246,205,70215,6,0,L|171:213,1,75,6|2,3:2|2:0,2:0:0:0:
122,374,70351,2,0,L|196:365,1,75,6|0,3:2|2:0,2:0:0:0:
332,213,70487,1,10,2:0:0:0:
196,364,70624,6,0,L|187:289,1,75,6|0,3:2|2:0,2:0:0:0:
251,43,70760,2,0,L|259:117,1,75,10|0,2:0|2:0,2:0:0:0:
274,283,70896,5,4,3:2:0:0:
93,219,71033,1,8,2:0:0:0:
274,283,71169,1,8,2:0:0:0:
93,219,71306,1,4,3:2:0:0:
89,204,71374,1,0,3:2:0:0:
85,189,71442,5,0,3:2:0:0:
206,166,71578,1,8,2:0:0:0:
327,143,71715,1,0,3:2:0:0:
206,166,71851,1,8,2:0:0:0:
478,129,71987,6,0,P|443:114|406:116,1,75,6|2,3:2|2:0,2:0:0:0:
316,259,72124,2,0,P|350:273|387:271,1,75,6|0,3:2|2:0,2:0:0:0:
399,193,72260,1,8,2:0:0:0:
348,67,72396,6,0,P|310:65|276:79,1,75,6|2,3:2|2:0,2:0:0:0:
181,330,72533,2,0,P|218:331|252:317,1,75,6|0,3:2|2:0,2:0:0:0:
274,197,72669,1,10,2:0:0:0:
197,64,72806,6,0,P|162:49|125:51,1,75,6|0,3:2|2:0,2:0:0:0:
26,329,72942,2,0,P|60:343|97:341,1,75,10|0,2:0|2:0,2:0:0:0:
57,118,73078,6,0,P|39:207|93:280,1,187.5,4|0,3:2|2:0,2:0:0:0:
93,280,73215,6,0,P|103:198|166:146,1,168.75,4|0,3:2|2:0,2:0:0:0:
166,145,73351,6,0,P|169:218|219:272,1,150,4|0,3:2|2:0,2:0:0:0:
219,272,73487,6,0,P|237:210|291:174,1,131.25,4|0,3:2|2:0,2:0:0:0:
290,174,73624,6,0,P|320:220|372:237,1,112.5,4|0,3:2|2:0,2:0:0:0:
373,237,73760,6,0,P|401:205|459:194,1,93.75,4|0,3:2|2:0,2:0:0:0:
449,192,73896,6,0,P|476:208|499:209,1,50,4|0,3:2|2:0,2:0:0:0:
494,209,74033,5,8,2:0:0:0:
343,64,74169,6,0,L|354:138,1,75,6|2,3:2|2:0,2:0:0:0:
294,362,74306,2,0,L|282:287,1,75,6|0,3:2|2:0,2:0:0:0:
425,92,74442,1,10,2:0:0:0:
233,229,74578,6,0,L|159:241,1,75,6|2,3:2|2:0,2:0:0:0:
410,301,74715,2,0,L|485:290,1,75,6|0,3:2|2:0,2:0:0:0:
354,138,74851,1,10,2:0:0:0:
189,126,74987,6,0,L|263:137,1,75,6|0,3:2|2:0,2:0:0:0:
484,16,75124,2,0,L|409:4,1,75,10|0,2:0|2:0,2:0:0:0:
120,56,75260,5,4,3:2:0:0:
120,56,75396,2,0,B|213:44|213:44|220:52|220:52|314:41,1,200,8|0,2:0|3:2,2:0:0:0:
369,106,75806,6,0,L|393:109,2,25,8|0|0,2:0|2:0|2:0,2:0:0:0:
469,121,75942,2,0,L|493:124,2,25,8|0|0,2:0|2:0|2:0,2:0:0:0:
336,194,76078,6,0,L|311:197,2,25,8|0|0,2:0|2:0|2:0,2:0:0:0:
236,209,76215,2,0,L|211:212,2,25,8|0|0,2:0|2:0|2:0,2:0:0:0:
361,277,76351,6,0,P|396:293|434:289,1,75,6|0,3:2|2:0,2:0:0:0:
264,123,76487,2,0,P|261:86|276:52,1,75,6|2,3:2|2:0,2:0:0:0:
311,197,76624,1,10,2:0:0:0:
221,326,76760,6,0,P|243:357|278:372,1,75,6|0,3:2|2:0,2:0:0:0:
179,95,76896,2,0,P|195:61|225:40,1,75,4|0,3:2|2:0,2:0:0:0:
236,209,77033,1,10,2:0:0:0:
75,298,77169,6,0,P|78:336|101:367,1,75,6|0,3:2|2:0,2:0:0:0:
119,28,77306,2,0,P|149:7|186:3,1,75,10|0,2:0|2:0,2:0:0:0:
142,180,77442,5,4,3:2:0:0:
45,2,77578,1,10,2:0:0:0:
142,180,77715,1,6,3:2:0:0:
45,2,77851,1,8,2:0:0:0:
46,232,77987,5,10,2:0:0:0:
58,236,78056,1,8,2:0:0:0:
85,266,78124,1,8,2:0:0:0:
106,259,78192,1,8,2:0:0:0:
153,287,78260,1,10,2:0:0:0:
185,267,78328,1,8,2:0:0:0:
237,278,78396,1,8,2:0:0:0:
269,236,78465,1,8,2:0:0:0:
256,192,78533,12,0,83101,2:0:0:0:
71,45,83987,5,2,2:0:0:0:
71,45,84192,1,0,2:0:0:0:
153,92,84533,5,2,2:0:0:0:
153,92,84737,1,0,2:0:0:0:
185,169,85078,5,2,2:0:0:0:
185,169,85282,2,0,L|171:242,1,75,0|0,2:0|2:0,2:0:0:0:
171,242,85896,1,2,2:0:0:0:
59,317,86168,6,0,B|116:360|206:319|253:346,1,200,2|0,2:0|2:0,2:0:0:0:
253,346,87259,5,2,2:0:0:0:
253,346,87464,2,0,L|245:271,1,75,2|0,2:0|2:0,2:0:0:0:
325,305,87805,5,2,2:0:0:0:
389,348,88078,1,2,2:0:0:0:
462,311,88350,5,2,2:0:0:0:
462,311,88555,2,0,L|451:236,1,75,2|0,2:0|2:0,2:0:0:0:
373,234,88896,2,0,L|383:159,1,75,2|0,2:0|2:0,2:0:0:0:
460,132,89441,5,2,2:0:0:0:
460,132,89646,2,0,L|447:58,1,75,2|0,2:0|2:0,2:0:0:0:
447,58,90259,5,2,2:0:0:0:
278,186,90532,1,2,2:0:0:0:
278,186,90737,2,0,L|282:260,1,75,2|0,2:0|2:0,2:0:0:0:
282,260,91623,1,2,2:0:0:0:
203,183,91828,2,0,L|277:186,1,75,2|0,2:0|2:0,2:0:0:0:
203,183,92714,5,2,2:0:0:0:
203,183,92918,2,0,L|183:110,1,75,2|0,2:0|2:0,2:0:0:0:
174,263,93259,1,2,2:0:0:0:
174,263,93464,2,0,L|121:209,1,75,2|0,2:0|2:0,2:0:0:0:
197,346,93805,1,2,2:0:0:0:
197,346,94009,2,0,L|124:326,1,75,2|0,2:0|2:0,2:0:0:0:
303,381,94623,1,2,2:0:0:0:
58,363,94896,5,2,2:0:0:0:
58,363,95100,2,0,L|36:291,1,75,2|2,2:0|2:0,2:0:0:0:
156,195,95987,1,2,2:0:0:0:
156,195,96191,2,0,L|174:267,1,75,2|0,2:0|2:0,2:0:0:0:
69,219,96532,1,2,2:0:0:0:
24,146,96805,1,2,2:0:0:0:
64,72,97078,5,2,2:0:0:0:
64,72,97282,2,0,L|135:50,1,75,2|2,2:0|2:0,2:0:0:0:
221,80,97623,1,2,2:0:0:0:
279,23,98168,5,2,2:0:0:0:
279,23,98373,2,0,L|351:41,1,75,2|2,2:0|2:0,2:0:0:0:
414,89,99259,1,2,2:0:0:0:
414,89,99464,1,2,2:0:0:0:
504,22,100350,6,0,L|481:93,1,75,2|0,2:0|2:0,2:0:0:0:
474,168,101441,5,2,2:0:0:0:
474,168,101714,2,0,L|498:164,3,25,0|0|0|0,2:0|2:0|2:0|2:0,2:0:0:0:
486,249,101987,2,0,L|508:259,3,25,2|2|2|2,3:2|3:2|3:2|3:2,2:0:0:0:
457,255,102259,5,2,3:2:0:0:
434,267,102328,1,2,3:2:0:0:
413,281,102396,1,2,3:2:0:0:
392,295,102464,1,0,3:2:0:0:
352,324,102532,5,6,3:2:0:0:
467,359,102668,1,0,3:2:0:0:
333,232,102804,2,0,L|184:209,1,150,8|0,2:0|2:0,2:0:0:0:
178,251,103077,2,0,L|183:301,1,50,0|0,3:2|2:0,2:0:0:0:
84,183,103213,2,0,L|79:133,1,50,0|0,3:2|2:0,2:0:0:0:
218,119,103350,1,10,2:0:0:0:
50,41,103486,2,0,L|0:45,1,50,0|0,3:2|2:0,2:0:0:0:
144,9,103622,6,0,P|191:23|241:22,1,100,0|2,3:2|2:0,2:0:0:0:
388,12,103895,1,8,2:0:0:0:
388,12,104032,1,0,3:2:0:0:
387,11,104168,2,0,L|392:61,1,50,2|0,3:2|2:0,2:0:0:0:
467,98,104304,2,0,L|472:148,1,50,0|0,3:2|2:0,2:0:0:0:
399,192,104441,2,0,L|412:342,1,150,10|0,2:0|2:0,2:0:0:0:
399,362,104713,5,2,3:2:0:0:
496,274,104850,1,0,3:2:0:0:
298,366,104986,2,0,L|148:355,1,150,8|0,2:0|2:0,2:0:0:0:
147,327,105259,2,0,L|196:323,1,50,0|0,3:2|2:0,2:0:0:0:
51,292,105395,2,0,L|1:295,1,50,0|0,3:2|2:0,2:0:0:0:
121,233,105532,1,10,2:0:0:0:
319,246,105668,2,0,L|324:295,1,50,0|0,3:2|2:0,2:0:0:0:
378,359,105804,6,0,P|422:301|406:229,1,150,0|0,3:2|2:0,2:0:0:0:
349,173,106077,1,8,2:0:0:0:
349,173,106350,1,2,3:2:0:0:
375,130,106418,1,0,3:2:0:0:
423,144,106486,1,0,3:2:0:0:
497,28,106622,1,10,2:0:0:0:
512,203,106759,1,0,2:0:0:0:
378,47,106895,6,0,B|308:19|308:19|235:34,1,150,2|0,3:2|2:0,2:0:0:0:
86,30,107168,2,0,P|153:61|174:130,1,150,8|0,2:0|2:0,2:0:0:0:
176,160,107441,1,0,3:2:0:0:
2,73,107577,1,0,3:2:0:0:
113,207,107713,2,0,L|125:255,1,50,10|0,2:0|2:0,2:0:0:0:
26,358,107850,2,0,L|39:310,1,50,0|0,3:2|2:0,2:0:0:0:
140,337,107986,6,0,P|237:315|335:296,1,200,0|8,3:2|2:0,2:0:0:0:
335,296,108532,1,2,3:2:0:0:
512,384,108668,1,0,3:2:0:0:
463,189,108804,2,0,L|457:238,1,50,10|0,2:0|2:0,2:0:0:0:
336,270,108941,2,0,L|330:220,1,50,0|0,2:0|2:0,2:0:0:0:
280,68,109077,6,0,P|351:68|383:136,1,150,2|0,3:2|2:0,2:0:0:0:
383,131,109350,2,0,L|283:138,1,100,10|0,2:0|2:0,2:0:0:0:
280,68,109486,2,0,P|351:68|383:136,1,150,2|0,2:0|2:0,2:0:0:0:
383,131,109759,2,0,L|283:138,1,100,2|0,3:2|2:0,2:0:0:0:
190,76,109895,6,0,L|174:-16,1,75,10|0,2:0|2:0,2:0:0:0:
51,130,110032,2,0,L|38:203,1,75,2|0,2:0|2:0,2:0:0:0:
24,331,110168,5,0,3:0:0:0:
159,239,110304,2,0,B|183:244|183:244|147:245,1,59.9999999999999,2|8,2:0|2:0,2:0:0:0:
233,180,110509,1,2,2:0:0:0:
233,180,110577,2,0,P|257:178|282:177,1,50,2|0,2:0|2:0,2:0:0:0:
373,237,110713,6,0,P|363:200|368:163,1,75,2|0,3:2|2:0,2:0:0:0:
443,160,110850,2,0,P|452:196|447:233,1,75,2|0,3:2|2:0,2:0:0:0:
246,356,110986,6,0,P|256:320|278:290,1,75,2|0,3:2|2:0,2:0:0:0:
346,319,111122,2,0,P|335:354|313:384,1,75,2|0,3:2|2:0,2:0:0:0:
157,344,111259,6,0,L|9:364,1,150,6|0,3:2|2:0,2:0:0:0:
54,229,111532,2,0,P|72:275|63:324,1,100,8|2,2:0|2:0,2:0:0:0:
67,36,111804,1,0,3:2:0:0:
0,137,111941,1,0,3:2:0:0:
171,20,112077,2,0,L|211:48,1,50,10|0,2:0|2:0,2:0:0:0:
159,158,112213,2,0,L|157:108,1,50,0|0,3:2|2:0,2:0:0:0:
291,36,112350,6,0,L|440:18,1,150,0|0,3:2|2:0,2:0:0:0:
295,115,112622,1,8,2:0:0:0:
295,115,112895,2,0,P|324:122|364:147,1,50,2|0,3:2|2:0,2:0:0:0:
398,176,113032,2,0,P|416:192|431:212,1,50,0|0,3:2|2:0,2:0:0:0:
455,295,113168,2,0,P|380:303|306:315,1,150,10|0,2:0|2:0,2:0:0:0:
245,183,113441,6,0,P|310:218|361:273,1,150,2|0,3:2|2:0,2:0:0:0:
379,319,113713,2,0,L|324:328,1,50,8|0,2:0|2:0,2:0:0:0:
115,327,113850,1,2,2:0:0:0:
235,378,113986,1,0,3:2:0:0:
28,225,114122,1,0,3:2:0:0:
198,100,114259,2,0,L|214:148,1,50,10|0,2:0|2:0,2:0:0:0:
194,264,114395,2,0,L|152:235,1,50,0|0,3:2|2:0,2:0:0:0:
102,142,114532,6,0,P|91:70|30:29,1,150,0|0,3:2|2:0,2:0:0:0:
8,38,114804,1,8,2:0:0:0:
155,13,115009,1,2,3:2:0:0:
155,13,115077,1,2,3:2:0:0:
259,32,115213,1,0,3:2:0:0:
364,55,115350,2,0,P|434:30|502:0,1,150,10|0,2:0|2:0,2:0:0:0:
446,79,115622,6,0,P|438:128|440:177,1,100,2|0,3:2|2:0,2:0:0:0:
458,364,115895,2,0,P|517:322|513:251,1,150,8|0,2:0|2:0,2:0:0:0:
492,246,116168,1,0,3:2:0:0:
331,384,116304,1,0,3:2:0:0:
309,223,116441,2,0,L|303:173,1,50,10|0,2:0|2:0,2:0:0:0:
202,275,116577,2,0,L|207:324,1,50,0|0,3:2|2:0,2:0:0:0:
70,223,116713,6,0,P|140:209|170:143,1,150,0|0,3:2|2:0,2:0:0:0:
174,101,116986,1,8,2:0:0:0:
0,194,117122,1,0,2:0:0:0:
18,14,117259,2,0,P|27:37|42:57,1,50,2|0,3:2|2:0,2:0:0:0:
174,101,117395,2,0,P|188:80|198:57,1,50,0|0,3:2|2:0,2:0:0:0:
318,0,117532,1,10,2:0:0:0:
344,326,117804,5,2,3:2:0:0:
273,364,118077,1,0,3:2:0:0:
218,305,118350,1,8,2:0:0:0:
289,269,118622,5,2,2:0:0:0:
218,305,118759,1,0,2:0:0:0:
159,250,118895,1,0,2:0:0:0:
231,215,119032,1,2,2:0:0:0:
306,190,119168,1,0,3:2:0:0:
246,136,119441,5,10,2:0:0:0:
194,80,119713,6,0,P|165:40|116:36,1,100,10|0,2:0|2:0,2:0:0:0:
108,52,119850,2,0,P|136:91|185:95,1,100,8|0,2:0|2:0,2:0:0:0:
432,171,119986,6,0,L|449:93,1,75,6|2,3:2|2:0,2:0:0:0:
306,1,120122,2,0,L|290:74,1,75,6|0,3:2|2:0,2:0:0:0:
380,226,120259,1,10,2:0:0:0:
120,306,120395,6,0,L|103:228,1,75,6|2,3:2|2:0,2:0:0:0:
246,136,120532,2,0,L|261:209,1,75,6|0,3:2|2:0,2:0:0:0:
189,343,120668,1,10,2:0:0:0:
317,273,120804,6,0,L|239:290,1,75,6|2,3:2|2:0,2:0:0:0:
97,156,120941,2,0,L|170:140,1,75,10|0,2:0|2:0,2:0:0:0:
380,226,121077,5,6,3:2:0:0:
415,39,121213,1,8,2:0:0:0:
380,226,121350,1,8,2:0:0:0:
415,39,121486,1,0,3:2:0:0:
402,31,121554,1,0,3:2:0:0:
389,23,121622,5,2,3:2:0:0:
433,145,121759,1,8,2:0:0:0:
477,267,121895,1,8,2:3:0:0:
433,145,122032,1,0,3:2:0:0:
297,55,122168,6,0,P|261:43|224:46,1,75,6|2,3:2|2:0,2:0:0:0:
160,6,122304,2,0,P|132:30|116:64,1,75,6|0,3:2|2:0,2:0:0:0:
49,100,122441,1,10,2:0:0:0:
212,293,122577,6,0,P|239:268|255:234,1,75,6|2,3:2|2:0,2:0:0:0:
322,198,122713,2,0,P|314:161|292:131,1,75,6|0,3:2|2:0,2:0:0:0:
297,55,122850,1,10,2:0:0:0:
49,100,122986,6,0,P|56:136|78:166,1,75,6|2,3:2|2:0,2:0:0:0:
148,251,123122,2,0,P|111:254|76:243,1,75,10|0,2:0|2:0,2:0:0:0:
55,21,123259,6,0,P|63:12|73:6,1,25,2|0,3:2|2:0,2:0:0:0:
197,153,123532,2,0,P|209:155|220:161,1,25,0|0,3:2|2:0,2:0:0:0:
153,340,123804,6,0,P|159:358|157:377,1,37.5000000000001,6|0,3:2|2:0,2:0:0:0:
78,362,123941,2,0,P|72:344|74:325,1,37.5000000000001,4|0,3:2|2:0,2:0:0:0:
255,234,124077,6,0,P|259:258|258:283,1,50,4|0,3:2|2:0,2:0:0:0:
110,179,124213,2,0,P|105:154|106:129,1,50,4|0,3:2|2:0,2:0:0:0:
294,29,124350,6,0,L|286:114,1,75,6|2,3:2|2:0,2:0:0:0:
432,312,124486,2,0,L|439:237,1,75,6|0,3:2|2:0,2:0:0:0:
510,125,124622,1,10,2:0:0:0:
353,269,124759,6,0,L|360:194,1,75,6|0,3:2|2:0,2:0:0:0:
204,78,124895,2,0,L|196:152,1,75,6|0,3:2|2:0,2:0:0:0:
153,340,125032,1,10,2:0:0:0:
286,103,125168,6,0,L|278:177,1,75,6|0,3:2|2:0,2:0:0:0:
85,297,125304,2,0,L|92:222,1,75,10|0,2:0|2:0,2:0:0:0:
267,23,125441,5,6,3:2:0:0:
60,92,125577,1,8,2:0:0:0:
267,23,125713,1,8,2:0:0:0:
60,92,125850,1,0,3:2:0:0:
56,106,125918,1,0,3:2:0:0:
52,120,125986,5,2,3:2:0:0:
204,78,126122,1,8,2:0:0:0:
356,36,126259,1,0,2:0:0:0:
204,78,126395,1,0,3:2:0:0:
167,243,126532,6,0,P|169:280|185:313,1,75,6|2,3:2|2:0,2:0:0:0:
287,286,126668,2,0,P|284:248|268:215,1,75,6|0,3:2|2:0,2:0:0:0:
105,188,126804,1,10,2:0:0:0:
351,342,126941,6,0,P|367:308|370:271,1,75,6|2,3:2|2:0,2:0:0:0:
104,188,127077,2,0,P|88:221|85:258,1,75,6|0,3:2|2:0,2:0:0:0:
255,367,127213,1,10,2:0:0:0:
432,216,127350,6,0,P|448:249|451:287,1,75,6|0,3:2|2:0,2:0:0:0:
185,313,127486,2,0,P|168:279|166:242,1,75,10|0,2:0|2:0,2:0:0:0:
279,134,127622,5,6,3:2:0:0:
478,104,127759,1,10,2:0:0:0:
279,134,127895,1,6,3:2:0:0:
478,104,128032,1,8,2:0:0:0:
382,31,128168,5,10,2:0:0:0:
377,45,128236,1,8,2:0:0:0:
342,84,128304,1,8,2:0:0:0:
347,98,128372,1,8,2:0:0:0:
382,137,128441,1,10,2:0:0:0:
377,151,128509,1,8,2:0:0:0:
342,190,128577,1,10,2:0:0:0:
347,204,128645,1,8,2:0:0:0:
382,243,128713,6,0,L|464:255,1,75,6|2,3:2|2:0,2:0:0:0:
279,134,128850,2,0,L|204:123,1,75,6|0,3:2|2:0,2:0:0:0:
339,304,128986,1,10,2:0:0:0:
138,55,129122,6,0,L|220:43,1,75,6|2,3:2|2:0,2:0:0:0:
225,265,129259,2,0,L|150:275,1,75,6|0,3:2|2:0,2:0:0:0:
27,120,129395,1,10,2:0:0:0:
73,346,129532,6,0,L|147:356,1,75,6|0,3:2|2:0,2:0:0:0:
121,91,129668,2,0,L|46:80,1,75,10|0,2:0|2:0,2:0:0:0:
106,219,129804,5,6,3:2:0:0:
318,155,129941,1,8,2:0:0:0:
106,219,130077,1,8,2:0:0:0:
318,155,130213,1,4,3:2:0:0:
323,141,130282,1,0,3:2:0:0:
328,127,130350,5,2,3:2:0:0:
195,93,130486,1,8,2:0:0:0:
62,59,130622,1,0,3:2:0:0:
195,93,130759,1,8,2:0:0:0:
41,192,130895,6,0,P|70:214|106:219,1,75,6|2,3:2|2:0,2:0:0:0:
157,278,131032,2,0,P|179:248|184:212,1,75,6|0,3:2|2:0,2:0:0:0:
113,8,131168,1,10,2:0:0:0:
447,133,131304,6,0,P|417:155|381:160,1,75,6|2,3:2|2:0,2:0:0:0:
250,238,131441,2,0,P|213:234|184:212,1,75,6|0,3:2|2:0,2:0:0:0:
152,84,131577,1,10,2:0:0:0:
363,86,131713,6,0,P|385:55|386:18,1,75,6|2,3:2|2:0,2:0:0:0:
78,73,131850,2,0,P|79:110|101:141,1,75,10|0,2:0|2:0,2:0:0:0:
333,52,131986,6,0,P|241:46|172:106,1,187.5,6|0,3:2|2:0,2:0:0:0:
172,106,132122,6,0,P|254:100|317:155,1,168.75,4|0,3:2|2:0,2:0:0:0:
316,154,132259,6,0,P|242:148|186:195,1,150,4|0,3:2|2:0,2:0:0:0:
186,195,132395,6,0,P|253:190|304:233,1,131.25,4|0,3:2|2:0,2:0:0:0:
301,227,132532,6,0,P|246:223|204:257,1,112.5,6|0,3:2|2:0,2:0:0:0:
202,258,132668,6,0,P|248:265|283:295,1,93.75,4|0,3:2|2:0,2:0:0:0:
283,295,132804,6,0,P|243:312|232:329,1,50,4|0,3:2|2:0,2:0:0:0:
239,315,132941,1,4,3:2:0:0:
355,360,133077,6,0,L|365:285,1,75,6|2,3:2|2:0,2:0:0:0:
119,242,133213,2,0,L|108:316,1,75,6|0,3:2|2:0,2:0:0:0:
172,360,133350,1,10,2:0:0:0:
74,183,133486,6,0,L|63:108,1,75,6|0,3:2|2:0,2:0:0:0:
310,65,133622,2,0,L|320:139,1,75,6|0,3:2|2:0,2:0:0:0:
257,183,133759,1,10,2:0:0:0:
107,44,133895,6,0,L|181:33,1,75,6|0,3:2|2:0,2:0:0:0:
404,203,134032,2,0,L|329:213,1,75,10|0,2:0|2:0,2:0:0:0:
236,86,134168,5,4,3:2:0:0:
183,319,134304,1,8,2:0:0:0:
236,86,134441,1,8,2:0:0:0:
183,319,134577,1,0,3:2:0:0:
191,328,134645,1,0,3:2:0:0:
199,337,134713,5,8,2:0:0:0:
390,275,134850,1,8,2:0:0:0:
328,84,134986,1,8,2:0:0:0:
137,146,135122,1,8,2:0:0:0:
238,258,135259,6,0,P|273:268|310:264,1,75,6|2,3:2|2:0,2:0:0:0:
115,71,135395,2,0,P|79:60|42:64,1,75,6|0,3:2|2:0,2:0:0:0:
216,183,135532,1,10,2:0:0:0:
58,137,135668,6,0,P|47:172|51:209,1,75,6|2,3:2|2:0,2:0:0:0:
174,384,135804,2,0,P|184:348|180:311,1,75,6|0,3:2|2:0,2:0:0:0:
205,105,135941,1,10,2:0:0:0:
472,37,136077,6,0,P|482:72|478:109,1,75,6|0,3:2|2:0,2:0:0:0:
326,243,136213,2,0,P|315:207|319:170,1,75,10|0,2:0|2:0,2:0:0:0:
251,41,136350,5,4,3:2:0:0:
58,137,136486,1,10,2:0:0:0:
251,41,136622,1,6,3:2:0:0:
58,137,136759,1,10,2:0:0:0:
114,25,136895,5,10,2:0:0:0:
118,37,136963,1,8,2:0:0:0:
148,64,137032,1,10,2:0:0:0:
141,85,137100,1,8,2:0:0:0:
169,132,137168,1,10,2:0:0:0:
149,164,137236,1,8,2:0:0:0:
160,216,137304,1,10,2:0:0:0:
118,248,137372,1,8,2:0:0:0:
112,295,137441,6,0,L|37:286,1,75,6|2,3:2|2:0,2:0:0:0:
236,180,137577,2,0,L|310:188,1,75,6|0,3:2|2:0,2:0:0:0:
56,98,137713,1,10,2:0:0:0:
215,76,137850,6,0,L|140:84,1,75,6|0,3:2|2:0,2:0:0:0:
1,190,137986,2,0,L|75:181,1,75,6|0,3:2|2:0,2:0:0:0:
232,260,138122,1,10,2:0:0:0:
359,113,138259,6,0,L|284:105,1,75,6|0,3:2|2:0,2:0:0:0:
232,260,138395,2,0,L|306:269,1,75,10|0,2:0|2:0,2:0:0:0:
441,210,138532,5,6,3:2:0:0:
387,23,138668,1,8,2:0:0:0:
441,210,138804,1,8,2:0:0:0:
387,23,138941,1,0,3:2:0:0:
372,19,139009,1,0,3:2:0:0:
357,15,139077,5,2,3:2:0:0:
345,142,139213,1,8,2:0:0:0:
333,269,139350,1,0,2:0:0:0:
345,142,139486,1,0,3:2:0:0:
215,47,139622,6,0,P|179:36|142:40,1,75,6|2,3:2|2:0,2:0:0:0:
98,121,139759,2,0,P|133:131|170:127,1,75,6|0,3:2|2:0,2:0:0:0:
284,83,139895,1,10,2:0:0:0:
52,201,140032,6,0,P|88:211|125:207,1,75,6|2,3:2|2:0,2:0:0:0:
170,127,140168,2,0,P|134:116|97:120,1,75,6|0,3:2|2:0,2:0:0:0:
11,274,140304,1,10,2:0:0:0:
227,255,140441,6,0,P|237:219|233:182,1,75,6|0,3:2|2:0,2:0:0:0:
28,14,140577,2,0,P|17:49|21:86,1,75,10|0,2:0|2:0,2:0:0:0:
125,207,140713,6,0,L|149:208,1,25,2|0,3:2|2:0,2:0:0:0:
284,104,140986,2,0,L|259:102,1,25,0|0,3:2|2:0,2:0:0:0:
115,17,141259,6,0,L|152:19,1,37.5000000000001,6|0,3:2|2:0,2:0:0:0:
361,81,141395,2,0,L|323:78,1,37.5000000000001,4|0,3:2|2:0,2:0:0:0:
91,116,141532,6,0,L|140:119,1,50,4|0,3:2|2:0,2:0:0:0:
377,235,141668,2,0,L|327:231,1,50,4|0,3:2|2:0,2:0:0:0:
137,282,141804,6,0,L|147:356,1,75,6|2,3:2|2:0,2:0:0:0:
370,383,141941,2,0,L|359:308,1,75,6|0,3:2|2:0,2:0:0:0:
123,199,142077,1,10,2:0:0:0:
316,157,142213,6,0,L|326:231,1,75,6|0,3:2|2:0,2:0:0:0:
140,119,142350,2,0,L|129:44,1,75,4|0,3:2|2:0,2:0:0:0:
361,81,142486,1,10,2:0:0:0:
213,49,142622,6,0,L|288:39,1,75,6|0,3:2|2:0,2:0:0:0:
508,112,142759,2,0,L|433:122,1,75,10|0,2:0|2:0,2:0:0:0:
361,81,142895,5,6,3:2:0:0:
407,248,143032,1,8,2:0:0:0:
361,81,143168,1,0,2:0:0:0:
407,248,143304,1,0,3:2:0:0:
403,262,143372,1,0,3:2:0:0:
400,276,143441,5,2,3:2:0:0:
316,157,143577,1,8,2:0:0:0:
232,38,143713,1,0,2:0:0:0:
316,157,143850,1,0,3:2:0:0:
214,287,143986,6,0,P|192:258|183:222,1,75,6|2,3:2|2:0,2:0:0:0:
109,102,144122,2,0,P|113:65|133:33,1,75,6|0,3:2|2:0,2:0:0:0:
108,188,144259,1,10,2:0:0:0:
315,33,144395,6,0,P|282:51|260:81,1,75,6|2,3:2|2:0,2:0:0:0:
264,223,144532,2,0,P|254:259|259:295,1,75,6|0,3:2|2:0,2:0:0:0:
216,155,144668,1,10,2:0:0:0:
293,324,144804,6,0,P|307:289|334:263,1,75,6|0,3:2|2:0,2:0:0:0:
401,139,144941,2,0,P|435:124|472:125,1,75,10|0,2:0|2:0,2:0:0:0:
326,181,145077,5,6,3:2:0:0:
483,351,145213,1,10,2:0:0:0:
326,181,145350,1,6,3:2:0:0:
483,351,145486,1,8,2:0:0:0:
499,242,145622,5,10,2:0:0:0:
479,248,145691,1,8,2:0:0:0:
428,228,145759,1,8,2:0:0:0:
413,243,145827,1,8,2:0:0:0:
359,251,145895,1,10,2:0:0:0:
354,271,145963,1,8,2:0:0:0:
311,305,146032,1,10,2:0:0:0:
316,325,146100,1,8,2:0:0:0:
295,375,146168,5,2,2:0:0:0:
295,375,147259,5,2,2:0:0:0:
218,85,147804,5,2,2:0:0:0:
229,335,148350,5,2,2:0:0:0:
161,150,149168,5,2,2:0:0:0:
141,227,149304,1,2,2:0:0:0:
149,306,149441,1,2,2:0:0:0:
68,198,149986,6,0,P|61:182|62:170,12,25,2|0|0|0|0|0|0|0|0|0|0|0|0,2:0|2:0|2:0|2:0|2:0|2:0|2:0|2:0|2:0|2:0|2:0|2:0|2:0,2:0:0:0:
36,267,150532,5,2,2:0:0:0:
