osu file format v14

[General]
AudioFilename: audio.mp3
AudioLeadIn: 0
PreviewTime: 4169
Countdown: 0
SampleSet: Soft
StackLeniency: 0.4
Mode: 0
LetterboxInBreaks: 0
EpilepsyWarning: 1
WidescreenStoryboard: 1

[Editor]
Bookmarks: 43658,52385,61112,78567,117838
DistanceSpacing: 0.8
BeatDivisor: 8
GridSize: 32
TimelineZoom: 2.7

[Metadata]
Title:Joushou no Tabi ~ The Ascending Journey
TitleUnicode:上昇の旅 ~ The Ascending Journey
Artist:VINXIS
ArtistUnicode:VINXIS
Creator:Shurelia
Version:Hyper
Source:Genshin Impact
Tags:skystar amamiya yuko captin1 rlc xlni lcfc lowcomboFC scubdomino uberfazz lit120 -Hakurei- Crissa Ascended -Ascended- -_ascended_- Cubby Yohanes -Atri- Firis Mistlud Anxient Ajisai- Ducky- -keitaro Video Game Instrumental breakcore hoyoverse 原神 shizuku- Kazato Asa shikibe Mayu Ayesha Altugle Enkrypton hokichi nitrous tofumang rizen munehime ningguang KuranteMelodii sinnoh jemzuu kukkai 原げん神しん electronic natsume shiki anime girl jungkyuyoung [keqing] faputa Cynplytholowazy deif
BeatmapID:3824938
BeatmapSetID:1857663

[Difficulty]
HPDrainRate:5
CircleSize:4
OverallDifficulty:7
ApproachRate:8.6
SliderMultiplier:1.8
SliderTickRate:1

[Events]
//Background and Video events
0,0,"stars.jpg",0,0
//Break Periods
2,22006,24404
2,80813,83328
2,118004,119327
//Storyboard Layer 0 (Background)
//Storyboard Layer 1 (Fail)
//Storyboard Layer 2 (Pass)
//Storyboard Layer 3 (Foreground)
Sprite,Foreground,Centre,"sb\text\difficulty\_015.png",600,100 S,0,52942,,0.4 F,0,52942,53442,0,1 F,0,56215,56715,1,0
Sprite,Foreground,Centre,"sb\text\difficulty\_011.png",600,100 S,0,56760,,0.4 F,0,56760,57260,0,1 F,0,59487,59987,1,0
Sprite,Foreground,TopLeft,"sb\p.png",-107,0 F,0,78283,,0 C,0,78283,,255,255,255 F,0,78533,,1 V,0,78533,,854,480 C,0,80715,,29,28,34 C,0,81260,,255,255,255 C,0,81805,,29,28,34 F,0,82931,,0
Sprite,Foreground,TopLeft,"sb\p.png",0,0 F,0,78299,,0,0.06 V,0,78299,,862.29,484.8 F,0,78299,78523,0.06,0.96 F,0,78523,78539,0.96,1 C,0,80699,80715,255,255,255,29,28,34 M,0,81259,81275,-106.9,0,205.6,0 C,0,81259,81275,29,28,34,255,255,255 M,0,81803,81819,205.6,0,-356.9,-187.5 C,0,81803,81819,255,255,255,29,28,34 F,0,82475,82491,1,0
Sprite,Foreground,Centre,"sb\text\loading\_000.png",0,0 F,0,78299,,0,0.06 S,0,78299,,0.38 F,0,78299,78523,0.06,0.96 F,0,78523,78539,0.96,1 C,0,80699,80715,134,153,168,211,188,144 M,0,81259,81275,320,377.5,632.5,377.5 C,0,81259,81275,211,188,144,134,153,168 M,0,81803,81819,632.5,377.5,70,190 C,0,81803,81819,134,153,168,211,188,144 F,0,82475,82491,1,0
Sprite,Foreground,Centre,"sb\text\loading\_001.png",0,0 F,0,78299,,0,0.06 S,0,78299,,0.28 F,0,78299,78523,0.06,0.96 F,0,78523,78539,0.96,1 C,0,80699,80715,134,153,168,211,188,144 M,0,81259,81275,320,396.3,632.5,396.3 C,0,81259,81275,211,188,144,134,153,168 M,0,81803,81819,632.5,396.3,70,208.8 C,0,81803,81819,134,153,168,211,188,144 F,0,82475,82491,1,0
Sprite,Foreground,Centre,"sb\bg_loading_logo_day.png",0,0 F,0,78299,,0,0.06 S,0,78299,,0.63 F,0,78299,78523,0.06,0.96 F,0,78523,78539,0.96,1 F,0,80699,80715,1,0 M,0,81275,,320,227.5,632.5,227.5 F,0,81275,,0,1 M,0,81803,81819,632.5,227.5,70,40 F,0,81803,81819,1,0
Sprite,Foreground,Centre,"sb\bg_loading_logo_night.png",0,0 F,0,80715,,0,1 S,0,80715,,0.63 M,0,81259,81275,320,227.5,632.5,227.5 F,0,81259,81275,1,0 M,0,81819,,632.5,227.5,70,40 F,0,81819,,0,1 F,0,82475,82491,1,0
Sprite,Foreground,CentreLeft,"sb\p.png",0,0 F,0,78539,,0,1 V,0,78539,,862.29,1.26 C,0,80699,80715,235,236,238,48,47,52 M,0,81259,81275,-106.9,427.5,205.6,427.5 C,0,81259,81275,48,47,52,235,236,238 M,0,81803,81819,205.6,427.5,-356.9,240 C,0,81803,81819,235,236,238,48,47,52 F,0,82475,82491,1,0
Sprite,Foreground,CentreLeft,"sb\p.png",0,0 F,0,78539,,0,1 V,0,78539,,151.5,25.25 C,0,80699,80715,235,236,238,48,47,52 M,0,81259,81275,245,427.5,557.5,427.5 C,0,81259,81275,48,47,52,235,236,238 M,0,81803,81819,557.5,427.5,-5,240 C,0,81803,81819,235,236,238,48,47,52 F,0,82475,82491,1,0
Sprite,Foreground,CentreLeft,"sb\p.png",0,0 F,0,78539,,0,1 V,0,79435,79451,26.15,25.25,52.94,25.25 V,0,80219,80235,52.94,25.25,71.21,25.25 C,0,80699,80715,73,82,101,237,229,217 V,0,80987,81003,71.21,25.25,100.09,25.25 M,0,81259,81275,245,427.5,557.5,427.5 C,0,81259,81275,237,229,217,73,82,101 V,0,81707,81723,100.09,25.25,130.05,25.25 M,0,81803,81819,557.5,427.5,-5,240 C,0,81803,81819,73,82,101,237,229,217 V,0,82347,82363,130.05,25.25,149.62,25.25 F,0,82475,82491,1,0
Sprite,Foreground,Centre,"sb\bg_loading_mask.png",0,0 F,0,78539,,0,1 S,0,78539,,0.41 C,0,80699,80715,255,255,255,29,28,34 M,0,81259,81275,320,427.5,632.5,427.5 C,0,81259,81275,29,28,34,255,255,255 M,0,81803,81819,632.5,427.5,70,240 C,0,81803,81819,255,255,255,29,28,34 F,0,82475,82491,1,0
Animation,Foreground,TopLeft,"sb\noise.jpg",-107,0,3,10,LoopForever F,0,78533,,0.1 S,0,78533,,0.625 P,0,78533,,A F,0,80715,,0.4 F,0,81976,82794,0.4,0.8
Animation,Foreground,TopLeft,"sb\noise.jpg",320,0,3,10,LoopForever F,0,78533,,0.1 S,0,78533,,0.625 P,0,78533,,A F,0,80715,,0.4 F,0,81976,82794,0.4,0.8
Animation,Foreground,TopLeft,"sb\noise.jpg",-107,240,3,10,LoopForever F,0,78533,,0.1 S,0,78533,,0.625 P,0,78533,,A F,0,80715,,0.4 F,0,81976,82794,0.4,0.8
Animation,Foreground,TopLeft,"sb\noise.jpg",320,240,3,10,LoopForever F,0,78533,,0.1 S,0,78533,,0.625 P,0,78533,,A F,0,80715,,0.4 F,0,81976,82794,0.4,0.8
Sprite,Foreground,Centre,"sb\light.png",320,241 S,0,82522,,0.25 P,0,82522,,A F,0,82522,82931,0.2,0.6 F,0,82931,,0.6,1 S,0,82931,,0.25,0.3 F,0,82931,83067,1,0
Sprite,Foreground,Centre,"sb\p.png",320,240 F,0,82522,,1 V,0,82522,,854,480 P,0,82522,,A V,0,82794,82931,854,480,854,1 V,0,82931,83067,854,1,3,1
//Storyboard Layer 4 (Overlay)
//Storyboard Sound Samples

[TimingPoints]
4344,697.674418604651,3,2,1,35,1,8
4344,-100,3,2,1,35,0,8
4867,-100,3,2,1,5,0,8
5253,727.272727272727,3,2,1,35,1,0
5253,-100,3,2,1,35,0,0
6431,-100,3,2,1,5,0,0
6525,750,3,2,1,35,1,8
6525,-100,3,2,1,35,0,8
6916,821.917808219178,3,2,1,35,1,0
7245,789.473684210526,3,2,1,35,1,0
7245,-100,3,2,1,35,0,0
8231,-100,3,2,1,5,0,0
8429,800,3,2,1,35,1,8
8429,-100,3,2,1,35,0,8
8629,750,3,2,1,35,1,8
8629,-100,3,2,1,35,0,8
9379,740.740740740741,3,2,1,35,1,0
9379,-100,3,2,1,35,0,0
10860,618.556701030928,3,2,1,35,1,8
10860,-100,3,2,1,35,0,8
11169,722.89156626506,3,2,1,35,1,8
11169,-100,3,2,1,35,0,8
11530,731.707317073171,3,2,1,35,1,0
11530,-100,3,2,1,35,0,0
12993,789.473684210526,3,2,1,35,1,8
12993,-100,3,2,1,35,0,8
13387,769.230769230769,3,2,1,35,1,8
13387,-100,3,2,1,35,0,8
13771,681.818181818182,3,2,1,35,1,0
13771,-100,3,2,1,35,0,0
15475,833.333333333333,3,2,1,35,1,8
15475,-100,3,2,1,35,0,8
15891,759.493670886076,3,2,1,35,1,0
15891,-100,3,2,1,35,0,0
16650,731.707317073171,3,2,1,35,1,8
16650,-100,3,2,1,35,0,8
17747,638.297872340426,3,2,1,35,1,8
17747,-100,3,2,1,35,0,8
18066,623.441396508728,3,2,1,35,1,0
18066,-100,3,2,1,35,0,0
21806,272.727272727273,4,2,1,45,1,0
21806,-100,4,2,1,45,0,0
26169,-200,4,2,1,45,0,0
34896,-142.857142857143,4,2,1,55,0,0
35919,-142.857142857143,4,2,1,5,0,0
35987,-142.857142857143,4,2,1,55,0,0
36192,-142.857142857143,4,2,1,5,0,0
36260,-142.857142857143,4,2,1,55,0,0
38101,-142.857142857143,4,2,1,5,0,0
38169,-142.857142857143,4,2,1,55,0,0
38374,-142.857142857143,4,2,1,5,0,0
38442,-142.857142857143,4,2,1,55,0,0
40283,-142.857142857143,4,2,1,5,0,0
40351,-142.857142857143,4,2,1,55,0,0
40556,-142.857142857143,4,2,1,5,0,0
40624,-142.857142857143,4,2,1,55,0,0
43624,-100,4,2,1,65,0,0
43828,-100,4,2,1,5,0,0
43896,-100,4,2,1,65,0,0
44919,-100,4,2,1,5,0,0
44987,-100,4,2,1,65,0,0
46010,-100,4,2,1,5,0,0
46078,-100,4,2,1,65,0,0
47101,-100,4,2,1,5,0,0
47169,-100,4,2,1,65,0,0
47919,-100,4,2,1,5,0,0
47987,-100,4,2,1,65,0,0
48465,-100,4,2,1,5,0,0
48533,-100,4,2,1,65,0,0
49283,-100,4,2,1,5,0,0
49351,-100,4,2,1,65,0,0
49556,-100,4,2,1,5,0,0
49624,-100,4,2,1,65,0,0
52556,-100,4,2,1,5,0,0
52624,-100,4,2,1,65,0,0
53646,-100,4,2,1,5,0,0
53715,-100,4,2,1,65,0,0
54465,-100,4,2,1,5,0,0
54533,-100,4,2,1,65,0,0
55828,-100,4,2,1,5,0,0
55896,-100,4,2,1,65,0,0
57192,-100,4,2,1,5,0,0
57260,-100,4,2,1,65,0,0
58010,-100,4,2,1,5,0,0
58078,-100,4,2,1,65,0,0
61078,-100,4,2,1,75,0,0
62169,-90.9090909090909,4,2,1,75,0,0
64556,-90.9090909090909,4,2,1,5,0,0
64624,-90.9090909090909,4,2,1,75,0,0
73078,-100,4,2,1,75,0,0
73624,-200,4,2,1,75,0,0
74169,-90.9090909090909,4,2,1,75,0,0
78533,545.454545454546,4,2,1,45,1,0
78533,-100,4,2,1,45,0,0
79623,-100,4,2,1,35,0,0
83987,-100,4,2,1,15,0,0
85078,545.454545454546,4,2,1,35,1,0
85078,-100,4,2,1,35,0,0
100350,-250,4,2,1,25,0,0
101987,-250,4,2,1,35,0,0
102532,272.727272727273,4,2,1,75,1,0
102532,-100,4,2,1,75,0,0
102941,-100,4,2,1,75,0,0
103963,-100,4,2,1,5,0,0
104032,-100,4,2,1,75,0,0
106145,-100,4,2,1,5,0,0
106213,-100,4,2,1,75,0,0
108327,-100,4,2,1,5,0,0
108395,-100,4,2,1,75,0,0
110372,-100,4,2,1,5,0,0
110441,-100,4,2,1,75,0,0
112691,-100,4,2,1,5,0,0
112759,-100,4,2,1,75,0,0
114872,-100,4,2,1,5,0,0
114941,-100,4,2,1,75,0,0
116918,-100,4,2,1,5,0,0
116986,-100,4,2,1,75,0,0
117804,-100,4,2,1,40,0,0
119986,-100,4,2,1,85,0,1
123463,-100,4,2,1,5,0,1
123532,-100,4,2,1,85,0,1
123736,-100,4,2,1,5,0,1
123804,-100,4,2,1,85,0,1
128100,-100,4,2,1,5,0,1
128168,-100,4,2,1,85,0,1
140918,-100,4,2,1,5,0,1
140986,-100,4,2,1,85,0,1
141191,-100,4,2,1,5,0,1
141259,-100,4,2,1,85,0,1
146168,545.454545454546,4,2,1,35,1,0
146168,-100,4,2,1,35,0,0

[Colours]
Combo1 : 240,140,140
Combo2 : 200,180,220
Combo3 : 240,200,155
Combo4 : 150,185,220

[HitObjects]
43,75,4344,6,0,P|109:57|176:56,1,135,2|0,2:0|2:0,2:0:0:0:
133,160,5253,6,0,B|237:178|299:98|299:98|359:104|398:137|391:139,1,292.5,2|0,2:0|2:0,2:0:0:0:
391,140,6525,2,0,P|379:182|393:225,1,94.08,2|2,2:0|2:0,2:0:0:0:
439,347,7245,6,0,P|410:260|356:333,1,225,2|0,2:0|2:0,2:0:0:0:
276,364,8429,1,2,2:0:0:0:
267,361,8529,1,2,2:0:0:0:
258,356,8629,2,0,P|214:367|169:374,1,90,2|2,2:0|2:0,2:0:0:0:
29,332,9379,6,0,P|91:228|196:289,1,270,2|0,2:0|2:0,2:0:0:0:
197,290,10860,2,0,P|193:246|176:204,1,90,2|2,2:0|2:0,2:0:0:0:
12,148,11530,6,0,P|101:153|172:100,1,180,2|2,2:0|2:0,2:0:0:0:
172,100,12993,5,2,2:0:0:0:
253,144,13387,5,2,2:0:0:0:
321,349,13771,6,0,B|278:286|407:175|346:92,1,270,2|0,2:0|2:0,2:0:0:0:
476,69,15134,2,0,P|442:39|403:17,1,90.264,2|2,2:0|2:0,2:0:0:0:
268,26,15891,2,0,P|179:43|90:40,1,180,2|2,2:0|2:0,2:0:0:0:
90,40,17747,5,2,2:0:0:0:
256,192,18066,12,0,21806,2:0:0:0:
426,356,26169,6,0,P|432:289|403:229,1,135,2|2,3:2|2:0,2:0:0:0:
402,228,26987,2,0,P|403:184|413:140,1,90,2|2,2:0|2:0,2:0:0:0:
427,37,27533,6,0,P|468:55|512:59,1,90,2|2,2:0|2:0,2:0:0:0:
347,80,27942,2,0,P|305:63|260:60,1,90,2|0,2:0|2:0,2:0:0:0:
184,14,28351,6,0,P|117:20|53:44,1,135,2|2,2:0|2:0,2:0:0:0:
54,45,29169,2,0,P|72:85|75:130,1,90,2|2,2:0|2:0,2:0:0:0:
127,195,29715,6,0,P|171:190|214:176,1,90,2|2,2:0|2:0,2:0:0:0:
37,213,30124,2,0,P|52:255|63:298,1,90,2|0,2:0|2:0,2:0:0:0:
107,369,30533,6,0,P|161:337|145:276,1,135,2|2,2:0|2:0,2:0:0:0:
145,276,31351,2,0,P|190:269|235:273,1,90,2|2,2:0|2:0,2:0:0:0:
305,235,31896,6,0,P|322:194|314:151,1,90,2|2,2:0|2:0,2:0:0:0:
344,310,32306,2,0,P|389:312|428:335,1,90,2|0,2:0|2:0,2:0:0:0:
510,364,32715,6,0,P|458:323|462:258,1,135,2|2,2:0|2:0,2:0:0:0:
462,258,33533,2,0,P|431:228|441:186,1,90,2|2,2:0|2:0,2:0:0:0:
498,139,33942,1,2,2:0:0:0:
447,82,34078,6,0,P|429:96|403:101,1,45,2|2,2:0|2:0,2:0:0:0:
342,201,34351,2,0,P|339:178|348:153,1,45,2|2,2:0|2:0,2:0:0:0:
292,58,34624,2,0,P|312:66|329:87,1,45,2|2,2:0|2:0,2:0:0:0:
342,201,34896,6,0,L|323:325,1,126,2|8,3:2|2:0,2:0:0:0:
323,325,35442,1,0,3:2:0:0:
242,350,35578,1,0,3:2:0:0:
173,309,35715,2,0,L|80:327,1,94.4999999999999,10|0,2:0|2:0,2:0:0:0:
80,327,35987,2,0,P|50:291|46:245,1,94.4999999999999,2|0,3:2|2:0,2:0:0:0:
45,245,36260,2,0,P|69:188|51:128,1,126,10|2,2:0|3:2,2:0:0:0:
0,30,36669,2,0,P|61:44|121:28,1,126,2|8,3:2|2:0,2:0:0:0:
214,35,37078,6,0,P|201:94|143:111,1,126,2|8,3:2|2:0,2:0:0:0:
143,111,37624,1,0,3:2:0:0:
189,192,37760,1,0,3:2:0:0:
272,159,37896,2,0,P|317:143|361:125,1,94.4999999999999,10|0,2:0|2:0,2:0:0:0:
361,125,38169,2,0,L|347:218,1,94.4999999999999,2|0,3:2|2:0,2:0:0:0:
347,217,38442,2,0,P|378:217|409:215,1,62.9999999999999,10|8,2:0|2:0,2:0:0:0:
486,170,38715,1,2,3:2:0:0:
485,266,38851,2,0,L|476:328,2,62.9999999999999,2|8|8,3:2|2:0|2:0,2:0:0:0:
396,306,39260,6,0,P|333:306|270:310,1,126,2|8,3:2|2:0,2:0:0:0:
270,310,39806,1,0,3:2:0:0:
206,260,39942,1,0,3:2:0:0:
126,280,40078,2,0,P|132:327|137:374,1,94.4999999999999,10|0,2:0|2:0,2:0:0:0:
136,374,40351,2,0,P|90:367|43:362,1,94.4999999999999,2|0,3:2|2:0,2:0:0:0:
43,362,40624,2,0,P|21:339|17:308,1,62.9999999999999,10|8,2:0|2:0,2:0:0:0:
58,234,40896,1,2,3:2:0:0:
134,201,41033,2,0,P|134:138|99:87,1,126,2|8,3:2|2:0,2:0:0:0:
256,8,41442,6,0,P|239:68|227:130,1,126,2|10,3:2|2:0,2:0:0:0:
327,119,41851,2,0,P|315:191|314:259,1,126,2|2,2:0|3:2,2:0:0:0:
403,186,42260,2,0,P|408:216|421:245,1,62.9999999999999,10|0,2:0|2:0,2:0:0:0:
262,317,42533,6,0,P|233:304|202:298,1,62.9999999999999,2|2,3:2|3:2,2:0:0:0:
123,346,42806,2,0,P|94:333|72:311,1,62.9999999999999,10|2,2:0|2:0,2:0:0:0:
85,224,43078,1,2,3:2:0:0:
101,198,43215,1,2,3:2:0:0:
20,150,43351,1,10,2:0:0:0:
29,115,43487,1,2,2:0:0:0:
123,62,43624,6,0,P|187:80|255:82,1,135,6|0,3:2|2:0,2:0:0:0:
255,82,43896,2,0,L|239:170,1,90,8|0,2:0|2:0,2:0:0:0:
278,257,44169,1,0,3:2:0:0:
274,281,44306,1,0,3:2:0:0:
374,261,44442,1,8,2:0:0:0:
377,285,44578,1,0,3:2:0:0:
408,374,44715,6,0,P|420:307|446:245,1,135,2|0,3:2|2:0,2:0:0:0:
447,245,44987,2,0,P|463:205|448:163,1,90,8|0,2:0|2:0,2:0:0:0:
361,124,45260,1,2,3:2:0:0:
373,112,45396,1,0,3:2:0:0:
403,35,45533,2,0,P|447:31|491:19,1,90,8|8,2:0|2:0,2:0:0:0:
284,91,45806,6,0,P|216:84|152:64,1,135,2|0,3:2|2:0,2:0:0:0:
153,64,46078,2,0,P|109:57|69:76,1,90,8|0,2:0|2:0,2:0:0:0:
28,159,46351,1,0,3:2:0:0:
33,177,46487,1,0,3:2:0:0:
122,137,46624,2,0,P|148:172|146:216,1,90,10|2,2:0|3:2,2:0:0:0:
70,258,46896,6,0,P|136:267|203:279,1,135,2|0,3:2|2:0,2:0:0:0:
203,278,47169,2,0,P|244:262|266:224,1,90,8|0,2:0|2:0,2:0:0:0:
125,356,47442,2,0,P|80:350|37:361,1,90,2|0,3:2|3:2,2:0:0:0:
259,374,47715,2,0,P|324:358|389:338,1,135,8|0,2:0|2:0,2:0:0:0:
389,338,47987,6,0,L|473:367,1,90,2|0,3:2|2:0,2:0:0:0:
364,263,48260,2,0,P|393:206|456:209,1,135,8|0,2:0|2:0,2:0:0:0:
456,208,48533,2,0,P|466:165|473:120,1,90,0|0,3:2|3:2,2:0:0:0:
509,44,48806,1,10,2:0:0:0:
492,29,48942,1,0,3:2:0:0:
385,105,49078,6,0,B|343:94|343:94|308:117|255:111,1,135,2|0,3:2|2:0,2:0:0:0:
255,111,49351,2,0,P|289:168|264:228,1,135,10|0,2:0|2:0,2:0:0:0:
265,229,49624,2,0,L|175:216,1,90,2|2,3:2|3:2,2:0:0:0:
129,352,49896,2,0,P|121:308|102:267,1,90,8|8,2:0|2:0,2:0:0:0:
103,182,50169,6,0,P|30:156|30:233,1,180,2|10,3:2|2:0,2:0:0:0:
40,327,50578,2,0,P|128:308|218:310,1,180,2|2,2:0|3:2,2:0:0:0:
296,357,50987,2,0,B|384:343,1,90,10|2,2:0|2:0,2:0:0:0:
472,273,51260,6,0,P|492:312|503:356,1,90,0|2,3:2|2:0,2:0:0:0:
370,255,51533,2,0,P|356:212|362:168,1,90,10|2,2:0|2:0,2:0:0:0:
439,144,51806,1,2,3:2:0:0:
471,69,51942,1,2,3:2:0:0:
412,12,52078,1,10,3:2:0:0:
336,40,52215,1,2,3:2:0:0:
301,112,52351,6,0,P|233:114|167:101,1,135,6|0,3:2|2:0,2:0:0:0:
168,102,52624,2,0,P|161:58|132:25,1,90,8|0,2:0|2:0,2:0:0:0:
33,27,52896,1,0,3:2:0:0:
11,33,53033,1,0,3:2:0:0:
66,104,53169,1,8,2:0:0:0:
87,101,53306,1,0,3:2:0:0:
5,160,53442,6,0,P|21:226|27:293,1,135,2|0,3:2|2:0,2:0:0:0:
27,293,53715,2,0,P|70:289|104:318,1,90,8|0,2:0|2:0,2:0:0:0:
42,375,53987,1,2,3:2:0:0:
30,374,54124,1,0,3:2:0:0:
189,373,54260,6,0,P|191:305|166:243,1,135,8|0,2:0|2:0,2:0:0:0:
166,243,54533,2,0,P|178:201|217:179,1,90,2|0,3:2|2:0,2:0:0:0:
351,150,54806,2,0,P|336:190|295:202,1,90,8|0,2:0|2:0,2:0:0:0:
197,99,55078,1,0,3:2:0:0:
199,81,55215,1,0,3:2:0:0:
274,35,55351,2,0,P|314:54|358:63,1,90,10|2,2:0|3:2,2:0:0:0:
435,31,55624,6,0,P|452:96|462:162,1,135,2|0,3:2|2:0,2:0:0:0:
462,162,55896,2,0,P|431:194|429:238,1,90,8|0,2:0|2:0,2:0:0:0:
512,325,56169,2,0,L|507:235,1,90,2|0,3:2|3:2,2:0:0:0:
366,293,56442,2,0,L|372:384,1,90,8|8,2:0|2:0,2:0:0:0:
277,256,56715,6,0,P|232:249|188:241,1,90,2|0,3:2|2:0,2:0:0:0:
102,364,56987,2,0,P|106:298|63:248,1,135,8|0,2:0|2:0,2:0:0:0:
63,249,57260,2,0,P|52:206|73:167,1,90,2|0,3:2|3:2,2:0:0:0:
186,61,57533,2,0,L|168:149,1,90,10|0,2:0|3:2,2:0:0:0:
4,68,57806,6,0,P|68:72|106:20,1,135,2|0,3:2|2:0,2:0:0:0:
106,20,58078,2,0,L|188:62,1,90,10|0,2:0|2:0,2:0:0:0:
289,48,58351,1,2,3:2:0:0:
286,27,58487,1,2,3:2:0:0:
380,7,58624,2,0,P|441:17|504:27,1,90,8|0,2:0|2:0,2:0:0:0:
451,184,58896,6,0,P|450:103|368:103,1,180,2|10,3:2|2:0,2:0:0:0:
318,175,59306,2,0,P|318:254|397:244,1,180,2|2,2:0|3:2,2:0:0:0:
459,360,59715,6,0,P|463:315|475:272,1,90,10|2,2:0|2:0,2:0:0:0:
512,100,59987,2,0,P|468:93|440:59,1,90,0|2,3:2|3:2,2:0:0:0:
361,27,60260,2,0,P|319:14|276:25,1,90,10|2,2:0|3:2,2:0:0:0:
227,101,60533,1,10,2:0:0:0:
223,126,60669,1,10,2:0:0:0:
146,56,60806,1,10,2:0:0:0:
152,33,60942,1,10,2:0:0:0:
61,46,61078,5,6,3:2:0:0:
39,125,61215,5,6,3:2:0:0:
41,174,61351,1,8,2:0:0:0:
101,224,61487,5,6,3:2:0:0:
101,273,61624,1,4,3:2:0:0:
143,330,61760,5,10,2:0:0:0:
186,345,61896,1,6,3:2:0:0:
261,311,62033,5,10,2:0:0:0:
328,355,62169,2,0,L|428:339,1,99,4|8,3:2|2:0,2:0:0:0:
493,257,62442,2,0,L|395:238,1,99,8|0,2:0|3:2,2:0:0:0:
299,218,62646,1,0,3:2:0:0:
299,218,62715,2,0,P|285:171|309:130,1,99,0|8,3:2|2:0,2:0:0:0:
400,59,62987,2,0,P|414:104|390:146,1,99,8|0,2:3|3:2,2:0:0:0:
309,130,63260,5,6,3:2:0:0:
274,51,63396,5,6,3:2:0:0:
225,41,63533,1,2,3:2:0:0:
172,110,63669,5,6,3:2:0:0:
123,98,63806,1,4,3:2:0:0:
77,24,63942,5,10,2:0:0:0:
27,26,64078,1,6,3:2:0:0:
3,109,64215,5,10,2:0:0:0:
70,166,64351,6,0,P|85:238|76:311,1,148.5,0|0,3:2|2:0,2:0:0:0:
76,311,64624,2,0,P|122:295|169:307,1,99,0|0,3:2|2:0,2:0:0:0:
241,373,64896,1,4,3:2:0:0:
256,288,65033,1,4,3:2:0:0:
241,373,65169,1,4,3:2:0:0:
256,288,65306,1,4,3:2:0:0:
322,342,65442,5,6,3:2:0:0:
392,295,65578,5,6,3:2:0:0:
427,311,65715,1,10,2:0:0:0:
459,227,65851,5,6,3:2:0:0:
420,216,65987,1,4,3:2:0:0:
439,135,66124,5,10,2:0:0:0:
472,143,66260,1,6,3:2:0:0:
501,59,66396,5,10,2:0:0:0:
424,55,66533,6,0,P|375:49|327:38,1,99,4|8,3:2|2:0,2:0:0:0:
257,98,66806,2,0,P|215:71|169:53,1,99,8|8,2:0|2:0,2:0:0:0:
102,99,67078,1,8,2:0:0:0:
48,44,67215,1,8,2:0:0:0:
7,133,67351,2,0,P|39:169|58:215,1,99,8|4,2:0|3:2,2:0:0:0:
138,242,67624,6,0,P|164:200|166:151,1,99,6|6,3:2|3:2,2:0:0:0:
166,151,67896,1,10,2:0:0:0:
264,184,68033,2,0,P|266:232|241:274,1,99,6|4,3:2|3:2,2:0:0:0:
241,274,68306,1,10,2:0:0:0:
159,331,68442,2,0,P|110:336|73:305,1,99,6|10,3:2|2:0,2:0:0:0:
268,377,68715,6,0,P|316:370|355:341,1,99,4|10,3:2|2:0,2:0:0:0:
392,254,68987,2,0,P|386:205|364:160,1,99,6|4,3:2|3:2,2:0:0:0:
381,78,69260,6,0,L|391:29,3,49.5,10|8|8|8,2:0|2:0|2:0|2:0,2:0:0:0:
306,103,69533,2,0,L|257:113,3,49.5,10|8|10|8,2:0|2:0|2:0|2:0,2:0:0:0:
316,29,69806,6,0,P|266:22|218:14,1,99,6|6,3:2|3:2,2:0:0:0:
218,14,70078,1,8,2:0:0:0:
148,98,70215,2,0,L|50:81,1,99,6|4,3:2|3:2,2:0:0:0:
50,81,70487,1,10,2:0:0:0:
115,182,70624,2,0,P|127:229|134:278,1,99,6|10,3:2|2:0,2:0:0:0:
27,379,70896,6,0,P|16:331|45:293,2,99,4|8|8,3:2|2:0|2:0,2:0:0:0:
168,367,71306,1,4,3:2:0:0:
168,367,71374,1,0,3:2:0:0:
167,367,71442,2,0,P|213:351|262:343,1,99,0|8,3:2|2:0,2:0:0:0:
413,309,71715,2,0,P|366:316|346:360,1,99,0|8,3:2|2:0,2:0:0:0:
258,263,71987,6,0,P|262:213|268:164,1,99,6|6,3:2|3:2,2:0:0:0:
268,164,72260,1,8,2:0:0:0:
358,53,72396,2,0,P|361:102|363:151,1,99,6|4,3:2|3:2,2:0:0:0:
363,151,72669,1,10,2:0:0:0:
498,257,72806,2,0,P|449:248|400:238,1,99,6|10,3:2|2:0,2:0:0:0:
302,309,73078,2,0,P|345:318|388:333,1,90,4|4,3:2|3:2,2:0:0:0:
254,376,73351,2,0,P|211:364|171:345,1,90,4|4,3:2|3:2,2:0:0:0:
59,341,73624,6,0,P|41:360|34:378,1,45,4|4,3:2|3:2,2:0:0:0:
41,273,73896,2,0,P|18:271|-9:293,1,45,4|8,3:2|2:0,2:0:0:0:
101,227,74169,6,0,P|122:183|115:127,1,99,6|6,3:2|3:2,2:0:0:0:
117,134,74442,1,10,2:0:0:0:
31,27,74578,2,0,P|77:43|126:44,1,99,6|4,3:2|3:2,2:0:0:0:
126,44,74851,1,10,2:0:0:0:
231,131,74987,2,0,P|220:84|230:35,1,99,6|10,3:2|2:0,2:0:0:0:
230,35,75260,5,4,3:2:0:0:
330,71,75396,1,8,2:0:0:0:
330,71,75669,5,0,3:2:0:0:
404,18,75806,2,0,P|451:29|501:26,1,99,8|8,2:0|2:0,2:0:0:0:
502,108,76078,2,0,P|454:119|404:116,1,99,8|8,2:0|2:0,2:0:0:0:
320,159,76351,6,0,L|341:263,1,99,6|6,3:2|3:2,2:0:0:0:
339,256,76624,1,10,2:0:0:0:
496,214,76760,2,0,P|450:230|428:273,1,99,6|4,3:2|3:2,2:0:0:0:
428,273,77033,1,10,2:0:0:0:
334,370,77169,2,0,P|286:357|252:322,1,99,6|10,3:2|2:0,2:0:0:0:
168,176,77442,6,0,P|183:222|184:271,1,99,4|10,3:2|2:0,2:0:0:0:
72,378,77715,2,0,P|75:328|88:281,1,99,6|8,3:2|2:0,2:0:0:0:
20,214,77987,6,0,L|12:165,3,49.5,10|8|8|8,2:0|2:0|2:0|2:0,2:0:0:0:
90,164,78260,2,0,L|100:95,3,49.5,10|8|8|8,2:0|2:0|2:0|2:0,2:0:0:0:
168,176,78533,1,2,3:2:0:0:
256,192,78601,12,0,80442,2:0:0:0:
24,21,83987,5,2,2:0:0:0:
90,63,84533,1,2,2:0:0:0:
161,25,85078,6,0,B|246:69|336:5|426:44,1,270,2|2,2:0|2:0,2:0:0:0:
427,133,86168,2,0,B|336:93|246:157|161:113,1,270,2|2,2:0|2:0,2:0:0:0:
93,68,87259,1,2,2:0:0:0:
93,67,87805,6,0,P|68:104|67:149,1,90,2|2,2:0|2:0,2:0:0:0:
138,193,88350,2,0,B|175:242|144:309|184:364,1,180,2|2,2:0|2:0,2:0:0:0:
48,349,89441,6,0,P|168:293|300:311,1,270,2|2,2:0|2:0,2:0:0:0:
376,360,90532,2,0,P|464:293|360:256,1,270,0|0,2:0|2:0,2:0:0:0:
361,257,91623,1,2,2:0:0:0:
361,257,92714,5,2,2:0:0:0:
312,203,93259,1,2,2:0:0:0:
369,141,93805,6,0,B|303:93|303:93|204:74|116:96,1,270,2|2,2:0|2:0,2:0:0:0:
70,10,94896,2,0,P|9:124|72:238,1,270,0|0,2:0|2:0,2:0:0:0:
141,185,95987,1,2,2:0:0:0:
141,185,96532,6,0,P|158:226|172:269,1,90,2|2,2:0|2:0,2:0:0:0:
137,345,97078,5,2,2:0:0:0:
236,327,97623,1,2,2:0:0:0:
321,348,98168,6,0,P|327:213|340:78,1,270,2|2,2:0|2:0,2:0:0:0:
410,7,99259,1,0,2:0:0:0:
253,19,100350,6,0,B|267:66|247:114|256:153,1,135,2|0,2:0|2:0,2:0:0:0:
256,192,101441,5,2,2:0:0:0:
256,192,101987,1,2,3:2:0:0:
492,266,102532,6,0,L|479:176,2,90,6|0|8,3:2|3:2|2:0,2:0:0:0:
457,345,102941,2,0,L|370:367,2,90,2|0|0,2:0|3:2|3:2,2:0:0:0:
409,275,103350,2,0,L|321:296,1,90,10|0,2:0|3:2,2:0:0:0:
278,370,103622,1,0,3:2:0:0:
232,302,103759,2,0,L|257:169,1,135,2|0,2:0|2:0,2:0:0:0:
264,146,104032,1,0,3:2:0:0:
290,68,104168,2,0,P|334:65|379:57,1,90,2|0,3:2|3:2,2:0:0:0:
174,159,104441,2,0,P|149:121|126:82,1,90,10|0,2:0|2:0,2:0:0:0:
0,27,104713,6,0,P|45:19|87:5,2,90,2|0|8,3:2|3:2|2:0,2:0:0:0:
74,157,105122,2,0,P|41:128|0:109,2,90,2|0|0,2:0|3:2|3:2,2:0:0:0:
117,225,105532,2,0,P|123:268|96:303,1,90,10|0,2:0|3:2,2:0:0:0:
17,317,105804,1,0,3:2:0:0:
142,367,105941,2,0,P|209:364|262:324,1,135,2|0,2:0|2:0,2:0:0:0:
269,302,106213,1,0,2:0:0:0:
276,176,106350,2,0,P|233:188|213:227,1,90,2|0,3:2|3:2,2:0:0:0:
338,365,106622,2,0,P|380:353|400:314,1,90,10|0,2:0|2:0,2:0:0:0:
369,221,106895,6,0,L|386:132,2,90,2|0|8,3:2|2:0|2:0,2:0:0:0:
475,246,107304,2,0,L|491:334,2,90,2|0|0,2:0|3:2|3:2,2:0:0:0:
478,142,107713,2,0,P|478:97|453:60,1,90,10|0,2:0|3:2,2:0:0:0:
366,53,107986,1,0,3:2:0:0:
291,103,108122,2,0,P|227:83|181:35,1,135,2|0,2:0|2:0,2:0:0:0:
176,17,108395,1,0,3:2:0:0:
105,81,108532,2,0,P|85:120|88:165,1,90,2|0,3:2|3:2,2:0:0:0:
212,261,108804,2,0,P|219:217|200:177,1,90,10|0,2:0|2:0,2:0:0:0:
110,263,109077,6,0,P|28:272|24:354,1,180,2|10,3:2|2:0,2:0:0:0:
168,347,109486,2,0,B|228:358|287:299|342:313,1,180,2|2,2:0|3:2,2:0:0:0:
425,370,109895,1,10,2:0:0:0:
425,370,110032,1,2,2:0:0:0:
511,343,110168,2,0,P|491:279|483:212,1,135,0|0,3:0|2:0,2:0:0:0:
482,212,110441,2,0,P|439:222|396:211,1,90,8|2,2:0|2:0,2:0:0:0:
335,141,110713,2,0,P|318:100|322:55,1,90,2|2,3:2|3:2,2:0:0:0:
296,220,110986,2,0,P|251:225|212:204,1,90,2|2,3:2|3:2,2:0:0:0:
167,125,111259,6,0,P|179:81|182:36,2,90,6|0|8,3:2|2:0|2:0,2:0:0:0:
105,184,111668,2,0,P|63:167|18:164,2,90,2|0|0,2:0|3:2|3:2,2:0:0:0:
141,265,112077,2,0,P|151:308|146:353,1,90,10|0,2:0|3:2,2:0:0:0:
62,381,112350,1,0,3:2:0:0:
13,308,112486,2,0,P|8:241|33:178,1,135,2|0,2:0|2:0,2:0:0:0:
54,165,112759,1,0,2:0:0:0:
87,88,112895,2,0,L|68:0,1,90,2|0,3:2|3:2,2:0:0:0:
167,125,113168,2,0,L|255:106,1,90,10|0,2:0|2:0,2:0:0:0:
318,38,113441,6,0,P|357:58|376:98,2,90,2|0|8,3:2|2:0|2:0,2:0:0:0:
257,130,113850,2,0,P|254:175|250:220,2,90,2|0|0,2:0|3:2|3:2,2:0:0:0:
353,187,114259,2,0,P|397:190|438:173,1,90,10|0,2:0|3:2,2:0:0:0:
486,97,114532,1,0,3:2:0:0:
497,230,114668,2,0,P|488:297|480:364,1,135,2|0,2:0|2:0,2:0:0:0:
460,371,114941,1,0,2:0:0:0:
392,308,115077,2,0,L|304:328,1,90,2|0,3:2|3:2,2:0:0:0:
251,220,115350,2,0,L|163:200,1,90,10|0,2:0|2:0,2:0:0:0:
172,310,115622,6,0,P|203:340|207:384,2,90,2|0|8,3:2|2:0|2:0,2:0:0:0:
82,356,116032,2,0,P|41:339|0:324,2,90,2|0|0,2:0|3:2|3:2,2:0:0:0:
88,268,116441,2,0,P|81:224|69:181,1,90,10|0,2:0|3:2,2:0:0:0:
21,104,116713,2,0,P|47:43|109:24,1,135,0|0,3:2|2:0,2:0:0:0:
108,24,116986,2,0,P|136:58|180:62,1,90,8|0,2:0|2:0,2:0:0:0:
254,32,117259,5,2,3:2:0:0:
326,29,117395,1,0,3:2:0:0:
362,90,117532,1,10,2:0:0:0:
314,144,117668,1,0,2:0:0:0:
245,119,117804,5,2,3:2:0:0:
245,119,119986,6,0,L|232:208,1,90,6|6,3:2|3:2,2:0:0:0:
232,208,120259,1,10,2:0:0:0:
333,176,120395,2,0,L|320:265,1,90,6|4,3:2|3:2,2:0:0:0:
320,265,120668,1,10,2:0:0:0:
414,222,120804,2,0,L|402:311,1,90,6|10,3:2|2:0,2:0:0:0:
275,352,121077,6,0,B|254:310|254:310|210:309,2,90,6|8|8,3:2|2:0|2:0,2:0:0:0:
150,369,121486,1,0,3:2:0:0:
150,369,121554,1,0,3:2:0:0:
149,369,121622,2,0,P|105:361|60:358,1,90,2|8,3:2|2:0,2:0:0:0:
47,259,121895,2,0,P|91:265|136:270,1,90,8|0,2:3|3:2,2:0:0:0:
214,217,122168,6,0,P|219:170|222:122,1,90,6|6,3:2|3:2,2:0:0:0:
221,127,122441,1,10,2:0:0:0:
309,181,122577,2,0,P|311:137|308:92,1,90,6|4,3:2|3:2,2:0:0:0:
308,92,122850,1,10,2:0:0:0:
401,143,122986,2,0,P|399:103|389:53,1,90,6|10,3:2|2:0,2:0:0:0:
512,15,123259,6,0,P|498:81|489:147,1,135,2|0,3:2|2:0,2:0:0:0:
476,158,123532,2,0,P|486:103|500:26,1,135,0|0,3:2|2:0,2:0:0:0:
391,53,123804,1,6,3:2:0:0:
302,12,123941,1,4,3:2:0:0:
391,53,124077,1,4,3:2:0:0:
302,12,124213,1,4,3:2:0:0:
241,73,124350,6,0,P|196:77|156:58,1,90,6|6,3:2|3:2,2:0:0:0:
156,58,124622,1,10,2:0:0:0:
32,19,124759,2,0,P|64:48|71:91,1,90,6|4,3:2|3:2,2:0:0:0:
71,91,125032,1,10,2:0:0:0:
38,233,125168,2,0,P|10:200|13:157,1,90,6|10,3:2|2:0,2:0:0:0:
70,92,125441,5,6,3:2:0:0:
118,166,125577,2,0,B|183:157|236:224|291:192,1,180,8|0,2:0|3:2,2:0:0:0:
349,137,125918,1,0,3:2:0:0:
349,137,125986,2,0,P|348:92|343:47,1,90,2|8,3:2|2:0,2:0:0:0:
430,154,126259,2,0,P|437:199|448:243,1,90,0|0,2:0|3:2,2:0:0:0:
400,339,126532,6,0,P|348:274|272:308,1,180,6|10,3:2|2:0,2:0:0:0:
146,384,126941,2,0,P|154:295|125:210,1,180,6|10,3:2|2:0,2:0:0:0:
1,238,127350,2,0,P|23:276|59:302,1,90,6|10,3:2|2:0,2:0:0:0:
221,205,127622,6,0,P|225:160|239:117,1,90,6|10,3:2|2:0,2:0:0:0:
285,34,127895,2,0,P|346:13|386:62,1,135,6|0,3:2|2:0,2:0:0:0:
389,97,128168,2,0,P|383:119|380:142,3,45,10|8|8|8,2:0|2:0|2:0|2:0,2:0:0:0:
463,83,128441,2,0,L|460:38,3,45,10|8|10|8,2:0|2:0|2:0|2:0,2:0:0:0:
508,160,128713,6,0,P|495:204|486:248,1,90,6|6,3:2|3:2,2:0:0:0:
486,248,128986,1,10,2:0:0:0:
419,337,129122,2,0,P|416:294|379:271,1,90,6|4,3:2|3:2,2:0:0:0:
379,271,129395,1,10,2:0:0:0:
312,383,129532,2,0,L|293:293,1,90,6|10,3:2|2:0,2:0:0:0:
214,249,129804,6,0,L|126:230,2,90,6|8|8,3:2|2:0|2:0,2:0:0:0:
200,343,130213,1,4,3:2:0:0:
200,343,130282,1,0,3:2:0:0:
200,343,130350,2,0,P|155:345|111:357,1,90,2|8,3:2|2:0,2:0:0:0:
28,366,130622,2,0,P|8:326|12:281,1,90,0|8,3:2|2:0,2:0:0:0:
49,201,130895,6,0,L|70:113,1,90,6|6,3:2|3:2,2:0:0:0:
70,113,131168,1,10,2:0:0:0:
184,35,131304,2,0,L|163:127,1,90,6|4,3:2|3:2,2:0:0:0:
163,122,131577,1,10,2:0:0:0:
233,185,131713,2,0,L|314:146,1,90,6|10,3:2|2:0,2:0:0:0:
373,77,131986,5,6,3:2:0:0:
405,62,132122,1,4,3:2:0:0:
413,144,132259,1,4,3:2:0:0:
448,151,132395,1,4,3:2:0:0:
388,216,132532,5,6,3:2:0:0:
416,236,132668,1,4,3:2:0:0:
349,284,132804,1,4,3:2:0:0:
361,317,132941,1,4,3:2:0:0:
273,302,133077,6,0,L|251:214,1,90,6|6,3:2|3:2,2:0:0:0:
251,214,133350,1,10,2:0:0:0:
190,138,133486,2,0,P|147:144|119:177,1,90,6|4,3:2|3:2,2:0:0:0:
119,177,133759,1,10,2:0:0:0:
41,237,133895,2,0,P|27:194|13:151,1,90,6|10,3:2|2:0,2:0:0:0:
78,85,134168,6,0,B|96:49|96:49|89:0,2,90,4|8|8,3:2|2:0|2:0,2:0:0:0:
183,42,134577,1,0,3:2:0:0:
183,42,134645,1,0,3:2:0:0:
183,41,134713,2,0,P|227:36|271:45,1,90,8|8,2:0|2:0,2:0:0:0:
343,103,134986,2,0,B|362:67|362:67|355:18,1,90,8|8,2:0|2:0,2:0:0:0:
432,0,135259,6,0,L|465:192,1,180,6|10,3:2|2:0,2:0:0:0:
360,199,135668,2,0,B|237:174|237:174|275:212,1,180,6|10,3:2|2:0,2:0:0:0:
356,287,136077,2,0,L|368:376,1,90,6|10,3:2|2:0,2:0:0:0:
458,376,136350,5,4,3:2:0:0:
485,308,136486,1,10,2:0:0:0:
476,236,136622,1,6,3:2:0:0:
437,175,136759,1,10,2:0:0:0:
457,106,136895,2,0,L|500:116,3,45,10|8|10|8,2:0|2:0|2:0|2:0,2:0:0:0:
460,34,137168,2,0,L|527:17,3,45,10|8|10|8,2:0|2:0|2:0|2:0,2:0:0:0:
388,12,137441,6,0,L|299:29,1,90,6|6,3:2|3:2,2:0:0:0:
299,29,137713,1,10,2:0:0:0:
303,121,137850,2,0,P|259:117|228:86,1,90,6|4,3:2|3:2,2:0:0:0:
228,86,138122,1,10,2:0:0:0:
133,1,138259,2,0,P|140:45|144:90,1,90,6|10,3:2|2:0,2:0:0:0:
42,137,138532,6,0,P|36:94|59:56,2,90,6|8|8,3:2|2:0|2:0,2:0:0:0:
132,191,138941,1,0,3:2:0:0:
132,191,139009,1,0,3:2:0:0:
132,191,139077,2,0,L|144:281,1,90,2|8,3:2|2:0,2:0:0:0:
21,328,139350,2,0,P|66:330|102:356,1,90,2|0,3:2|3:2,2:0:0:0:
207,340,139622,6,0,L|296:354,1,90,6|6,3:2|3:2,2:0:0:0:
295,353,139895,1,10,2:0:0:0:
389,357,140032,2,0,P|378:313|346:283,1,90,6|4,3:2|3:2,2:0:0:0:
346,283,140304,1,10,2:0:0:0:
279,182,140441,2,0,L|264:271,1,90,6|10,3:2|2:0,2:0:0:0:
178,264,140713,6,0,L|155:130,1,135,2|0,3:2|2:0,2:0:0:0:
145,133,140986,2,0,L|168:267,1,135,0|0,3:2|2:0,2:0:0:0:
172,302,141259,1,6,3:2:0:0:
77,339,141395,1,4,3:2:0:0:
172,302,141532,1,4,3:2:0:0:
77,339,141668,1,4,3:2:0:0:
32,251,141804,6,0,P|23:212|18:154,1,90,6|6,3:2|3:2,2:0:0:0:
18,162,142077,1,10,2:0:0:0:
9,46,142213,2,0,P|45:72|89:71,1,90,6|4,3:2|3:2,2:0:0:0:
89,71,142486,1,10,2:0:0:0:
155,2,142622,2,0,P|198:7|230:38,1,90,6|10,3:2|2:0,2:0:0:0:
284,124,142895,6,0,L|368:94,2,90,6|8|8,3:2|2:0|3:2,2:0:0:0:
206,182,143304,1,0,3:2:0:0:
206,182,143372,1,0,3:2:0:0:
206,182,143441,2,0,L|176:266,1,90,2|8,3:2|2:0,2:0:0:0:
246,328,143713,2,0,L|335:355,1,90,8|0,3:2|3:2,2:0:0:0:
425,383,143986,6,0,P|443:302|366:272,1,180,6|10,3:2|2:0,2:0:0:0:
431,189,144395,2,0,P|349:163|290:224,1,180,6|10,3:2|2:0,2:0:0:0:
210,165,144804,2,0,P|216:120|227:76,1,90,6|10,3:2|2:0,2:0:0:0:
138,42,145077,5,6,3:2:0:0:
58,11,145213,1,10,2:0:0:0:
11,87,145350,2,0,P|49:108|67:149,1,90,6|8,3:2|2:0,2:0:0:0:
41,224,145622,6,0,L|0:240,3,45,10|8|8|8,2:0|2:0|2:0|2:0,2:0:0:0:
81,284,145895,2,0,L|123:301,3,45,10|8|10|8,2:0|2:0|2:0|2:0,2:0:0:0:
45,352,146168,1,2,2:0:0:0:
