osu file format v14

[General]
AudioFilename: audio.mp3
AudioLeadIn: 0
PreviewTime: 4169
Countdown: 0
SampleSet: Normal
StackLeniency: 0.7
Mode: 1
LetterboxInBreaks: 0
EpilepsyWarning: 1
WidescreenStoryboard: 1

[Editor]
Bookmarks: 4379,26204,43624,85113,102533,120022
DistanceSpacing: 1
BeatDivisor: 4
GridSize: 32
TimelineZoom: 2.2

[Metadata]
Title:Joushou no Tabi ~ The Ascending Journey
TitleUnicode:上昇の旅 ~ The Ascending Journey
Artist:VINXIS
ArtistUnicode:VINXIS
Creator:Shurelia
Version:Fapu's Oni
Source:Genshin Impact
Tags:skystar amamiya yuko captin1 rlc xlni lcfc lowcomboFC scubdomino uberfazz lit120 -Hakurei- Crissa Ascended -Ascended- -_ascended_- Cubby Yohanes -Atri- Firis Mistlud Anxient Ajisai- Ducky- -keitaro Video Game Instrumental breakcore hoyoverse 原神 shizuku- Kazato Asa shikibe Mayu Ayesha Altugle Enkrypton hokichi nitrous tofumang rizen munehime ningguang KuranteMelodii sinnoh jemzuu kukkai 原げん神しん electronic natsume shiki anime girl jungkyuyoung [keqing] faputa Cynplytholowazy deif
BeatmapID:3822517
BeatmapSetID:1857663

[Difficulty]
HPDrainRate:5
CircleSize:2
OverallDifficulty:6
ApproachRate:10
SliderMultiplier:1.4
SliderTickRate:1

[Events]
//Background and Video events
0,0,"stars.jpg",0,0
//Break Periods
2,80642,83169
//Storyboard Layer 0 (Background)
//Storyboard Layer 1 (Fail)
//Storyboard Layer 2 (Pass)
//Storyboard Layer 3 (Foreground)
Sprite,Foreground,Centre,"sb\text\difficulty\_014.png",600,100 S,0,52942,,0.4 F,0,52942,53442,0,1 F,0,56215,56715,1,0
Sprite,Foreground,Centre,"sb\text\difficulty\_012.png",600,100 S,0,56760,,0.4 F,0,56760,57260,0,1 F,0,59487,59987,1,0
Sprite,Foreground,TopLeft,"sb\p.png",-107,0 F,0,78283,,0 C,0,78283,,255,255,255 F,0,78533,,1 V,0,78533,,854,480 C,0,80715,,29,28,34 C,0,81260,,255,255,255 C,0,81805,,29,28,34 F,0,82931,,0
Sprite,Foreground,TopLeft,"sb\p.png",0,0 F,0,78299,,0,0.06 V,0,78299,,862.29,484.8 F,0,78299,78523,0.06,0.96 F,0,78523,78539,0.96,1 C,0,80699,80715,255,255,255,29,28,34 M,0,81259,81275,-106.9,0,205.6,0 C,0,81259,81275,29,28,34,255,255,255 M,0,81803,81819,205.6,0,-356.9,-187.5 C,0,81803,81819,255,255,255,29,28,34 F,0,82475,82491,1,0
Sprite,Foreground,Centre,"sb\text\loading\_002.png",0,0 F,0,78299,,0,0.06 S,0,78299,,0.38 F,0,78299,78523,0.06,0.96 F,0,78523,78539,0.96,1 C,0,80699,80715,134,153,168,211,188,144 M,0,81259,81275,320,377.5,632.5,377.5 C,0,81259,81275,211,188,144,134,153,168 M,0,81803,81819,632.5,377.5,70,190 C,0,81803,81819,134,153,168,211,188,144 F,0,82475,82491,1,0
Sprite,Foreground,Centre,"sb\text\loading\_003.png",0,0 F,0,78299,,0,0.06 S,0,78299,,0.28 F,0,78299,78523,0.06,0.96 F,0,78523,78539,0.96,1 C,0,80699,80715,134,153,168,211,188,144 M,0,81259,81275,320,396.3,632.5,396.3 C,0,81259,81275,211,188,144,134,153,168 M,0,81803,81819,632.5,396.3,70,208.8 C,0,81803,81819,134,153,168,211,188,144 F,0,82475,82491,1,0
Sprite,Foreground,Centre,"sb\bg_loading_logo_day.png",0,0 F,0,78299,,0,0.06 S,0,78299,,0.63 F,0,78299,78523,0.06,0.96 F,0,78523,78539,0.96,1 F,0,80699,80715,1,0 M,0,81275,,320,227.5,632.5,227.5 F,0,81275,,0,1 M,0,81803,81819,632.5,227.5,70,40 F,0,81803,81819,1,0
Sprite,Foreground,Centre,"sb\bg_loading_logo_night.png",0,0 F,0,80715,,0,1 S,0,80715,,0.63 M,0,81259,81275,320,227.5,632.5,227.5 F,0,81259,81275,1,0 M,0,81819,,632.5,227.5,70,40 F,0,81819,,0,1 F,0,82475,82491,1,0
Sprite,Foreground,CentreLeft,"sb\p.png",0,0 F,0,78539,,0,1 V,0,78539,,862.29,1.26 C,0,80699,80715,235,236,238,48,47,52 M,0,81259,81275,-106.9,427.5,205.6,427.5 C,0,81259,81275,48,47,52,235,236,238 M,0,81803,81819,205.6,427.5,-356.9,240 C,0,81803,81819,235,236,238,48,47,52 F,0,82475,82491,1,0
Sprite,Foreground,CentreLeft,"sb\p.png",0,0 F,0,78539,,0,1 V,0,78539,,151.5,25.25 C,0,80699,80715,235,236,238,48,47,52 M,0,81259,81275,245,427.5,557.5,427.5 C,0,81259,81275,48,47,52,235,236,238 M,0,81803,81819,557.5,427.5,-5,240 C,0,81803,81819,235,236,238,48,47,52 F,0,82475,82491,1,0
Sprite,Foreground,CentreLeft,"sb\p.png",0,0 F,0,78539,,0,1 V,0,79435,79451,26.15,25.25,52.94,25.25 V,0,80219,80235,52.94,25.25,71.21,25.25 C,0,80699,80715,73,82,101,237,229,217 V,0,80987,81003,71.21,25.25,100.09,25.25 M,0,81259,81275,245,427.5,557.5,427.5 C,0,81259,81275,237,229,217,73,82,101 V,0,81707,81723,100.09,25.25,130.05,25.25 M,0,81803,81819,557.5,427.5,-5,240 C,0,81803,81819,73,82,101,237,229,217 V,0,82347,82363,130.05,25.25,149.62,25.25 F,0,82475,82491,1,0
Sprite,Foreground,Centre,"sb\bg_loading_mask.png",0,0 F,0,78539,,0,1 S,0,78539,,0.41 C,0,80699,80715,255,255,255,29,28,34 M,0,81259,81275,320,427.5,632.5,427.5 C,0,81259,81275,29,28,34,255,255,255 M,0,81803,81819,632.5,427.5,70,240 C,0,81803,81819,255,255,255,29,28,34 F,0,82475,82491,1,0
Animation,Foreground,TopLeft,"sb\noise.jpg",-107,0,3,10,LoopForever F,0,78533,,0.1 S,0,78533,,0.625 P,0,78533,,A F,0,80715,,0.4 F,0,81976,82794,0.4,0.8
Animation,Foreground,TopLeft,"sb\noise.jpg",320,0,3,10,LoopForever F,0,78533,,0.1 S,0,78533,,0.625 P,0,78533,,A F,0,80715,,0.4 F,0,81976,82794,0.4,0.8
Animation,Foreground,TopLeft,"sb\noise.jpg",-107,240,3,10,LoopForever F,0,78533,,0.1 S,0,78533,,0.625 P,0,78533,,A F,0,80715,,0.4 F,0,81976,82794,0.4,0.8
Animation,Foreground,TopLeft,"sb\noise.jpg",320,240,3,10,LoopForever F,0,78533,,0.1 S,0,78533,,0.625 P,0,78533,,A F,0,80715,,0.4 F,0,81976,82794,0.4,0.8
Sprite,Foreground,Centre,"sb\light.png",320,241 S,0,82522,,0.25 P,0,82522,,A F,0,82522,82931,0.2,0.6 F,0,82931,,0.6,1 S,0,82931,,0.25,0.3 F,0,82931,83067,1,0
Sprite,Foreground,Centre,"sb\p.png",320,240 F,0,82522,,1 V,0,82522,,854,480 P,0,82522,,A V,0,82794,82931,854,480,854,1 V,0,82931,83067,854,1,3,1
//Storyboard Layer 4 (Overlay)
//Storyboard Sound Samples

[TimingPoints]
4344,697.674418604651,3,1,0,35,1,8
4344,-57.1428571428571,3,1,0,35,0,8
5253,727.272727272727,3,1,0,35,1,0
5253,-54.8172757475083,3,1,0,35,0,8
6525,750,3,1,0,35,1,8
6525,-53.156146179402,3,1,0,35,0,8
6916,821.917808219178,3,1,0,35,1,8
6916,-48.5436893203883,3,1,0,35,0,8
7245,789.473684210526,3,1,0,35,1,0
7245,-50.4983388704319,3,1,0,35,0,8
8429,800,3,1,0,35,1,8
8429,-49.8338870431894,3,1,0,35,0,8
8629,750,3,1,0,35,1,8
8629,-53.156146179402,3,1,0,35,0,8
9004,-53.156146179402,3,1,0,35,0,8
9379,740.740740740741,3,1,0,35,1,0
9379,-53.8205980066445,3,1,0,35,0,8
10860,618.556701030928,3,1,0,35,1,8
10860,-64.4518272425249,3,1,0,35,0,8
11169,722.89156626506,3,1,0,35,1,8
11169,-55.1495016611296,3,1,0,35,0,8
11530,731.707317073171,3,1,0,35,1,0
11530,-54.485049833887,3,1,0,35,0,8
12261,-54.485049833887,3,1,0,35,0,8
12993,789.473684210526,3,1,0,35,1,8
12993,-50.4983388704319,3,1,0,35,0,8
13387,769.230769230769,3,1,0,45,1,8
13387,-51.8272425249169,3,1,0,45,0,8
13771,681.818181818182,3,1,0,55,1,0
13771,-58.4717607973422,3,1,0,55,0,8
15134,-58.4717607973422,3,1,0,55,0,8
15475,833.333333333333,3,1,0,55,1,8
15475,-47.8405315614618,3,1,0,55,0,8
15891,759.493670886076,3,1,0,55,1,0
15891,-52.4916943521595,3,1,0,55,0,8
16650,731.707317073171,3,1,0,55,1,8
16650,-54.485049833887,3,1,0,55,0,8
17747,638.297872340426,3,1,0,55,1,8
17747,-62.4584717607973,3,1,0,55,0,8
17986,-62.4584717607973,3,1,0,35,0,0
18066,623.441396508728,3,1,0,35,1,0
18066,-63.9468438538206,3,1,0,35,0,8
21650,-63.9468438538206,3,1,0,45,0,0
21806,272.727272727273,4,1,0,45,1,0
21806,-100,4,1,0,45,0,0
22078,-100.436698766236,4,1,0,45,0,0
22215,-100.656430914207,4,1,0,45,0,0
22419,-100.98791427136,4,1,0,45,0,0
22556,-101.210118785256,4,1,0,45,0,0
22692,-101.43330329217,4,1,0,45,0,0
22828,-101.657474289554,4,1,0,45,0,0
22896,-101.78117048346,4,1,0,45,0,0
22965,-101.882638332426,4,1,0,45,0,0
23169,-102.222208592595,4,1,0,45,0,0
23442,-102.678576012436,4,1,0,45,0,0
23783,-103.254744426438,4,1,0,45,0,0
23987,-103.626943005181,4,1,0,45,0,0
24260,-104.072405253783,4,1,0,45,0,0
24806,-105.022821459103,4,1,0,45,0,0
24942,-105.263157894737,4,1,0,45,0,0
25215,-114.285714285714,4,1,0,45,0,0
33806,-114.285714285714,4,1,0,45,0,0
33942,-113.676731793961,4,1,0,45,0,0
34078,-113.074204946996,4,1,0,45,0,0
34215,-112.478031634447,4,1,0,45,0,0
34351,-111.888111888112,4,1,0,45,0,0
34624,-110.726643598616,4,1,0,45,0,0
34828,-109.58904109589,4,1,0,55,0,0
41442,-109.58904109589,4,1,0,55,0,0
41715,-108.991825613079,4,1,0,55,0,0
41851,-108.695652173913,4,1,0,55,0,0
42124,-108.108108108108,4,1,0,55,0,0
42260,-107.816711590296,4,1,0,55,0,0
42396,-107.52688172043,4,1,0,55,0,0
42533,-107.238605898123,4,1,0,55,0,0
42669,-106.951871657754,4,1,0,55,0,0
42806,-106.666666666667,4,1,0,55,0,0
42942,-106.382978723404,4,1,0,55,0,0
43078,-106.100795755968,4,1,0,55,0,0
43146,-105.960264900662,4,1,0,55,0,0
43215,-105.820105820106,4,1,0,55,0,0
43351,-105.540897097625,4,1,0,55,0,0
43487,-105.263157894737,4,1,0,55,0,0
43556,-100,4,1,0,65,0,0
50169,-100,4,1,0,65,0,0
50442,-99.3804621986536,4,1,0,65,0,0
50578,-99.0736121892247,4,1,0,65,0,0
50715,-98.7686024489675,4,1,0,65,0,0
50851,-98.4654649613105,4,1,0,65,0,0
50987,-98.164182540224,4,1,0,65,0,0
51124,-97.864786096937,4,1,0,65,0,0
51260,-97.5671627956895,4,1,0,65,0,0
51328,-97.4190289563451,4,1,0,65,0,0
51396,-97.271344251069,4,1,0,65,0,0
51533,-96.9773140969133,4,1,0,65,0,0
51669,-96.6851029043721,4,1,0,65,0,0
51806,-96.3946009384014,4,1,0,65,0,0
51874,-96.2500036093751,4,1,0,65,0,0
51942,-96.1058394388572,4,1,0,65,0,0
52078,-95.818802811132,4,1,0,65,0,0
52215,-95.5335212796142,4,1,0,65,0,0
52351,-95.2498880813815,4,1,0,65,0,0
52487,-100,4,1,0,65,0,0
58896,-100,4,1,0,65,0,0
59169,-98.7686024489675,4,1,0,65,0,0
59306,-98.164182540224,4,1,0,65,0,0
59442,-97.5671627956895,4,1,0,65,0,0
59578,-96.9773140969133,4,1,0,65,0,0
59646,-96.6851029043721,4,1,0,65,0,0
59715,-96.3946009384014,4,1,0,65,0,0
59851,-95.818802811132,4,1,0,65,0,0
59987,-95.2498880813815,4,1,0,65,0,0
60124,-94.6876443986577,4,1,0,65,0,0
60260,-94.1320437243343,4,1,0,65,0,0
60396,-93.5828814449946,4,1,0,65,0,0
60465,-93.3106961584453,4,1,0,65,0,0
60533,-93.0401328613097,4,1,0,65,0,0
60601,-92.7710910436933,4,1,0,65,0,0
60669,-92.5036007026573,4,1,0,65,0,0
60806,-91.9732633723377,4,1,0,65,0,0
60942,-91.4489305733436,4,1,0,65,0,0
61010,-90.9090909090909,4,1,0,75,0,0
62237,-93.0232558139535,4,1,0,75,0,0
63192,-90.9090909090909,4,1,0,75,0,0
64487,-93.0232558139535,4,1,0,75,0,0
64760,-95.2380952380952,4,1,0,75,0,0
64965,-94.1176470588235,4,1,0,75,0,0
65101,-93.0232558139535,4,1,0,75,0,0
65237,-91.9540229885058,4,1,0,75,0,0
65374,-90.9090909090909,4,1,0,75,0,0
73078,-86.9565217391304,4,1,0,75,0,0
73351,-87.9070646512507,4,1,0,75,0,0
73487,-88.3902109609165,4,1,0,75,0,0
73624,-88.8786579678161,4,1,0,75,0,0
73760,-89.3725333180804,4,1,0,75,0,0
73896,-89.8719280089908,4,1,0,75,0,0
74033,-90.3769759231217,4,1,0,75,0,0
74169,-90.8876909891216,4,1,0,75,0,0
75328,-91.9540229885058,4,1,0,75,0,0
75601,-95.2380952380952,4,1,0,75,0,0
75806,-94.3396226415095,4,1,0,75,0,0
75942,-93.4579439252336,4,1,0,75,0,0
76078,-92.5925925925926,4,1,0,75,0,0
76215,-91.743119266055,4,1,0,75,0,0
76351,-90.9090909090909,4,1,0,75,0,0
77442,-90.9090909090909,4,1,0,75,0,0
77715,-89.8928926184452,4,1,0,75,0,0
77987,-88.8991221656182,4,1,0,75,0,0
78056,-88.6540934476203,4,1,0,75,0,0
78124,-88.4104508225708,4,1,0,75,0,0
78192,-88.1681048354034,4,1,0,75,0,0
78260,-87.9271224838005,4,1,0,75,0,0
78396,-87.4490117605804,4,1,0,75,0,0
78499,-86.9565217391304,4,1,0,30,0,0
78533,545.454545454546,4,1,0,30,1,0
78533,-43.4782608695652,4,1,0,30,0,0
79623,-46.5116279069767,4,1,0,20,0,0
80578,-50,4,1,0,30,0,0
83169,-60.6060606060606,4,1,0,10,0,0
83919,-60.6060606060605,4,1,0,35,0,0
85010,-60.6060606060605,4,1,0,35,0,0
85078,545.454545454546,4,1,0,35,1,0
85078,-60.6060606060606,4,1,0,35,0,0
100350,-58.8235294117645,4,1,0,35,0,0
101305,-55.5555555555555,4,1,0,35,0,0
101918,-50,4,1,0,60,0,0
101987,-52.6315789473685,4,1,0,60,0,0
102055,-51.7885700554345,4,1,0,60,0,0
102123,-50.972140666797,4,1,0,60,0,0
102259,-49.4141703039614,4,1,0,60,0,0
102396,-47.9485914382036,4,1,0,60,0,0
102464,-47.9485914382036,4,1,0,75,0,0
102532,272.727272727273,4,1,0,75,1,1
102532,-93.0232558139535,4,1,0,75,0,1
109077,-93.0232558139535,4,1,0,75,0,1
109350,-92.4869177254877,4,1,0,75,0,1
109486,-92.2211037851691,4,1,0,75,0,1
109622,-91.9567711218956,4,1,0,75,0,1
109759,-91.6939494372055,4,1,0,75,0,1
109827,-91.5631011689861,4,1,0,75,0,1
109895,-91.432625812436,4,1,0,75,0,1
110032,-91.1728290381813,4,1,0,75,0,1
110168,-90.9144631273666,4,1,0,75,0,1
110304,-90.6575573952996,4,1,0,75,0,1
110372,-90.5296482334724,4,1,0,75,0,1
110441,-90.4020994983587,4,1,0,75,0,1
110509,-90.2749096686685,4,1,0,75,0,1
110577,-90.1481178650582,4,1,0,75,0,1
110713,-89.89551893312,4,1,0,75,0,1
110850,-89.6443316320333,4,1,0,75,0,1
110918,-89.5192636503449,4,1,0,75,0,1
110986,-89.3945441615753,4,1,0,75,0,1
111122,-89.1461845878728,4,1,0,75,0,1
111259,-88.8991616809054,4,1,0,75,0,1
111395,-93.0232558139535,4,1,0,75,0,1
115622,-93.0232558139535,4,1,0,75,0,1
115895,-93.8394847461571,4,1,0,75,0,1
116032,-94.2530165677953,4,1,0,75,0,1
116100,-94.4611299534826,4,1,0,75,0,1
116168,-94.6702092258959,4,1,0,75,0,1
116304,-95.0910663369543,4,1,0,75,0,1
116441,-95.5157276197099,4,1,0,75,0,1
116577,-95.9441988539465,4,1,0,75,0,1
116713,-96.3764851014001,4,1,0,75,0,1
116782,-96.5941389574305,4,1,0,75,0,1
116850,-96.8127312614118,4,1,0,75,0,1
116986,-97.252897406946,4,1,0,75,0,1
117122,-97.6971320518401,4,1,0,75,0,1
117191,-97.9207507779804,4,1,0,75,0,1
117259,-98.1454436959218,4,1,0,75,0,1
117327,-98.3711217800058,4,1,0,75,0,1
117395,-98.5978401157144,4,1,0,75,0,1
117532,-99.0544755040758,4,1,0,75,0,1
117668,-99.5153601958462,4,1,0,75,0,1
117804,-100,4,1,0,75,0,0
117941,-100,4,1,0,55,0,0
119645,-95.2380952380952,4,1,0,75,0,0
119782,-93.0232558139535,4,1,0,75,0,0
119918,-90.9090909090909,4,1,0,85,0,0
123395,-93.0232558139535,4,1,0,85,0,0
123668,-95.2380952380952,4,1,0,85,0,0
123872,-94.1176470588235,4,1,0,85,0,0
124009,-93.0232558139535,4,1,0,85,0,0
124145,-91.9540229885058,4,1,0,85,0,0
124282,-90.9090909090909,4,1,0,85,0,0
131986,-86.9565217391304,4,1,0,85,0,0
132259,-87.9070646512507,4,1,0,85,0,0
132395,-88.3902109609165,4,1,0,85,0,0
132532,-88.8786579678161,4,1,0,85,0,0
132668,-89.3725333180804,4,1,0,85,0,0
132804,-89.8719280089908,4,1,0,85,0,0
132941,-90.3769759231217,4,1,0,85,0,0
133077,-90.8876909891216,4,1,0,85,0,0
140850,-93.0232558139535,4,1,0,85,0,0
141122,-95.2380952380952,4,1,0,85,0,0
141327,-94.1176470588235,4,1,0,85,0,0
141463,-93.0232558139535,4,1,0,85,0,0
141600,-91.9540229885058,4,1,0,85,0,0
141736,-90.9090909090909,4,1,0,85,0,0
146168,545.454545454546,4,1,0,85,1,0
146168,-45.4545454545455,4,1,0,85,0,0
146304,-60.2409638554217,4,1,0,35,0,0
149918,-54.9450549450549,4,1,0,35,0,0
150463,-50,4,1,0,20,0,0

[Colours]
Combo1 : 240,140,140
Combo2 : 200,180,220
Combo3 : 240,200,155
Combo4 : 150,185,220

[HitObjects]
256,192,4344,5,0,1:0:0:0:
256,192,5253,1,8,1:0:0:0:
256,192,6525,1,8,1:0:0:0:
256,192,6916,1,8,1:0:0:0:
256,192,7245,1,8,1:0:0:0:
256,192,8429,1,8,1:0:0:0:
256,192,8529,1,8,1:0:0:0:
256,192,8629,1,8,1:0:0:0:
256,192,9004,1,0,1:0:0:0:
256,192,9379,1,8,1:0:0:0:
256,192,10860,1,8,1:0:0:0:
256,192,11169,1,0,1:0:0:0:
256,192,11530,1,8,1:0:0:0:
256,192,12261,1,0,1:0:0:0:
256,192,12993,1,0,1:0:0:0:
256,192,13387,1,0,1:0:0:0:
256,192,13771,1,8,1:0:0:0:
256,192,15134,1,8,1:0:0:0:
256,192,15475,1,8,1:0:0:0:
256,192,15891,1,0,1:0:0:0:
256,192,16650,1,0,1:0:0:0:
256,192,17747,1,0,1:0:0:0:
256,192,18066,2,0,L|290:184,44,27.3664796342477,0|0|0|0|0|0|0|0|0|0|0|0|0|0|0|0|0|0|0|0|0|0|0|0|0|0|0|0|0|0|0|0|0|0|0|0|0|0|0|0|0|0|0|0|0,1:0|1:0|1:0|1:0|1:0|1:0|1:0|1:0|1:0|1:0|1:0|1:0|1:0|1:0|1:0|1:0|1:0|1:0|1:0|1:0|1:0|1:0|1:0|1:0|1:0|1:0|1:0|1:0|1:0|1:0|1:0|1:0|1:0|1:0|1:0|1:0|1:0|1:0|1:0|1:0|1:0|1:0|1:0|1:0|1:0,1:0:0:0:
256,192,21806,1,8,1:0:0:0:
256,192,22078,1,0,1:0:0:0:
256,192,22215,1,8,1:0:0:0:
256,192,22419,1,8,1:0:0:0:
256,192,22556,1,8,1:0:0:0:
256,192,22692,1,8,1:0:0:0:
256,192,22828,1,0,1:0:0:0:
256,192,22965,1,0,1:0:0:0:
256,192,23169,1,0,1:0:0:0:
256,192,23442,1,0,1:0:0:0:
256,192,23783,1,0,1:0:0:0:
256,192,24260,1,0,1:0:0:0:
256,192,24806,1,8,1:0:0:0:
256,192,24942,1,0,1:0:0:0:
256,192,26169,1,8,1:0:0:0:
256,192,26578,1,0,1:0:0:0:
256,192,26987,1,8,1:0:0:0:
256,192,27260,1,0,1:0:0:0:
256,192,27533,1,8,1:0:0:0:
256,192,27806,1,0,1:0:0:0:
256,192,27942,1,8,1:0:0:0:
256,192,28351,1,8,1:0:0:0:
256,192,28760,1,8,1:0:0:0:
256,192,29169,1,8,1:0:0:0:
256,192,29442,1,8,1:0:0:0:
256,192,29715,1,0,1:0:0:0:
256,192,30124,1,8,1:0:0:0:
256,192,30533,1,0,1:0:0:0:
256,192,30942,1,0,1:0:0:0:
256,192,31351,1,8,1:0:0:0:
256,192,31624,1,8,1:0:0:0:
256,192,31896,1,8,1:0:0:0:
256,192,32169,1,0,1:0:0:0:
256,192,32306,1,8,1:0:0:0:
256,192,32715,1,8,1:0:0:0:
256,192,33124,1,8,1:0:0:0:
256,192,33533,1,8,1:0:0:0:
256,192,33806,1,8,1:0:0:0:
256,192,33942,1,0,1:0:0:0:
256,192,34078,1,8,1:0:0:0:
256,192,34215,1,8,1:0:0:0:
256,192,34351,1,0,1:0:0:0:
256,192,34624,1,8,1:0:0:0:
256,192,34896,1,0,1:0:0:0:
256,192,35169,1,8,1:0:0:0:
256,192,35306,1,0,1:0:0:0:
256,192,35442,1,8,1:0:0:0:
256,192,35578,1,8,1:0:0:0:
256,192,35715,1,0,1:0:0:0:
256,192,35987,1,8,1:0:0:0:
256,192,36260,1,0,1:0:0:0:
256,192,36396,1,8,1:0:0:0:
256,192,36533,1,0,1:0:0:0:
256,192,36601,1,0,1:0:0:0:
256,192,36669,1,0,1:0:0:0:
256,192,36806,1,8,1:0:0:0:
256,192,36942,1,8,1:0:0:0:
256,192,37078,1,0,1:0:0:0:
256,192,37351,1,8,1:0:0:0:
256,192,37624,1,0,1:0:0:0:
256,192,37760,1,8,1:0:0:0:
256,192,37896,1,8,1:0:0:0:
256,192,38033,1,0,1:0:0:0:
256,192,38169,1,0,1:0:0:0:
256,192,38442,1,8,1:0:0:0:
256,192,38578,1,8,1:0:0:0:
256,192,38715,1,0,1:0:0:0:
256,192,38783,1,0,1:0:0:0:
256,192,38851,1,8,1:0:0:0:
256,192,38987,1,0,1:0:0:0:
256,192,39124,1,8,1:0:0:0:
256,192,39260,1,0,1:0:0:0:
256,192,39533,1,8,1:0:0:0:
256,192,39806,1,0,1:0:0:0:
256,192,39942,1,8,1:0:0:0:
256,192,40078,1,8,1:0:0:0:
256,192,40215,1,0,1:0:0:0:
256,192,40351,1,8,1:0:0:0:
256,192,40624,1,0,1:0:0:0:
256,192,40760,1,8,1:0:0:0:
256,192,40896,1,0,1:0:0:0:
256,192,40965,1,0,1:0:0:0:
256,192,41033,1,0,1:0:0:0:
256,192,41169,1,8,1:0:0:0:
256,192,41306,1,0,1:0:0:0:
256,192,41442,1,8,1:0:0:0:
256,192,41715,1,0,1:0:0:0:
256,192,41851,1,8,1:0:0:0:
256,192,42124,1,0,1:0:0:0:
256,192,42260,1,8,1:0:0:0:
256,192,42396,1,0,1:0:0:0:
256,192,42533,1,8,1:0:0:0:
256,192,42669,1,0,1:0:0:0:
256,192,42806,1,8,1:0:0:0:
256,192,42942,1,0,1:0:0:0:
256,192,43078,1,8,1:0:0:0:
256,192,43146,1,8,1:0:0:0:
256,192,43215,1,0,1:0:0:0:
256,192,43351,1,8,1:0:0:0:
256,192,43487,1,8,1:0:0:0:
256,192,43624,1,4,1:0:0:0:
256,192,43896,1,8,1:0:0:0:
256,192,44169,1,0,1:0:0:0:
256,192,44306,1,0,1:0:0:0:
256,192,44442,1,8,1:0:0:0:
256,192,44578,1,0,1:0:0:0:
256,192,44715,1,0,1:0:0:0:
256,192,44987,1,8,1:0:0:0:
256,192,45124,1,8,1:0:0:0:
256,192,45260,1,0,1:0:0:0:
256,192,45328,1,0,1:0:0:0:
256,192,45396,1,0,1:0:0:0:
256,192,45533,1,8,1:0:0:0:
256,192,45669,1,8,1:0:0:0:
256,192,45806,1,0,1:0:0:0:
256,192,46078,1,8,1:0:0:0:
256,192,46351,1,8,1:0:0:0:
256,192,46487,1,0,1:0:0:0:
256,192,46624,1,8,1:0:0:0:
256,192,46760,1,8,1:0:0:0:
256,192,46896,1,0,1:0:0:0:
256,192,47169,1,0,1:0:0:0:
256,192,47306,1,8,1:0:0:0:
256,192,47442,1,0,1:0:0:0:
256,192,47510,1,8,1:0:0:0:
256,192,47578,1,0,1:0:0:0:
256,192,47715,1,8,1:0:0:0:
256,192,47851,1,8,1:0:0:0:
256,192,47987,1,0,1:0:0:0:
256,192,48260,1,8,1:0:0:0:
256,192,48533,1,0,1:0:0:0:
256,192,48669,1,0,1:0:0:0:
256,192,48806,1,8,1:0:0:0:
256,192,48942,1,0,1:0:0:0:
256,192,49078,1,0,1:0:0:0:
256,192,49351,1,8,1:0:0:0:
256,192,49487,1,8,1:0:0:0:
256,192,49624,1,0,1:0:0:0:
256,192,49760,1,0,1:0:0:0:
256,192,49828,1,0,1:0:0:0:
256,192,49896,1,8,1:0:0:0:
256,192,50033,1,0,1:0:0:0:
256,192,50169,1,8,1:0:0:0:
256,192,50442,1,8,1:0:0:0:
256,192,50578,1,8,1:0:0:0:
256,192,50715,1,0,1:0:0:0:
256,192,50851,1,0,1:0:0:0:
256,192,50987,1,8,1:0:0:0:
256,192,51124,1,8,1:0:0:0:
256,192,51260,1,0,1:0:0:0:
256,192,51328,1,0,1:0:0:0:
256,192,51396,1,8,1:0:0:0:
256,192,51533,1,8,1:0:0:0:
256,192,51669,1,0,1:0:0:0:
256,192,51806,1,8,1:0:0:0:
256,192,51874,1,0,1:0:0:0:
256,192,51942,1,8,1:0:0:0:
256,192,52078,1,0,1:0:0:0:
256,192,52215,1,0,1:0:0:0:
256,192,52351,1,12,1:0:0:0:
256,192,52624,1,8,1:0:0:0:
256,192,52760,1,0,1:0:0:0:
256,192,52828,1,0,1:0:0:0:
256,192,52896,1,8,1:0:0:0:
256,192,53033,1,0,1:0:0:0:
256,192,53169,1,8,1:0:0:0:
256,192,53306,1,8,1:0:0:0:
256,192,53442,1,0,1:0:0:0:
256,192,53715,1,8,1:0:0:0:
256,192,53851,1,0,1:0:0:0:
256,192,53919,1,0,1:0:0:0:
256,192,53987,1,0,1:0:0:0:
256,192,54124,1,0,1:0:0:0:
256,192,54260,1,8,1:0:0:0:
256,192,54396,1,8,1:0:0:0:
256,192,54533,1,0,1:0:0:0:
256,192,54806,1,8,1:0:0:0:
256,192,54942,1,0,1:0:0:0:
256,192,55078,1,8,1:0:0:0:
256,192,55146,1,8,1:0:0:0:
256,192,55215,1,0,1:0:0:0:
256,192,55351,1,8,1:0:0:0:
256,192,55487,1,8,1:0:0:0:
256,192,55624,1,0,1:0:0:0:
256,192,55896,1,8,1:0:0:0:
256,192,56033,1,0,1:0:0:0:
256,192,56101,1,0,1:0:0:0:
256,192,56169,1,8,1:0:0:0:
256,192,56306,1,0,1:0:0:0:
256,192,56442,1,8,1:0:0:0:
256,192,56578,1,8,1:0:0:0:
256,192,56715,1,0,1:0:0:0:
256,192,56987,1,8,1:0:0:0:
256,192,57124,1,0,1:0:0:0:
256,192,57260,1,8,1:0:0:0:
256,192,57328,1,0,1:0:0:0:
256,192,57396,1,8,1:0:0:0:
256,192,57533,1,0,1:0:0:0:
256,192,57669,1,0,1:0:0:0:
256,192,57806,1,8,1:0:0:0:
256,192,58078,1,0,1:0:0:0:
256,192,58146,1,8,1:0:0:0:
256,192,58215,1,0,1:0:0:0:
256,192,58351,1,8,1:0:0:0:
256,192,58487,1,8,1:0:0:0:
256,192,58624,1,0,1:0:0:0:
256,192,58760,1,0,1:0:0:0:
256,192,58896,1,8,1:0:0:0:
256,192,59169,1,8,1:0:0:0:
256,192,59306,1,8,1:0:0:0:
256,192,59442,1,0,1:0:0:0:
256,192,59578,1,0,1:0:0:0:
256,192,59646,1,0,1:0:0:0:
256,192,59715,1,8,1:0:0:0:
256,192,59851,1,0,1:0:0:0:
256,192,59987,1,8,1:0:0:0:
256,192,60124,1,8,1:0:0:0:
256,192,60260,1,0,1:0:0:0:
256,192,60396,1,8,1:0:0:0:
256,192,60465,1,8,1:0:0:0:
256,192,60533,1,0,1:0:0:0:
256,192,60601,1,0,1:0:0:0:
256,192,60669,1,8,1:0:0:0:
256,192,60806,1,0,1:0:0:0:
256,192,60942,1,8,1:0:0:0:
256,192,61078,1,4,1:0:0:0:
256,192,61215,1,8,1:0:0:0:
256,192,61283,1,8,1:0:0:0:
256,192,61351,1,0,1:0:0:0:
256,192,61487,1,8,1:0:0:0:
256,192,61556,1,8,1:0:0:0:
256,192,61624,1,8,1:0:0:0:
256,192,61692,1,8,1:0:0:0:
256,192,61760,1,0,1:0:0:0:
256,192,61896,1,8,1:0:0:0:
256,192,61965,1,8,1:0:0:0:
256,192,62033,1,0,1:0:0:0:
256,192,62169,1,12,1:0:0:0:
256,192,62442,1,0,1:0:0:0:
256,192,62578,1,8,1:0:0:0:
256,192,62646,1,8,1:0:0:0:
256,192,62715,1,0,1:0:0:0:
256,192,62851,1,8,1:0:0:0:
256,192,62987,1,0,1:0:0:0:
256,192,63260,1,4,1:0:0:0:
256,192,63396,1,8,1:0:0:0:
256,192,63465,1,8,1:0:0:0:
256,192,63533,1,0,1:0:0:0:
256,192,63669,1,8,1:0:0:0:
256,192,63737,1,8,1:0:0:0:
256,192,63806,1,8,1:0:0:0:
256,192,63874,1,8,1:0:0:0:
256,192,63942,1,0,1:0:0:0:
256,192,64078,1,8,1:0:0:0:
256,192,64146,1,8,1:0:0:0:
256,192,64215,1,0,1:0:0:0:
256,192,64351,1,12,1:0:0:0:
256,192,64624,1,0,1:0:0:0:
256,192,64896,1,8,1:0:0:0:
256,192,65033,1,8,1:0:0:0:
256,192,65169,1,8,1:0:0:0:
256,192,65306,1,8,1:0:0:0:
256,192,65442,1,4,1:0:0:0:
256,192,65578,1,8,1:0:0:0:
256,192,65646,1,8,1:0:0:0:
256,192,65715,1,8,1:0:0:0:
256,192,65851,1,0,1:0:0:0:
256,192,65919,1,0,1:0:0:0:
256,192,65987,1,8,1:0:0:0:
256,192,66056,1,8,1:0:0:0:
256,192,66124,1,8,1:0:0:0:
256,192,66260,1,0,1:0:0:0:
256,192,66328,1,0,1:0:0:0:
256,192,66396,1,8,1:0:0:0:
256,192,66533,1,4,1:0:0:0:
256,192,66806,1,8,1:0:0:0:
256,192,66942,1,8,1:0:0:0:
256,192,67078,1,8,1:0:0:0:
256,192,67215,1,8,1:0:0:0:
256,192,67351,1,8,1:0:0:0:
256,192,67487,1,0,1:0:0:0:
256,192,67624,1,4,1:0:0:0:
256,192,67760,1,8,1:0:0:0:
256,192,67828,1,8,1:0:0:0:
256,192,67896,1,8,1:0:0:0:
256,192,68033,1,0,1:0:0:0:
256,192,68101,1,0,1:0:0:0:
256,192,68169,1,8,1:0:0:0:
256,192,68237,1,8,1:0:0:0:
256,192,68306,1,8,1:0:0:0:
256,192,68442,1,0,1:0:0:0:
256,192,68510,1,0,1:0:0:0:
256,192,68578,1,8,1:0:0:0:
256,192,68715,1,4,1:0:0:0:
256,192,68987,1,0,1:0:0:0:
256,192,69124,1,0,1:0:0:0:
256,192,69260,1,8,1:0:0:0:
256,192,69328,1,8,1:0:0:0:
256,192,69396,1,8,1:0:0:0:
256,192,69465,1,8,1:0:0:0:
256,192,69533,1,0,1:0:0:0:
256,192,69669,1,8,1:0:0:0:
256,192,69806,1,4,1:0:0:0:
256,192,69942,1,8,1:0:0:0:
256,192,70010,1,8,1:0:0:0:
256,192,70078,1,0,1:0:0:0:
256,192,70215,1,8,1:0:0:0:
256,192,70283,1,8,1:0:0:0:
256,192,70351,1,8,1:0:0:0:
256,192,70419,1,8,1:0:0:0:
256,192,70487,1,0,1:0:0:0:
256,192,70624,1,8,1:0:0:0:
256,192,70692,1,8,1:0:0:0:
256,192,70760,1,0,1:0:0:0:
256,192,70896,1,12,1:0:0:0:
256,192,71169,1,0,1:0:0:0:
256,192,71306,1,8,1:0:0:0:
256,192,71374,1,8,1:0:0:0:
256,192,71442,1,0,1:0:0:0:
256,192,71578,1,0,1:0:0:0:
256,192,71715,1,8,1:0:0:0:
256,192,71851,1,8,1:0:0:0:
256,192,71987,1,4,1:0:0:0:
256,192,72124,1,8,1:0:0:0:
256,192,72192,1,8,1:0:0:0:
256,192,72260,1,0,1:0:0:0:
256,192,72396,1,8,1:0:0:0:
256,192,72465,1,8,1:0:0:0:
256,192,72533,1,8,1:0:0:0:
256,192,72601,1,8,1:0:0:0:
256,192,72669,1,0,1:0:0:0:
256,192,72806,1,8,1:0:0:0:
256,192,72874,1,8,1:0:0:0:
256,192,72942,1,0,1:0:0:0:
256,192,73078,1,4,1:0:0:0:
256,192,73351,1,8,1:0:0:0:
256,192,73487,1,8,1:0:0:0:
256,192,73624,1,0,1:0:0:0:
256,192,73760,1,0,1:0:0:0:
256,192,73896,1,0,1:0:0:0:
256,192,74033,1,8,1:0:0:0:
256,192,74169,1,4,1:0:0:0:
256,192,74306,1,8,1:0:0:0:
256,192,74374,1,8,1:0:0:0:
256,192,74442,1,8,1:0:0:0:
256,192,74578,1,0,1:0:0:0:
256,192,74646,1,0,1:0:0:0:
256,192,74715,1,8,1:0:0:0:
256,192,74783,1,8,1:0:0:0:
256,192,74851,1,8,1:0:0:0:
256,192,74987,1,0,1:0:0:0:
256,192,75056,1,0,1:0:0:0:
256,192,75124,1,8,1:0:0:0:
256,192,75260,1,4,1:0:0:0:
256,192,75396,1,8,1:0:0:0:
256,192,75669,1,0,1:0:0:0:
256,192,75806,1,8,1:0:0:0:
256,192,75942,1,8,1:0:0:0:
256,192,76078,1,8,1:0:0:0:
256,192,76215,1,8,1:0:0:0:
256,192,76351,1,4,1:0:0:0:
256,192,76487,1,8,1:0:0:0:
256,192,76556,1,8,1:0:0:0:
256,192,76624,1,8,1:0:0:0:
256,192,76760,1,0,1:0:0:0:
256,192,76828,1,0,1:0:0:0:
256,192,76896,1,8,1:0:0:0:
256,192,76965,1,8,1:0:0:0:
256,192,77033,1,8,1:0:0:0:
256,192,77169,1,0,1:0:0:0:
256,192,77237,1,0,1:0:0:0:
256,192,77306,1,8,1:0:0:0:
256,192,77442,1,4,1:0:0:0:
256,192,77715,1,4,1:0:0:0:
256,192,77987,1,0,1:0:0:0:
256,192,78056,1,0,1:0:0:0:
256,192,78124,1,0,1:0:0:0:
256,192,78192,1,0,1:0:0:0:
256,192,78260,1,8,1:0:0:0:
256,192,78396,1,8,1:0:0:0:
256,192,78533,12,0,80442,1:0:0:0:
256,192,83987,5,0,1:0:0:0:
256,192,84533,1,0,1:0:0:0:
256,192,85078,1,8,1:0:0:0:
256,192,85896,1,0,1:0:0:0:
256,192,86168,1,8,1:0:0:0:
256,192,87258,1,0,1:0:0:0:
256,192,87805,1,8,1:0:0:0:
256,192,88078,1,0,1:0:0:0:
256,192,88350,1,8,1:0:0:0:
256,192,88896,1,8,1:0:0:0:
256,192,89441,1,0,1:0:0:0:
256,192,90259,1,8,1:0:0:0:
256,192,90532,1,8,1:0:0:0:
256,192,91623,1,0,1:0:0:0:
256,192,92714,1,8,1:0:0:0:
256,192,93259,1,0,1:0:0:0:
256,192,93805,1,8,1:0:0:0:
256,192,94623,1,0,1:0:0:0:
256,192,94896,1,8,1:0:0:0:
256,192,95987,1,0,1:0:0:0:
256,192,96532,1,8,1:0:0:0:
256,192,96805,1,0,1:0:0:0:
256,192,97078,1,8,1:0:0:0:
256,192,97623,1,8,1:0:0:0:
256,192,98168,1,0,1:0:0:0:
256,192,99259,1,8,1:0:0:0:
256,192,100350,1,0,1:0:0:0:
256,192,101441,1,8,1:0:0:0:
256,192,101987,1,8,1:0:0:0:
256,192,102055,1,8,1:0:0:0:
256,192,102123,1,8,1:0:0:0:
256,192,102259,1,0,1:0:0:0:
256,192,102396,1,8,1:0:0:0:
256,192,102532,1,4,1:0:0:0:
256,192,102804,1,8,1:0:0:0:
256,192,102941,1,0,1:0:0:0:
256,192,103009,1,0,1:0:0:0:
256,192,103077,1,8,1:0:0:0:
256,192,103213,1,0,1:0:0:0:
256,192,103350,1,8,1:0:0:0:
256,192,103486,1,8,1:0:0:0:
256,192,103622,1,0,1:0:0:0:
256,192,103691,1,0,1:0:0:0:
256,192,103759,1,0,1:0:0:0:
256,192,103895,1,8,1:0:0:0:
256,192,104032,1,0,1:0:0:0:
256,192,104100,1,8,1:0:0:0:
256,192,104168,1,0,1:0:0:0:
256,192,104304,1,0,1:0:0:0:
256,192,104441,1,8,1:0:0:0:
256,192,104577,1,8,1:0:0:0:
256,192,104713,1,0,1:0:0:0:
256,192,104986,1,8,1:0:0:0:
256,192,105122,1,0,1:0:0:0:
256,192,105191,1,0,1:0:0:0:
256,192,105259,1,8,1:0:0:0:
256,192,105395,1,0,1:0:0:0:
256,192,105532,1,8,1:0:0:0:
256,192,105668,1,0,1:0:0:0:
256,192,105736,1,0,1:0:0:0:
256,192,105804,1,0,1:0:0:0:
256,192,105941,1,8,1:0:0:0:
256,192,106077,1,0,1:0:0:0:
256,192,106213,1,8,1:0:0:0:
256,192,106282,1,8,1:0:0:0:
256,192,106350,1,0,1:0:0:0:
256,192,106418,1,8,1:0:0:0:
256,192,106486,1,0,1:0:0:0:
256,192,106622,1,8,1:0:0:0:
256,192,106759,1,8,1:0:0:0:
256,192,106895,1,0,1:0:0:0:
256,192,107168,1,8,1:0:0:0:
256,192,107304,1,0,1:0:0:0:
256,192,107372,1,8,1:0:0:0:
256,192,107441,1,8,1:0:0:0:
256,192,107577,1,0,1:0:0:0:
256,192,107713,1,8,1:0:0:0:
256,192,107850,1,0,1:0:0:0:
256,192,107918,1,0,1:0:0:0:
256,192,107986,1,8,1:0:0:0:
256,192,108122,1,8,1:0:0:0:
256,192,108259,1,0,1:0:0:0:
256,192,108395,1,8,1:0:0:0:
256,192,108463,1,8,1:0:0:0:
256,192,108532,1,0,1:0:0:0:
256,192,108668,1,0,1:0:0:0:
256,192,108804,1,8,1:0:0:0:
256,192,108941,1,0,1:0:0:0:
256,192,109077,1,8,1:0:0:0:
256,192,109350,1,8,1:0:0:0:
256,192,109486,1,8,1:0:0:0:
256,192,109622,1,0,1:0:0:0:
256,192,109759,1,8,1:0:0:0:
256,192,109827,1,8,1:0:0:0:
256,192,109895,1,0,1:0:0:0:
256,192,110032,1,0,1:0:0:0:
256,192,110168,1,8,1:0:0:0:
256,192,110304,1,0,1:0:0:0:
256,192,110372,1,0,1:0:0:0:
256,192,110441,1,8,1:0:0:0:
256,192,110509,1,8,1:0:0:0:
256,192,110577,1,0,1:0:0:0:
256,192,110713,1,8,1:0:0:0:
256,192,110850,1,8,1:0:0:0:
256,192,110918,1,8,1:0:0:0:
256,192,110986,1,0,1:0:0:0:
256,192,111122,1,8,1:0:0:0:
256,192,111259,1,4,1:0:0:0:
256,192,111532,1,8,1:0:0:0:
256,192,111668,1,8,1:0:0:0:
256,192,111736,1,8,1:0:0:0:
256,192,111804,1,0,1:0:0:0:
256,192,111941,1,0,1:0:0:0:
256,192,112077,1,8,1:0:0:0:
256,192,112213,1,0,1:0:0:0:
256,192,112350,1,8,1:0:0:0:
256,192,112418,1,8,1:0:0:0:
256,192,112486,1,0,1:0:0:0:
256,192,112622,1,8,1:0:0:0:
256,192,112759,1,0,1:0:0:0:
256,192,112895,1,8,1:0:0:0:
256,192,112963,1,8,1:0:0:0:
256,192,113032,1,0,1:0:0:0:
256,192,113100,1,0,1:0:0:0:
256,192,113168,1,8,1:0:0:0:
256,192,113304,1,8,1:0:0:0:
256,192,113441,1,0,1:0:0:0:
256,192,113713,1,8,1:0:0:0:
256,192,113850,1,8,1:0:0:0:
256,192,113918,1,8,1:0:0:0:
256,192,113986,1,0,1:0:0:0:
256,192,114122,1,0,1:0:0:0:
256,192,114259,1,8,1:0:0:0:
256,192,114395,1,0,1:0:0:0:
256,192,114463,1,0,1:0:0:0:
256,192,114532,1,8,1:0:0:0:
256,192,114668,1,0,1:0:0:0:
256,192,114804,1,8,1:0:0:0:
256,192,114941,1,0,1:0:0:0:
256,192,115009,1,0,1:0:0:0:
256,192,115077,1,8,1:0:0:0:
256,192,115145,1,0,1:0:0:0:
256,192,115213,1,8,1:0:0:0:
256,192,115350,1,0,1:0:0:0:
256,192,115486,1,8,1:0:0:0:
256,192,115554,1,8,1:0:0:0:
256,192,115622,1,0,1:0:0:0:
256,192,115895,1,8,1:0:0:0:
256,192,116032,1,8,1:0:0:0:
256,192,116100,1,8,1:0:0:0:
256,192,116168,1,0,1:0:0:0:
256,192,116304,1,0,1:0:0:0:
256,192,116441,1,8,1:0:0:0:
256,192,116577,1,0,1:0:0:0:
256,192,116713,1,8,1:0:0:0:
256,192,116782,1,8,1:0:0:0:
256,192,116850,1,0,1:0:0:0:
256,192,116986,1,8,1:0:0:0:
256,192,117122,1,0,1:0:0:0:
256,192,117191,1,8,1:0:0:0:
256,192,117259,1,0,1:0:0:0:
256,192,117327,1,8,1:0:0:0:
256,192,117395,1,0,1:0:0:0:
256,192,117532,1,8,1:0:0:0:
256,192,117668,1,0,1:0:0:0:
256,192,117804,1,8,1:0:0:0:
256,192,118077,1,0,1:0:0:0:
256,192,118350,1,8,1:0:0:0:
256,192,118622,1,0,1:0:0:0:
256,192,118759,1,0,1:0:0:0:
256,192,118895,1,8,1:0:0:0:
256,192,119032,1,8,1:0:0:0:
256,192,119168,1,0,1:0:0:0:
256,192,119441,1,8,1:0:0:0:
256,192,119713,1,0,1:0:0:0:
256,192,119850,1,0,1:0:0:0:
256,192,119986,1,12,1:0:0:0:
256,192,120122,1,0,1:0:0:0:
256,192,120191,1,0,1:0:0:0:
256,192,120259,1,8,1:0:0:0:
256,192,120395,1,0,1:0:0:0:
256,192,120463,1,0,1:0:0:0:
256,192,120532,1,0,1:0:0:0:
256,192,120600,1,0,1:0:0:0:
256,192,120668,1,8,1:0:0:0:
256,192,120804,1,0,1:0:0:0:
256,192,120872,1,0,1:0:0:0:
256,192,120941,1,8,1:0:0:0:
256,192,121077,1,4,1:0:0:0:
256,192,121350,1,8,1:0:0:0:
256,192,121486,1,0,1:0:0:0:
256,192,121554,1,0,1:0:0:0:
256,192,121622,1,8,1:0:0:0:
256,192,121691,1,8,1:0:0:0:
256,192,121759,1,0,1:0:0:0:
256,192,121895,1,8,1:0:0:0:
256,192,122032,1,0,1:0:0:0:
256,192,122168,1,12,1:0:0:0:
256,192,122304,1,0,1:0:0:0:
256,192,122372,1,0,1:0:0:0:
256,192,122441,1,8,1:0:0:0:
256,192,122577,1,0,1:0:0:0:
256,192,122645,1,0,1:0:0:0:
256,192,122713,1,0,1:0:0:0:
256,192,122782,1,0,1:0:0:0:
256,192,122850,1,8,1:0:0:0:
256,192,122986,1,0,1:0:0:0:
256,192,123054,1,0,1:0:0:0:
256,192,123122,1,8,1:0:0:0:
256,192,123259,1,4,1:0:0:0:
256,192,123532,1,8,1:0:0:0:
256,192,123804,1,0,1:0:0:0:
256,192,123941,1,0,1:0:0:0:
256,192,124077,1,0,1:0:0:0:
256,192,124213,1,0,1:0:0:0:
256,192,124350,1,12,1:0:0:0:
256,192,124486,1,0,1:0:0:0:
256,192,124554,1,8,1:0:0:0:
256,192,124622,1,0,1:0:0:0:
256,192,124759,1,8,1:0:0:0:
256,192,124827,1,8,1:0:0:0:
256,192,124895,1,0,1:0:0:0:
256,192,124963,1,0,1:0:0:0:
256,192,125032,1,8,1:0:0:0:
256,192,125168,1,0,1:0:0:0:
256,192,125236,1,0,1:0:0:0:
256,192,125304,1,8,1:0:0:0:
256,192,125441,1,4,1:0:0:0:
256,192,125713,1,0,1:0:0:0:
256,192,125850,1,8,1:0:0:0:
256,192,125918,1,8,1:0:0:0:
256,192,125986,1,0,1:0:0:0:
256,192,126054,1,0,1:0:0:0:
256,192,126122,1,8,1:0:0:0:
256,192,126259,1,8,1:0:0:0:
256,192,126395,1,0,1:0:0:0:
256,192,126532,1,12,1:0:0:0:
256,192,126668,1,0,1:0:0:0:
256,192,126736,1,8,1:0:0:0:
256,192,126804,1,0,1:0:0:0:
256,192,126941,1,8,1:0:0:0:
256,192,127009,1,8,1:0:0:0:
256,192,127077,1,0,1:0:0:0:
256,192,127145,1,0,1:0:0:0:
256,192,127213,1,8,1:0:0:0:
256,192,127350,1,0,1:0:0:0:
256,192,127418,1,0,1:0:0:0:
256,192,127486,1,8,1:0:0:0:
256,192,127622,1,4,1:0:0:0:
256,192,127895,1,0,1:0:0:0:
256,192,128168,1,8,1:0:0:0:
256,192,128236,1,8,1:0:0:0:
256,192,128304,1,8,1:0:0:0:
256,192,128372,1,8,1:0:0:0:
256,192,128441,1,0,1:0:0:0:
256,192,128577,1,0,1:0:0:0:
256,192,128713,1,12,1:0:0:0:
256,192,128850,1,0,1:0:0:0:
256,192,128918,1,0,1:0:0:0:
256,192,128986,1,8,1:0:0:0:
256,192,129122,1,0,1:0:0:0:
256,192,129191,1,0,1:0:0:0:
256,192,129259,1,0,1:0:0:0:
256,192,129327,1,0,1:0:0:0:
256,192,129395,1,8,1:0:0:0:
256,192,129532,1,0,1:0:0:0:
256,192,129600,1,0,1:0:0:0:
256,192,129668,1,8,1:0:0:0:
256,192,129804,1,4,1:0:0:0:
256,192,130077,1,8,1:0:0:0:
256,192,130213,1,0,1:0:0:0:
256,192,130282,1,0,1:0:0:0:
256,192,130350,1,0,1:0:0:0:
256,192,130418,1,0,1:0:0:0:
256,192,130486,1,8,1:0:0:0:
256,192,130622,1,0,1:0:0:0:
256,192,130759,1,8,1:0:0:0:
256,192,130895,1,12,1:0:0:0:
256,192,131032,1,0,1:0:0:0:
256,192,131100,1,0,1:0:0:0:
256,192,131168,1,8,1:0:0:0:
256,192,131304,1,0,1:0:0:0:
256,192,131372,1,0,1:0:0:0:
256,192,131441,1,0,1:0:0:0:
256,192,131509,1,0,1:0:0:0:
256,192,131577,1,8,1:0:0:0:
256,192,131713,1,0,1:0:0:0:
256,192,131782,1,0,1:0:0:0:
256,192,131850,1,8,1:0:0:0:
256,192,131986,1,4,1:0:0:0:
256,192,132259,1,8,1:0:0:0:
256,192,132395,1,8,1:0:0:0:
256,192,132532,1,0,1:0:0:0:
256,192,132668,1,0,1:0:0:0:
256,192,132804,1,0,1:0:0:0:
256,192,132941,1,0,1:0:0:0:
256,192,133077,1,12,1:0:0:0:
256,192,133213,1,0,1:0:0:0:
256,192,133282,1,8,1:0:0:0:
256,192,133350,1,0,1:0:0:0:
256,192,133486,1,8,1:0:0:0:
256,192,133554,1,8,1:0:0:0:
256,192,133622,1,0,1:0:0:0:
256,192,133691,1,0,1:0:0:0:
256,192,133759,1,8,1:0:0:0:
256,192,133895,1,0,1:0:0:0:
256,192,133963,1,0,1:0:0:0:
256,192,134032,1,8,1:0:0:0:
256,192,134168,1,4,1:0:0:0:
256,192,134441,1,8,1:0:0:0:
256,192,134577,1,0,1:0:0:0:
256,192,134645,1,0,1:0:0:0:
256,192,134713,1,8,1:0:0:0:
256,192,134850,1,8,1:0:0:0:
256,192,134986,1,0,1:0:0:0:
256,192,135122,1,0,1:0:0:0:
256,192,135259,1,12,1:0:0:0:
256,192,135395,1,0,1:0:0:0:
256,192,135463,1,8,1:0:0:0:
256,192,135532,1,0,1:0:0:0:
256,192,135668,1,8,1:0:0:0:
256,192,135736,1,8,1:0:0:0:
256,192,135804,1,0,1:0:0:0:
256,192,135872,1,0,1:0:0:0:
256,192,135941,1,8,1:0:0:0:
256,192,136077,1,0,1:0:0:0:
256,192,136145,1,0,1:0:0:0:
256,192,136213,1,8,1:0:0:0:
256,192,136350,1,4,1:0:0:0:
256,192,136622,1,0,1:0:0:0:
256,192,136759,1,0,1:0:0:0:
256,192,136895,1,8,1:0:0:0:
256,192,136963,1,8,1:0:0:0:
256,192,137032,1,0,1:0:0:0:
256,192,137100,1,0,1:0:0:0:
256,192,137168,1,8,1:0:0:0:
256,192,137304,1,0,1:0:0:0:
256,192,137441,1,12,1:0:0:0:
256,192,137577,1,0,1:0:0:0:
256,192,137645,1,0,1:0:0:0:
256,192,137713,1,8,1:0:0:0:
256,192,137850,1,0,1:0:0:0:
256,192,137918,1,0,1:0:0:0:
256,192,137986,1,8,1:0:0:0:
256,192,138054,1,8,1:0:0:0:
256,192,138122,1,0,1:0:0:0:
256,192,138259,1,8,1:0:0:0:
256,192,138327,1,0,1:0:0:0:
256,192,138395,1,8,1:0:0:0:
256,192,138532,1,4,1:0:0:0:
256,192,138804,1,8,1:0:0:0:
256,192,138941,1,0,1:0:0:0:
256,192,139009,1,0,1:0:0:0:
256,192,139077,1,8,1:0:0:0:
256,192,139145,1,8,1:0:0:0:
256,192,139213,1,0,1:0:0:0:
256,192,139350,1,0,1:0:0:0:
256,192,139486,1,8,1:0:0:0:
256,192,139622,1,4,1:0:0:0:
256,192,139759,1,8,1:0:0:0:
256,192,139827,1,8,1:0:0:0:
256,192,139895,1,0,1:0:0:0:
256,192,140032,1,8,1:0:0:0:
256,192,140100,1,8,1:0:0:0:
256,192,140168,1,0,1:0:0:0:
256,192,140236,1,0,1:0:0:0:
256,192,140304,1,8,1:0:0:0:
256,192,140441,1,0,1:0:0:0:
256,192,140509,1,8,1:0:0:0:
256,192,140577,1,0,1:0:0:0:
256,192,140713,1,12,1:0:0:0:
256,192,140986,1,8,1:0:0:0:
256,192,141259,1,0,1:0:0:0:
256,192,141395,1,0,1:0:0:0:
256,192,141532,1,0,1:0:0:0:
256,192,141668,1,0,1:0:0:0:
256,192,141804,1,12,1:0:0:0:
256,192,141941,1,0,1:0:0:0:
256,192,142009,1,0,1:0:0:0:
256,192,142077,1,8,1:0:0:0:
256,192,142213,1,0,1:0:0:0:
256,192,142282,1,0,1:0:0:0:
256,192,142350,1,8,1:0:0:0:
256,192,142418,1,8,1:0:0:0:
256,192,142486,1,8,1:0:0:0:
256,192,142622,1,0,1:0:0:0:
256,192,142691,1,0,1:0:0:0:
256,192,142759,1,8,1:0:0:0:
256,192,142895,1,4,1:0:0:0:
256,192,143168,1,8,1:0:0:0:
256,192,143304,1,0,1:0:0:0:
256,192,143372,1,0,1:0:0:0:
256,192,143441,1,0,1:0:0:0:
256,192,143577,1,8,1:0:0:0:
256,192,143645,1,8,1:0:0:0:
256,192,143713,1,0,1:0:0:0:
256,192,143850,1,8,1:0:0:0:
256,192,143986,1,4,1:0:0:0:
256,192,144122,1,8,1:0:0:0:
256,192,144191,1,0,1:0:0:0:
256,192,144259,1,8,1:0:0:0:
256,192,144395,1,0,1:0:0:0:
256,192,144463,1,0,1:0:0:0:
256,192,144532,1,8,1:0:0:0:
256,192,144600,1,0,1:0:0:0:
256,192,144668,1,8,1:0:0:0:
256,192,144804,1,0,1:0:0:0:
256,192,144872,1,0,1:0:0:0:
256,192,144941,1,0,1:0:0:0:
256,192,145077,1,12,1:0:0:0:
256,192,145350,1,8,1:0:0:0:
256,192,145486,1,0,1:0:0:0:
256,192,145622,1,8,1:0:0:0:
256,192,145691,1,8,1:0:0:0:
256,192,145759,1,8,1:0:0:0:
256,192,145827,1,8,1:0:0:0:
256,192,145895,1,0,1:0:0:0:
256,192,146032,1,8,1:0:0:0:
256,192,146168,1,0,1:0:0:0:
256,192,147259,1,0,1:0:0:0:
256,192,147804,1,8,1:0:0:0:
256,192,148350,1,0,1:0:0:0:
256,192,149168,1,8,1:0:0:0:
256,192,149304,1,8,1:0:0:0:
256,192,149441,1,0,1:0:0:0:
256,192,149986,1,0,1:0:0:0:
256,192,150532,1,8,1:0:0:0:
