osu file format v14

[General]
AudioFilename: audio.mp3
AudioLeadIn: 0
PreviewTime: 4169
Countdown: 0
SampleSet: Soft
StackLeniency: 0.7
Mode: 2
LetterboxInBreaks: 0
EpilepsyWarning: 1
WidescreenStoryboard: 1

[Editor]
Bookmarks: 26169,43794,61112,82896,102532,120088,146066
DistanceSpacing: 1.3
BeatDivisor: 12
GridSize: 16
TimelineZoom: 3

[Metadata]
Title:Joushou no Tabi ~ The Ascending Journey
TitleUnicode:上昇の旅 ~ The Ascending Journey
Artist:VINXIS
ArtistUnicode:VINXIS
Creator:Shurelia
Version:Deif's Deluge
Source:Genshin Impact
Tags:skystar amamiya yuko captin1 rlc xlni lcfc lowcomboFC scubdomino uberfazz lit120 -Hakurei- Crissa Ascended -Ascended- -_ascended_- Cubby Yohanes -Atri- Firis Mistlud Anxient Ajisai- Ducky- -keitaro Video Game Instrumental breakcore hoyoverse 原神 shizuku- Kazato Asa shikibe Mayu Ayesha Altugle Enkrypton hokichi nitrous tofumang rizen munehime ningguang KuranteMelodii sinnoh jemzuu kukkai 原げん神しん electronic natsume shiki anime girl jungkyuyoung [keqing] faputa Cynplytholowazy deif
BeatmapID:3823530
BeatmapSetID:1857663

[Difficulty]
HPDrainRate:6
CircleSize:4.2
OverallDifficulty:9.6
ApproachRate:9.6
SliderMultiplier:2.2
SliderTickRate:0.5

[Events]
//Background and Video events
0,0,"stars.jpg",0,0
//Break Periods
//Storyboard Layer 0 (Background)
//Storyboard Layer 1 (Fail)
//Storyboard Layer 2 (Pass)
//Storyboard Layer 3 (Foreground)
Sprite,Foreground,Centre,"sb\text\difficulty\_00e.png",600,100 S,0,52942,,0.4 F,0,52942,53442,0,1 F,0,56215,56715,1,0
Sprite,Foreground,Centre,"sb\text\difficulty\_00f.png",600,100 S,0,56760,,0.4 F,0,56760,57260,0,1 F,0,59487,59987,1,0
Sprite,Foreground,TopLeft,"sb\p.png",-107,0 F,0,78283,,0 C,0,78283,,255,255,255 F,0,78533,,1 V,0,78533,,854,480 C,0,80715,,29,28,34 C,0,81260,,255,255,255 C,0,81805,,29,28,34 F,0,82931,,0
Sprite,Foreground,TopLeft,"sb\p.png",0,0 F,0,78299,,0,0.06 V,0,78299,,862.29,484.8 F,0,78299,78523,0.06,0.96 F,0,78523,78539,0.96,1 C,0,80699,80715,255,255,255,29,28,34 M,0,81259,81275,-106.9,0,205.6,0 C,0,81259,81275,29,28,34,255,255,255 M,0,81803,81819,205.6,0,-356.9,-187.5 C,0,81803,81819,255,255,255,29,28,34 F,0,82475,82491,1,0
Sprite,Foreground,Centre,"sb\text\loading\_004.png",0,0 F,0,78299,,0,0.06 S,0,78299,,0.38 F,0,78299,78523,0.06,0.96 F,0,78523,78539,0.96,1 C,0,80699,80715,134,153,168,211,188,144 M,0,81259,81275,320,377.5,632.5,377.5 C,0,81259,81275,211,188,144,134,153,168 M,0,81803,81819,632.5,377.5,70,190 C,0,81803,81819,134,153,168,211,188,144 F,0,82475,82491,1,0
Sprite,Foreground,Centre,"sb\text\loading\_005.png",0,0 F,0,78299,,0,0.06 S,0,78299,,0.28 F,0,78299,78523,0.06,0.96 F,0,78523,78539,0.96,1 C,0,80699,80715,134,153,168,211,188,144 M,0,81259,81275,320,396.3,632.5,396.3 C,0,81259,81275,211,188,144,134,153,168 M,0,81803,81819,632.5,396.3,70,208.8 C,0,81803,81819,134,153,168,211,188,144 F,0,82475,82491,1,0
Sprite,Foreground,Centre,"sb\bg_loading_logo_day.png",0,0 F,0,78299,,0,0.06 S,0,78299,,0.63 F,0,78299,78523,0.06,0.96 F,0,78523,78539,0.96,1 F,0,80699,80715,1,0 M,0,81275,,320,227.5,632.5,227.5 F,0,81275,,0,1 M,0,81803,81819,632.5,227.5,70,40 F,0,81803,81819,1,0
Sprite,Foreground,Centre,"sb\bg_loading_logo_night.png",0,0 F,0,80715,,0,1 S,0,80715,,0.63 M,0,81259,81275,320,227.5,632.5,227.5 F,0,81259,81275,1,0 M,0,81819,,632.5,227.5,70,40 F,0,81819,,0,1 F,0,82475,82491,1,0
Sprite,Foreground,CentreLeft,"sb\p.png",0,0 F,0,78539,,0,1 V,0,78539,,862.29,1.26 C,0,80699,80715,235,236,238,48,47,52 M,0,81259,81275,-106.9,427.5,205.6,427.5 C,0,81259,81275,48,47,52,235,236,238 M,0,81803,81819,205.6,427.5,-356.9,240 C,0,81803,81819,235,236,238,48,47,52 F,0,82475,82491,1,0
Sprite,Foreground,CentreLeft,"sb\p.png",0,0 F,0,78539,,0,1 V,0,78539,,151.5,25.25 C,0,80699,80715,235,236,238,48,47,52 M,0,81259,81275,245,427.5,557.5,427.5 C,0,81259,81275,48,47,52,235,236,238 M,0,81803,81819,557.5,427.5,-5,240 C,0,81803,81819,235,236,238,48,47,52 F,0,82475,82491,1,0
Sprite,Foreground,CentreLeft,"sb\p.png",0,0 F,0,78539,,0,1 V,0,79435,79451,26.15,25.25,52.94,25.25 V,0,80219,80235,52.94,25.25,71.21,25.25 C,0,80699,80715,73,82,101,237,229,217 V,0,80987,81003,71.21,25.25,100.09,25.25 M,0,81259,81275,245,427.5,557.5,427.5 C,0,81259,81275,237,229,217,73,82,101 V,0,81707,81723,100.09,25.25,130.05,25.25 M,0,81803,81819,557.5,427.5,-5,240 C,0,81803,81819,73,82,101,237,229,217 V,0,82347,82363,130.05,25.25,149.62,25.25 F,0,82475,82491,1,0
Sprite,Foreground,Centre,"sb\bg_loading_mask.png",0,0 F,0,78539,,0,1 S,0,78539,,0.41 C,0,80699,80715,255,255,255,29,28,34 M,0,81259,81275,320,427.5,632.5,427.5 C,0,81259,81275,29,28,34,255,255,255 M,0,81803,81819,632.5,427.5,70,240 C,0,81803,81819,255,255,255,29,28,34 F,0,82475,82491,1,0
Animation,Foreground,TopLeft,"sb\noise.jpg",-107,0,3,10,LoopForever F,0,78533,,0.1 S,0,78533,,0.625 P,0,78533,,A F,0,80715,,0.4 F,0,81976,82794,0.4,0.8
Animation,Foreground,TopLeft,"sb\noise.jpg",320,0,3,10,LoopForever F,0,78533,,0.1 S,0,78533,,0.625 P,0,78533,,A F,0,80715,,0.4 F,0,81976,82794,0.4,0.8
Animation,Foreground,TopLeft,"sb\noise.jpg",-107,240,3,10,LoopForever F,0,78533,,0.1 S,0,78533,,0.625 P,0,78533,,A F,0,80715,,0.4 F,0,81976,82794,0.4,0.8
Animation,Foreground,TopLeft,"sb\noise.jpg",320,240,3,10,LoopForever F,0,78533,,0.1 S,0,78533,,0.625 P,0,78533,,A F,0,80715,,0.4 F,0,81976,82794,0.4,0.8
Sprite,Foreground,Centre,"sb\light.png",320,241 S,0,82522,,0.25 P,0,82522,,A F,0,82522,82931,0.2,0.6 F,0,82931,,0.6,1 S,0,82931,,0.25,0.3 F,0,82931,83067,1,0
Sprite,Foreground,Centre,"sb\p.png",320,240 F,0,82522,,1 V,0,82522,,854,480 P,0,82522,,A V,0,82794,82931,854,480,854,1 V,0,82931,83067,854,1,3,1
//Storyboard Layer 4 (Overlay)
//Storyboard Sound Samples

[TimingPoints]
4344,697.674418604651,3,2,1,35,1,8
4344,-100,3,2,1,35,0,8
5041,-100,3,2,1,35,0,0
5253,727.272727272727,3,2,1,35,1,0
6480,-100,3,2,1,35,0,8
6525,750,3,2,1,35,1,8
6916,821.917808219178,3,2,1,35,1,0
7245,789.473684210526,3,2,1,35,1,0
7245,-100,3,2,1,35,0,0
8429,800,3,2,1,35,1,8
8429,-100,3,2,1,35,0,8
8629,750,3,2,1,35,1,8
8629,-100,3,2,1,35,0,8
9379,740.740740740741,3,2,1,35,1,0
9379,-100,3,2,1,35,0,0
10860,618.556701030928,3,2,1,35,1,8
10860,-100,3,2,1,35,0,8
11169,722.89156626506,3,2,1,35,1,8
11169,-100,3,2,1,35,0,8
11530,731.707317073171,3,2,1,35,1,0
11530,-100,3,2,1,35,0,0
12993,789.473684210526,3,2,1,35,1,8
12993,-100,3,2,1,35,0,8
13387,769.230769230769,3,2,1,35,1,8
13387,-100,3,2,1,35,0,8
13771,681.818181818182,3,2,1,35,1,0
13771,-100,3,2,1,35,0,0
15475,833.333333333333,3,2,1,35,1,8
15475,-100,3,2,1,35,0,8
15891,759.493670886076,3,2,1,35,1,0
15891,-100,3,2,1,35,0,0
16650,731.707317073171,3,2,1,35,1,8
16650,-100,3,2,1,35,0,8
17747,638.297872340426,3,2,1,35,1,8
17747,-100,3,2,1,35,0,8
18066,623.441396508728,3,2,1,35,1,0
18066,-100,3,2,1,35,0,0
21806,272.727272727273,4,2,1,35,1,0
21806,-100,4,2,1,35,0,0
24942,-100,4,2,1,25,0,0
26169,-100,4,2,1,45,0,0
34896,-100,4,2,1,55,0,0
43624,-100,4,2,1,65,0,0
61078,-100,4,2,1,75,0,0
78260,-80,4,2,1,75,0,0
78533,545.454545454546,4,2,1,45,1,0
78533,-50,4,2,1,45,0,0
78805,-50,4,2,1,40,0,0
83987,-100,4,2,1,35,0,0
85078,545.454545454546,4,2,1,35,1,0
85078,-62.5,4,2,1,35,0,0
99259,-62.5,4,2,1,45,0,0
100350,-62.5,4,2,1,25,0,0
101441,-50,4,2,1,25,0,0
101987,-50,4,2,1,35,0,0
102532,272.727272727273,4,2,1,75,1,0
102532,-100,4,2,1,75,0,0
117804,-100,4,2,1,55,0,0
119713,-100,4,2,1,75,0,0
119986,-100,4,2,1,85,0,1
146168,545.454545454546,4,2,1,35,1,0
146168,-50,4,2,1,35,0,0
150532,-50,4,2,1,20,0,0

[Colours]
Combo1 : 240,140,140
Combo2 : 200,180,220
Combo3 : 240,200,155
Combo4 : 150,185,220

[HitObjects]
256,192,21806,12,0,24942,2:0:0:0:
400,336,26169,6,0,P|468:192|400:48,1,330,2|2,3:2|2:0,2:0:0:0:
144,144,26987,1,2,2:0:0:0:
368,144,27260,1,2,2:0:0:0:
112,336,27533,2,0,P|44:192|112:48,1,330,2|2,2:0|2:0,2:0:0:0:
400,352,28351,6,0,P|400:192|304:48,2,330,2|2|2,2:0|2:0|2:0,2:0:0:0:
176,144,29442,1,2,2:0:0:0:
400,336,29715,2,0,P|468:192|400:48,1,330,2|2,2:0|2:0,2:0:0:0:
112,352,30533,6,0,P|112:192|112:16,1,330,2|2,2:0|2:0,2:0:0:0:
368,144,31351,1,2,2:0:0:0:
144,144,31624,1,2,2:0:0:0:
400,352,31896,2,0,P|400:192|400:16,1,330,2|2,2:0|2:0,2:0:0:0:
112,352,32715,6,0,P|112:192|112:16,2,330,2|2|2,2:0|2:0|2:0,2:0:0:0:
336,144,33806,2,0,L|336:32,1,110,2|2,2:0|2:0,2:0:0:0:
256,16,34078,1,2,2:0:0:0:
176,32,34215,1,2,2:0:0:0:
256,48,34351,1,2,2:0:0:0:
352,192,34487,1,2,2:0:0:0:
256,192,34624,1,2,2:0:0:0:
368,192,34760,1,2,2:0:0:0:
160,320,34896,6,0,L|144:208,1,110,2|0,3:2|2:0,2:0:0:0:
288,224,35169,1,8,2:0:0:0:
176,224,35306,2,0,L|160:112,1,110,2|0,2:0|3:2,2:0:0:0:
304,128,35578,1,0,3:2:0:0:
160,128,35715,2,0,L|144:16,1,110,10|0,2:0|2:0,2:0:0:0:
288,320,35987,6,0,L|304:208,1,110,2|0,3:2|2:0,2:0:0:0:
160,224,36260,1,10,2:0:0:0:
304,224,36396,1,0,3:2:0:0:
336,176,36465,1,0,2:0:0:0:
336,112,36533,1,2,3:2:0:0:
304,48,36601,1,0,3:2:0:0:
240,48,36669,1,2,3:2:0:0:
384,48,36806,1,8,2:0:0:0:
240,48,36942,1,8,2:0:0:0:
384,320,37078,6,0,L|400:208,1,110,2|0,3:2|2:0,2:0:0:0:
256,192,37351,1,8,2:0:0:0:
384,224,37487,2,0,L|400:112,1,110,2|0,2:0|3:2,2:0:0:0:
256,96,37760,1,0,3:2:0:0:
400,80,37896,1,10,2:0:0:0:
256,64,38033,1,0,2:0:0:0:
112,320,38169,6,0,L|96:208,1,110,2|0,3:2|2:0,2:0:0:0:
240,224,38442,1,10,2:0:0:0:
128,224,38578,2,0,L|112:112,1,110,8|2,2:0|3:2,2:0:0:0:
144,96,38783,1,0,3:2:0:0:
208,80,38851,1,2,3:2:0:0:
64,80,38987,1,8,2:0:0:0:
208,80,39124,1,8,2:0:0:0:
352,320,39260,6,0,L|368:208,1,110,2|0,3:2|2:0,2:0:0:0:
224,224,39533,1,8,2:0:0:0:
336,224,39669,2,0,L|352:112,1,110,2|0,2:0|3:2,2:0:0:0:
208,128,39942,1,0,3:2:0:0:
352,128,40078,2,0,L|368:16,1,110,10|0,2:0|2:0,2:0:0:0:
224,320,40351,6,0,L|208:208,1,110,2|0,3:2|2:0,2:0:0:0:
352,224,40624,1,10,2:0:0:0:
208,224,40760,2,0,L|208:160,1,55,8|0,2:0|2:0,2:0:0:0:
272,224,40896,2,0,L|272:160,1,55,2|0,3:2|3:2,2:0:0:0:
208,224,41033,1,2,3:2:0:0:
352,112,41169,1,8,2:0:0:0:
208,112,41306,1,8,2:0:0:0:
352,192,41442,6,0,L|336:128,1,55,2|0,3:2|2:0,2:0:0:0:
272,112,41578,1,0,2:0:0:0:
384,112,41715,1,10,2:0:0:0:
240,192,41851,2,0,L|256:256,1,55,2|0,2:0|2:0,2:0:0:0:
320,272,41987,1,0,2:0:0:0:
208,272,42124,1,2,3:2:0:0:
352,192,42260,2,0,L|336:128,1,55,10|0,2:0|2:0,2:0:0:0:
272,112,42396,1,0,2:0:0:0:
384,112,42533,5,2,3:2:0:0:
240,64,42669,1,2,3:2:0:0:
352,64,42806,1,10,2:0:0:0:
208,112,42942,1,2,2:0:0:0:
416,192,43078,2,0,L|384:192,1,27.5,2|0,3:2|2:0,2:0:0:0:
304,192,43215,2,0,L|272:192,1,27.5,2|0,3:2|2:0,2:0:0:0:
440,272,43351,2,0,L|408:272,1,27.5,10|0,2:0|2:0,2:0:0:0:
328,272,43487,2,0,L|296:272,1,27.5,2|0,2:0|2:0,2:0:0:0:
464,192,43624,6,0,L|368:137,1,110,6|0,3:2|2:0,2:0:0:0:
160,192,43896,1,8,2:0:0:0:
240,192,44169,2,0,L|336:137,1,110,0|0,3:2|3:2,2:0:0:0:
128,96,44442,1,8,2:0:0:0:
272,96,44578,1,0,3:2:0:0:
64,192,44715,6,0,L|48:80,1,110,2|0,3:2|2:0,2:0:0:0:
160,192,44987,2,0,L|144:80,1,110,8|0,2:0|2:0,2:0:0:0:
352,192,45260,2,0,L|256:137,1,110,2|0,3:2|3:2,2:0:0:0:
464,96,45533,1,8,2:0:0:0:
320,96,45669,1,8,2:0:0:0:
112,192,45806,6,0,L|96:80,1,110,2|0,3:2|2:0,2:0:0:0:
304,80,46078,1,8,2:0:0:0:
224,192,46351,2,0,L|128:137,1,110,0|0,3:2|3:2,2:0:0:0:
336,96,46624,1,10,2:0:0:0:
128,96,46760,1,2,3:2:0:0:
336,192,46896,6,0,L|352:80,1,110,2|0,3:2|2:0,2:0:0:0:
240,192,47169,2,0,L|256:80,1,110,8|0,2:0|2:0,2:0:0:0:
464,192,47442,2,0,L|464:128,1,55,2|0,3:2|3:2,2:0:0:0:
400,112,47578,1,0,3:2:0:0:
192,80,47715,1,8,2:0:0:0:
336,80,47851,1,8,2:0:0:0:
128,256,47987,6,0,L|112:144,1,110,2|0,3:2|2:0,2:0:0:0:
320,192,48260,1,8,2:0:0:0:
240,192,48533,2,0,L|144:137,1,110,0|0,3:2|3:2,2:0:0:0:
352,96,48806,1,10,2:0:0:0:
208,96,48942,1,0,3:2:0:0:
416,256,49078,6,0,L|432:144,1,110,2|0,3:2|2:0,2:0:0:0:
224,192,49351,2,0,L|128:137,1,110,10|0,2:0|2:0,2:0:0:0:
336,192,49624,2,0,L|432:137,1,110,2|2,3:2|3:2,2:0:0:0:
224,96,49896,1,8,2:0:0:0:
368,96,50033,1,8,2:0:0:0:
160,192,50169,6,0,L|176:128,1,55,2|0,3:2|2:0,2:0:0:0:
240,112,50306,1,0,2:0:0:0:
32,112,50442,1,10,2:0:0:0:
176,192,50578,2,0,L|160:256,1,55,2|0,2:0|2:0,2:0:0:0:
96,272,50715,1,0,2:0:0:0:
240,272,50851,1,2,3:2:0:0:
32,192,50987,2,0,L|48:128,1,55,10|0,2:0|2:0,2:0:0:0:
192,160,51124,2,0,L|176:96,1,55,2|0,2:0|2:0,2:0:0:0:
32,192,51260,6,0,L|144:192,1,110,0|2,3:2|2:0,2:0:0:0:
160,192,51431,1,0,2:0:0:0:
368,192,51533,2,0,L|352:256,1,55,10|0,2:0|2:0,2:0:0:0:
288,272,51669,1,2,2:0:0:0:
80,272,51806,1,2,3:2:0:0:
288,272,51942,2,0,L|272:208,1,55,2|0,3:2|2:0,2:0:0:0:
128,192,52078,1,10,3:2:0:0:
336,192,52215,1,2,3:2:0:0:
288,192,52249,1,0,2:0:0:0:
48,192,52351,6,0,L|144:137,1,110,6|0,3:2|2:0,2:0:0:0:
352,192,52624,1,8,2:0:0:0:
272,192,52896,2,0,L|176:137,1,110,0|0,3:2|3:2,2:0:0:0:
384,96,53169,1,8,2:0:0:0:
240,96,53306,1,0,3:2:0:0:
448,192,53442,6,0,L|464:80,1,110,2|0,3:2|2:0,2:0:0:0:
352,192,53715,2,0,L|368:80,1,110,8|0,2:0|2:0,2:0:0:0:
160,192,53987,2,0,L|256:137,1,110,2|0,3:2|3:2,2:0:0:0:
48,96,54260,1,8,2:0:0:0:
192,96,54396,1,0,2:0:0:0:
400,192,54533,6,0,L|384:80,1,110,2|0,3:2|2:0,2:0:0:0:
176,80,54806,1,8,2:0:0:0:
256,192,55078,2,0,L|352:137,1,110,0|0,3:2|3:2,2:0:0:0:
144,96,55351,1,10,2:0:0:0:
352,96,55487,1,2,3:2:0:0:
144,192,55624,6,0,L|160:80,1,110,2|0,3:2|2:0,2:0:0:0:
272,192,55896,2,0,L|256:80,1,110,8|0,2:0|2:0,2:0:0:0:
48,192,56169,2,0,L|32:128,2,55,2|0|0,3:2|3:2|3:2,2:0:0:0:
256,80,56442,1,8,2:0:0:0:
112,80,56578,1,8,2:0:0:0:
320,256,56715,6,0,L|304:144,1,110,2|0,3:2|2:0,2:0:0:0:
96,192,56987,2,0,L|80:80,1,110,8|0,2:0|2:0,2:0:0:0:
288,192,57260,2,0,L|384:137,1,110,2|0,3:2|3:2,2:0:0:0:
176,96,57533,1,10,2:0:0:0:
320,96,57669,1,0,3:2:0:0:
112,256,57806,6,0,L|96:144,1,110,2|0,3:2|2:0,2:0:0:0:
304,192,58078,2,0,L|400:137,1,110,10|0,2:0|2:0,2:0:0:0:
192,192,58351,2,0,L|96:137,1,110,2|2,3:2|3:2,2:0:0:0:
304,96,58624,1,8,2:0:0:0:
160,96,58760,1,0,2:0:0:0:
368,192,58896,6,0,L|352:128,1,55,2|0,3:2|2:0,2:0:0:0:
288,112,59033,1,0,2:0:0:0:
496,112,59169,1,10,2:0:0:0:
352,192,59306,2,0,L|368:256,1,55,2|0,2:0|2:0,2:0:0:0:
432,272,59442,1,0,2:0:0:0:
288,272,59578,1,2,3:2:0:0:
496,192,59715,2,0,L|480:128,1,55,10|0,2:0|2:0,2:0:0:0:
336,192,59851,2,0,L|352:128,1,55,2|0,2:0|2:0,2:0:0:0:
496,192,59987,5,0,3:2:0:0:
352,192,60124,2,0,L|336:256,1,55,2|0,3:2|3:2,2:0:0:0:
480,240,60260,1,10,2:0:0:0:
272,240,60396,2,0,L|256:304,1,55,2|0,3:2|2:0,2:0:0:0:
400,96,60533,1,10,2:0:0:0:
440,96,60567,1,0,2:0:0:0:
200,96,60669,1,10,2:0:0:0:
160,96,60703,1,0,2:0:0:0:
400,96,60806,2,0,L|416:128,2,27.5,10|0|0,2:0|2:0|2:0,2:0:0:0:
256,96,60942,2,0,L|240:128,2,27.5,10|0|0,2:0|2:0|2:0,2:0:0:0:
448,192,61078,6,0,L|448:224,1,27.5,6|2,3:2|2:0,2:0:0:0:
416,256,61146,1,2,2:0:0:0:
264,256,61215,1,6,3:2:0:0:
224,220,61249,2,0,L|224:192,1,27.5,0|0,2:0|2:0,2:0:0:0:
368,192,61351,2,0,L|400:160,2,27.5,0|0|0,2:0|2:0|2:0,2:0:0:0:
224,192,61487,5,6,3:2:0:0:
184,156,61521,2,0,L|184:128,1,27.5,2|2,2:0|2:0,2:0:0:0:
328,128,61624,2,0,L|328:160,1,27.5,6|0,3:2|2:0,2:0:0:0:
288,192,61692,1,0,2:0:0:0:
144,192,61760,2,0,L|112:160,2,27.5,10|0|0,2:0|2:0|2:0,2:0:0:0:
288,192,61896,6,0,L|288:224,1,27.5,6|0,3:2|2:0,2:0:0:0:
248,256,61965,1,0,2:0:0:0:
104,256,62033,1,10,2:0:0:0:
64,220,62067,2,0,L|64:192,1,27.5,0|0,2:0|2:0,2:0:0:0:
240,80,62169,6,0,L|128:80,2,110,4|8|8,3:2|2:0|2:0,2:0:0:0:
96,80,62578,2,0,L|96:144,1,55,0|0,3:2|3:2,2:0:0:0:
160,192,62715,1,0,3:2:0:0:
272,192,62851,1,8,2:0:0:0:
128,192,62987,1,8,2:3:0:0:
272,192,63124,1,0,3:2:0:0:
64,192,63260,6,0,L|64:224,1,27.5,6|2,3:2|2:0,2:0:0:0:
96,256,63328,1,2,2:0:0:0:
248,256,63396,1,6,3:2:0:0:
288,220,63431,2,0,L|288:192,1,27.5,0|0,2:0|2:0,2:0:0:0:
144,192,63533,2,0,L|112:160,2,27.5,0|0|0,2:0|2:0|2:0,2:0:0:0:
288,192,63669,5,6,3:2:0:0:
328,156,63703,2,0,L|328:128,1,27.5,2|2,2:0|2:0,2:0:0:0:
184,128,63806,2,0,L|184:160,1,27.5,6|0,3:2|2:0,2:0:0:0:
224,192,63874,1,0,2:0:0:0:
368,192,63942,2,0,L|400:160,2,27.5,10|0|0,2:0|2:0|2:0,2:0:0:0:
224,192,64078,6,0,L|224:224,1,27.5,6|0,3:2|2:0,2:0:0:0:
264,256,64146,1,0,2:0:0:0:
408,256,64215,1,10,2:0:0:0:
448,220,64249,2,0,L|448:192,1,27.5,0|0,2:0|2:0,2:0:0:0:
272,80,64351,6,0,P|192:96|128:160,1,165,0|0,3:2|2:0,2:0:0:0:
272,80,64624,2,0,P|352:96|416:160,1,165,0|0,3:2|2:0,2:0:0:0:
272,192,64896,1,4,3:2:0:0:
480,192,65033,1,4,3:2:0:0:
272,192,65169,1,4,3:2:0:0:
480,192,65306,1,4,3:2:0:0:
272,256,65442,5,6,3:2:0:0:
232,220,65476,2,0,L|232:192,1,27.5,2|2,2:0|2:0,2:0:0:0:
384,192,65578,2,0,L|384:224,1,27.5,6|0,3:2|2:0,2:0:0:0:
352,256,65646,1,0,2:0:0:0:
208,256,65715,2,0,L|200:224,2,27.5,10|0|2,2:0|2:0|2:0,2:0:0:0:
352,128,65851,5,6,3:2:0:0:
392,164,65885,2,0,L|392:192,1,27.5,0|0,2:0|2:0,2:0:0:0:
240,192,65987,2,0,L|240:160,1,27.5,6|0,3:2|2:0,2:0:0:0:
272,128,66056,1,0,2:0:0:0:
416,128,66124,2,0,L|424:160,2,27.5,10|0|0,2:0|2:0|2:0,2:0:0:0:
272,256,66260,5,6,3:2:0:0:
232,220,66294,2,0,L|232:192,1,27.5,0|0,2:0|2:0,2:0:0:0:
384,192,66396,2,0,L|384:224,1,27.5,10|0,2:0|2:0,2:0:0:0:
352,256,66465,1,0,2:0:0:0:
176,80,66533,6,0,L|288:80,1,110,4|8,3:2|2:0,2:0:0:0:
176,192,66806,2,0,L|160:256,1,55,8|0,2:0|2:0,2:0:0:0:
240,192,66942,2,0,L|228:256,1,55,8|0,2:0|2:0,2:0:0:0:
304,192,67078,2,0,L|296:256,1,55,8|0,2:0|2:0,2:0:0:0:
368,192,67215,2,0,L|364:256,1,55,8|0,2:0|2:0,2:0:0:0:
432,192,67351,2,0,L|432:256,1,55,8|0,2:0|2:0,2:0:0:0:
288,144,67487,2,0,L|224:144,1,55,4|0,3:2|2:0,2:0:0:0:
416,256,67624,5,6,3:2:0:0:
456,220,67658,2,0,L|456:192,1,27.5,0|0,2:0|2:0,2:0:0:0:
304,192,67760,2,0,L|304:224,1,27.5,6|0,3:2|2:0,2:0:0:0:
336,256,67828,1,2,2:0:0:0:
480,144,67896,1,10,2:0:0:0:
448,144,67931,1,2,2:0:0:0:
416,144,67965,1,2,2:0:0:0:
272,128,68033,5,6,3:2:0:0:
232,164,68067,2,0,L|232:192,1,27.5,0|0,2:0|2:0,2:0:0:0:
384,192,68169,2,0,L|384:160,1,27.5,0|0,2:0|2:0,2:0:0:0:
352,128,68237,1,0,2:0:0:0:
208,240,68306,1,10,2:0:0:0:
240,240,68340,1,2,2:0:0:0:
272,240,68374,1,2,2:0:0:0:
416,240,68442,6,0,L|416:208,1,27.5,6|0,3:2|2:0,2:0:0:0:
376,176,68510,1,0,2:0:0:0:
232,176,68578,1,10,2:0:0:0:
192,212,68612,2,0,L|192:240,1,27.5,0|0,2:0|2:0,2:0:0:0:
336,304,68715,5,4,3:2:0:0:
128,304,68851,2,0,L|144:240,1,55,10|0,2:0|2:0,2:0:0:0:
288,304,68987,2,0,L|272:240,1,55,6|0,3:2|2:0,2:0:0:0:
128,304,69124,1,4,3:2:0:0:
336,192,69260,2,0,L|400:192,3,55,10|8|8|8,2:0|2:0|2:0|2:0,2:0:0:0:
248,112,69533,2,0,L|192:112,1,55,10|8,2:0|2:0,2:0:0:0:
336,192,69669,2,0,L|272:192,1,55,10|8,2:0|2:0,2:0:0:0:
64,192,69806,6,0,L|64:224,1,27.5,6|2,3:2|2:0,2:0:0:0:
96,256,69874,1,2,2:0:0:0:
248,256,69942,1,6,3:2:0:0:
288,220,69976,2,0,L|288:192,1,27.5,0|0,2:0|2:0,2:0:0:0:
144,192,70078,2,0,L|112:160,2,27.5,0|0|0,2:0|2:0|2:0,2:0:0:0:
288,192,70215,5,6,3:2:0:0:
328,156,70249,2,0,L|328:128,1,27.5,2|2,2:0|2:0,2:0:0:0:
184,128,70351,2,0,L|184:160,1,27.5,6|0,3:2|2:0,2:0:0:0:
224,192,70419,1,0,2:0:0:0:
368,192,70487,2,0,L|400:160,2,27.5,10|0|0,2:0|2:0|2:0,2:0:0:0:
224,192,70624,6,0,L|224:224,1,27.5,6|0,3:2|2:0,2:0:0:0:
264,256,70692,1,0,2:0:0:0:
408,256,70760,1,10,2:0:0:0:
448,220,70794,2,0,L|448:192,1,27.5,0|0,2:0|2:0,2:0:0:0:
272,80,70896,6,0,L|384:80,2,110,4|8|8,3:2|2:0|2:0,2:0:0:0:
416,80,71306,2,0,L|368:112,2,55,4|0|0,3:2|3:2|3:2,2:0:0:0:
304,192,71578,1,8,2:0:0:0:
448,192,71715,1,0,3:2:0:0:
240,192,71851,1,8,2:0:0:0:
448,192,71987,6,0,L|448:224,1,27.5,6|2,3:2|2:0,2:0:0:0:
416,256,72056,1,2,2:0:0:0:
264,256,72124,1,6,3:2:0:0:
224,220,72158,2,0,L|224:192,1,27.5,0|0,2:0|2:0,2:0:0:0:
368,192,72260,2,0,L|400:160,2,27.5,0|0|0,2:0|2:0|2:0,2:0:0:0:
224,192,72396,5,6,3:2:0:0:
184,156,72431,2,0,L|184:128,1,27.5,2|2,2:0|2:0,2:0:0:0:
328,128,72533,2,0,L|328:160,1,27.5,6|0,3:2|2:0,2:0:0:0:
288,192,72601,1,0,2:0:0:0:
144,192,72669,2,0,L|112:160,2,27.5,10|0|0,2:0|2:0|2:0,2:0:0:0:
288,192,72806,6,0,L|288:224,1,27.5,6|0,3:2|2:0,2:0:0:0:
248,256,72874,1,0,2:0:0:0:
104,256,72942,1,10,2:0:0:0:
64,220,72976,2,0,L|64:192,1,27.5,0|0,2:0|2:0,2:0:0:0:
240,80,73078,6,0,L|272:80,1,27.5,4|0,3:2|2:0,2:0:0:0:
64,112,73215,2,0,L|33:120,1,27.5,4|0,3:2|2:0,2:0:0:0:
240,192,73351,2,0,L|267:208,1,27.5,4|0,3:2|2:0,2:0:0:0:
464,192,73487,2,0,L|441:215,1,27.5,4|0,3:2|2:0,2:0:0:0:
240,304,73624,2,0,L|256:331,1,27.5,4|0,3:2|2:0,2:0:0:0:
448,304,73760,2,0,L|440:335,1,27.5,4|0,3:2|2:0,2:0:0:0:
240,96,73896,2,0,L|240:128,1,27.5,4|0,3:2|2:0,2:0:0:0:
496,96,74033,1,8,2:0:0:0:
416,96,74101,1,0,2:0:0:0:
240,256,74169,5,6,3:2:0:0:
200,220,74203,2,0,L|200:192,1,27.5,2|2,2:0|2:0,2:0:0:0:
352,192,74306,2,0,L|352:224,1,27.5,6|0,3:2|2:0,2:0:0:0:
320,256,74374,1,0,2:0:0:0:
176,256,74442,2,0,L|168:224,2,27.5,10|0|2,2:0|2:0|2:0,2:0:0:0:
320,128,74578,5,6,3:2:0:0:
360,164,74612,2,0,L|360:192,1,27.5,2|2,2:0|2:0,2:0:0:0:
208,192,74715,2,0,L|208:160,1,27.5,6|0,3:2|2:0,2:0:0:0:
240,128,74783,1,0,2:0:0:0:
384,128,74851,2,0,L|392:160,2,27.5,10|0|0,2:0|2:0|2:0,2:0:0:0:
240,256,74987,5,6,3:2:0:0:
200,220,75021,2,0,L|200:192,1,27.5,0|0,2:0|2:0,2:0:0:0:
352,192,75124,2,0,L|352:224,1,27.5,10|0,2:0|2:0,2:0:0:0:
320,256,75192,1,0,2:0:0:0:
144,80,75260,5,4,3:2:0:0:
256,80,75396,2,0,P|336:144|352:256,1,220,8|0,2:0|3:2,2:0:0:0:
144,256,75806,6,0,L|143:240,2,13.75,8|0|0,2:0|2:0|2:0,2:0:0:0:
352,256,75942,2,0,L|354:240,2,13.75,8|0|0,2:0|2:0|2:0,2:0:0:0:
144,256,76078,2,0,L|143:240,2,13.75,8|0|0,2:0|2:0|2:0,2:0:0:0:
352,256,76215,2,0,L|354:240,2,13.75,8|0|0,2:0|2:0|2:0,2:0:0:0:
96,256,76351,5,6,3:2:0:0:
56,220,76385,2,0,L|56:192,1,27.5,0|0,2:0|2:0,2:0:0:0:
208,192,76487,2,0,L|208:224,1,27.5,6|0,3:2|2:0,2:0:0:0:
176,256,76556,1,2,2:0:0:0:
32,144,76624,1,10,2:0:0:0:
64,144,76658,1,2,2:0:0:0:
96,144,76692,1,2,2:0:0:0:
240,128,76760,5,6,3:2:0:0:
280,164,76794,2,0,L|280:192,1,27.5,0|0,2:0|2:0,2:0:0:0:
128,192,76896,2,0,L|128:160,1,27.5,0|0,2:0|2:0,2:0:0:0:
160,128,76965,1,0,2:0:0:0:
304,240,77033,1,10,2:0:0:0:
272,240,77067,1,2,2:0:0:0:
240,240,77101,1,2,2:0:0:0:
96,240,77169,6,0,L|96:208,1,27.5,6|0,3:2|2:0,2:0:0:0:
136,176,77237,1,0,2:0:0:0:
280,176,77306,1,10,2:0:0:0:
320,212,77340,2,0,L|320:240,1,27.5,0|0,2:0|2:0,2:0:0:0:
176,304,77442,5,4,3:2:0:0:
384,304,77578,2,0,L|368:240,1,55,10|0,2:0|2:0,2:0:0:0:
224,304,77715,2,0,L|240:240,1,55,6|0,3:2|2:0,2:0:0:0:
384,304,77851,1,8,2:0:0:0:
176,192,77987,2,0,L|112:192,1,55,10|8,2:0|2:0,2:0:0:0:
265,192,78124,2,0,L|320:192,1,55,8|8,2:0|2:0,2:0:0:0:
168,128,78260,2,0,L|96:128,1,68.75,10|8,2:0|2:0,2:0:0:0:
272,128,78396,2,0,L|352:128,1,68.75,8|8,2:0|2:0,2:0:0:0:
160,64,78533,6,0,L|144:176,1,110,0|0,2:0|2:0,2:0:0:0:
256,64,78805,2,0,L|240:176,1,110,0|0,2:0|2:0,2:0:0:0:
344,320,79078,2,0,L|360:208,1,110,0|0,2:0|2:0,2:0:0:0:
256,320,79351,2,0,L|272:208,1,110,0|0,2:0|2:0,2:0:0:0:
176,64,79623,2,0,L|160:176,1,110,0|0,2:0|2:0,2:0:0:0:
256,64,79896,2,0,L|240:176,1,110,0|0,2:0|2:0,2:0:0:0:
328,320,80169,2,0,L|344:208,1,110,0|0,2:0|2:0,2:0:0:0:
256,320,80442,5,0,2:0:0:0:
256,192,80714,12,0,82351,2:0:0:0:
256,192,82487,5,0,2:0:0:0:
256,192,82623,12,0,82658,2:0:0:0:
256,192,82714,12,0,82726,2:0:0:0:
256,192,82805,12,0,82828,2:0:0:0:
256,192,82896,12,0,82930,2:0:0:0:
256,192,82987,12,0,82998,2:0:0:0:
256,192,83078,12,0,83101,2:0:0:0:
256,192,83987,6,0,L|464:120,1,220,2|2,2:0|2:0,2:0:0:0:
112,360,85078,6,0,B|16:192|96:24|96:24|160:192,1,528,2|2,2:0|2:0,2:0:0:0:
336,368,86168,2,0,B|160:464|116:192|116:192|160:-80|336:16,1,704,2|2,2:0|2:0,2:0:0:0:
72,32,87805,2,0,L|248:32,1,176,2|2,2:0|2:0,2:0:0:0:
64,368,88350,6,0,B|32:192|240:96,2,352,2|2|2,2:0|2:0|2:0,2:0:0:0:
336,192,90259,1,2,2:0:0:0:
160,368,90532,2,0,B|336:464|380:192|380:192|336:-80|160:16,1,704,2|2,2:0|2:0,2:0:0:0:
256,320,92714,6,0,P|216:160|48:120,1,352,2|2,2:0|2:0,2:0:0:0:
400,360,93805,6,0,B|496:192|416:24|416:24|352:192,1,528,2|2,2:0|2:0,2:0:0:0:
176,368,94896,2,0,B|352:464|396:192|396:192|352:-80|176:16,1,704,2|2,2:0|2:0,2:0:0:0:
440,32,96532,2,0,L|264:32,1,176,2|2,2:0|2:0,2:0:0:0:
448,368,97078,6,0,B|288:352|272:96,2,352,2|2|2,2:0|2:0|2:0,2:0:0:0:
176,192,98987,1,0,2:0:0:0:
352,368,99259,2,0,B|176:464|132:192|132:192|176:-80|352:16,1,704,2|2,2:0|2:0,2:0:0:0:
256,304,101441,6,0,P|224:224|256:96,1,220,2|0,2:0|2:0,2:0:0:0:
280,255,101782,1,0,2:0:0:0:
289,201,101850,1,0,2:0:0:0:
281,146,101918,1,0,2:0:0:0:
257,97,101987,1,2,3:2:0:0:
200,64,102055,1,2,3:2:0:0:
256,32,102123,1,2,3:2:0:0:
320,64,102191,1,2,3:2:0:0:
256,96,102259,1,2,3:2:0:0:
184,144,102328,1,2,3:2:0:0:
256,192,102396,1,2,3:2:0:0:
336,144,102464,1,0,3:2:0:0:
160,304,102532,6,0,L|63:248,2,110,6|0|8,3:2|2:0|2:0,2:0:0:0:
368,272,102941,2,0,L|271:216,2,110,2|0|0,2:0|3:2|3:2,2:0:0:0:
160,192,103350,2,0,L|257:136,1,110,10|0,2:0|3:2,2:0:0:0:
112,128,103622,1,0,3:2:0:0:
320,192,103759,1,2,2:0:0:0:
224,144,103895,1,8,2:0:0:0:
128,112,104032,1,0,3:2:0:0:
336,192,104168,2,0,L|433:136,1,110,2|0,3:2|3:2,2:0:0:0:
224,112,104441,1,10,2:0:0:0:
368,112,104577,1,0,2:0:0:0:
160,304,104713,6,0,L|144:192,1,110,2|0,3:2|2:0,2:0:0:0:
288,160,104986,1,8,2:0:0:0:
80,272,105122,2,0,L|177:216,2,110,2|0|0,2:0|3:2|3:2,2:0:0:0:
288,192,105532,2,0,L|191:136,1,110,10|0,2:0|3:2,2:0:0:0:
336,128,105804,1,0,3:2:0:0:
128,192,105941,1,2,2:0:0:0:
224,144,106077,1,8,2:0:0:0:
320,112,106213,1,0,2:0:0:0:
112,192,106350,1,2,3:2:0:0:
152,152,106418,1,0,2:0:0:0:
192,112,106486,1,0,3:2:0:0:
400,112,106622,1,10,2:0:0:0:
192,112,106759,1,0,2:0:0:0:
400,304,106895,6,0,L|497:248,2,110,2|0|8,3:2|2:0|2:0,2:0:0:0:
192,272,107304,2,0,L|289:216,2,110,2|0|0,2:0|3:2|3:2,2:0:0:0:
400,192,107713,2,0,L|303:136,1,110,10|0,2:0|3:2,2:0:0:0:
448,128,107986,1,0,3:2:0:0:
240,192,108122,2,0,L|183:95,2,110,2|8|0,2:0|2:0|3:2,2:0:0:0:
448,192,108532,2,0,L|351:136,1,110,2|0,3:2|3:2,2:0:0:0:
144,112,108804,1,10,2:0:0:0:
288,112,108941,1,0,2:0:0:0:
80,192,109077,6,0,L|96:128,1,55,2|0,3:2|2:0,2:0:0:0:
160,112,109213,1,0,2:0:0:0:
16,112,109350,1,10,2:0:0:0:
224,192,109486,2,0,L|208:256,1,55,2|0,2:0|2:0,2:0:0:0:
144,272,109622,1,0,3:2:0:0:
288,272,109759,1,2,3:2:0:0:
80,192,109895,2,0,L|96:128,1,55,10|0,2:0|2:0,2:0:0:0:
240,192,110032,2,0,L|256:128,1,55,2|0,2:0|2:0,2:0:0:0:
112,96,110168,5,0,2:0:0:0:
240,96,110304,1,2,2:0:0:0:
272,96,110338,1,0,2:0:0:0:
480,96,110441,1,8,2:0:0:0:
352,96,110577,1,2,2:0:0:0:
320,96,110611,1,0,2:0:0:0:
112,192,110713,2,0,L|120:224,1,27.5,2|0,3:2|2:0,2:0:0:0:
224,192,110850,1,2,3:2:0:0:
16,304,110986,2,0,L|24:336,1,27.5,2|0,3:2|2:0,2:0:0:0:
128,304,111122,1,2,3:2:0:0:
352,304,111259,6,0,L|449:248,2,110,6|0|8,3:2|2:0|2:0,2:0:0:0:
144,272,111668,2,0,L|241:216,2,110,2|0|0,2:0|3:2|3:2,2:0:0:0:
352,192,112077,2,0,L|255:136,1,110,10|0,2:0|2:0,2:0:0:0:
400,128,112350,1,0,3:2:0:0:
192,192,112486,1,0,2:0:0:0:
288,144,112622,1,8,2:0:0:0:
384,112,112759,1,0,2:0:0:0:
176,192,112895,2,0,L|79:136,1,110,2|0,3:2|3:2,2:0:0:0:
288,112,113168,1,10,2:0:0:0:
144,112,113304,1,0,2:0:0:0:
352,304,113441,6,0,L|368:192,1,110,2|0,3:2|2:0,2:0:0:0:
224,160,113713,1,8,2:0:0:0:
432,272,113850,2,0,L|335:216,2,110,0|0|0,2:0|3:2|3:2,2:0:0:0:
224,192,114259,2,0,L|321:136,1,110,10|0,2:0|3:2,2:0:0:0:
176,128,114532,1,0,3:2:0:0:
384,192,114668,1,0,2:0:0:0:
288,144,114804,1,8,2:0:0:0:
192,112,114941,1,0,2:0:0:0:
400,192,115077,1,2,3:2:0:0:
360,152,115145,1,0,3:2:0:0:
320,112,115213,1,0,3:2:0:0:
112,112,115350,1,10,2:0:0:0:
320,112,115486,1,0,2:0:0:0:
112,304,115622,6,0,L|15:248,2,110,2|0|8,3:2|2:0|2:0,2:0:0:0:
320,272,116032,2,0,L|223:216,2,110,2|0|0,2:0|3:2|3:2,2:0:0:0:
112,192,116441,2,0,L|209:136,1,110,10|0,2:0|3:2,2:0:0:0:
64,128,116713,1,0,3:2:0:0:
272,192,116850,2,0,L|329:95,2,110,0|8|0,2:0|2:0|2:0,2:0:0:0:
64,192,117259,2,0,L|161:136,1,110,2|0,3:2|3:2,2:0:0:0:
368,112,117532,1,10,2:0:0:0:
224,112,117668,1,0,2:0:0:0:
432,64,117804,6,0,P|448:160|432:280,1,220,2|0,3:2|3:2,2:0:0:0:
352,320,118213,1,0,2:0:0:0:
216,320,118350,2,0,L|200:208,1,110,8|0,2:0|2:0,2:0:0:0:
296,320,118622,2,0,L|312:208,1,110,2|0,2:0|2:0,2:0:0:0:
176,192,118895,1,0,2:0:0:0:
96,192,119032,1,2,2:0:0:0:
96,272,119168,1,0,3:2:0:0:
176,272,119304,1,0,2:0:0:0:
296,320,119441,2,0,L|312:208,1,110,10|0,2:0|2:0,2:0:0:0:
80,192,119713,1,10,2:0:0:0:
312,176,119850,1,8,2:0:0:0:
48,80,119986,5,6,3:2:0:0:
80,80,120020,1,2,2:0:0:0:
112,80,120054,1,2,2:0:0:0:
272,80,120122,1,6,3:2:0:0:
304,80,120157,1,0,2:0:0:0:
336,80,120191,1,0,2:0:0:0:
176,144,120259,2,0,L|144:176,2,27.5,10|0|0,2:0|2:0|2:0,2:0:0:0:
336,304,120395,5,6,3:2:0:0:
304,304,120429,1,2,2:0:0:0:
272,304,120463,1,2,2:0:0:0:
112,304,120532,1,6,3:2:0:0:
80,304,120566,1,0,2:0:0:0:
48,304,120600,1,0,2:0:0:0:
208,240,120668,2,0,L|240:208,2,27.5,10|0|0,2:0|2:0|2:0,2:0:0:0:
48,80,120804,5,6,3:2:0:0:
80,80,120838,1,2,2:0:0:0:
112,80,120872,1,2,2:0:0:0:
272,80,120941,1,10,2:0:0:0:
304,80,120975,1,0,2:0:0:0:
336,80,121009,1,8,2:0:0:0:
176,80,121077,6,0,L|64:80,1,110,6|8,3:2|2:0,2:0:0:0:
206,192,121350,2,0,L|96:192,1,110,8|0,2:0|3:2,2:0:0:0:
160,192,121554,1,0,3:2:0:0:
320,304,121622,2,0,L|208:304,1,110,2|8,3:2|2:0,2:0:0:0:
350,192,121895,2,0,L|240:192,1,110,8|0,2:3|3:2,2:0:0:0:
464,80,122168,5,6,3:2:0:0:
432,80,122202,1,2,2:0:0:0:
400,80,122236,1,2,2:0:0:0:
240,80,122304,1,6,3:2:0:0:
208,80,122338,1,0,2:0:0:0:
176,80,122372,1,0,2:0:0:0:
336,144,122441,2,0,L|368:176,2,27.5,10|0|0,2:0|2:0|2:0,2:0:0:0:
176,304,122577,5,6,3:2:0:0:
208,304,122611,1,2,2:0:0:0:
240,304,122645,1,2,2:0:0:0:
400,304,122713,1,6,3:2:0:0:
432,304,122747,1,0,2:0:0:0:
464,304,122782,1,0,2:0:0:0:
304,240,122850,2,0,L|272:208,2,27.5,10|0|0,2:0|2:0|2:0,2:0:0:0:
464,80,122986,5,6,3:2:0:0:
432,80,123020,1,2,2:0:0:0:
400,80,123054,1,2,2:0:0:0:
240,80,123122,1,10,2:0:0:0:
272,80,123157,1,0,2:0:0:0:
304,80,123191,1,0,2:0:0:0:
464,80,123259,6,0,P|480:144|464:240,1,165,2|0,3:2|2:0,2:0:0:0:
304,80,123532,2,0,P|288:144|304:240,1,165,0|0,3:2|2:0,2:0:0:0:
464,272,123804,1,6,3:2:0:0:
240,272,123941,1,4,3:2:0:0:
464,272,124077,1,4,3:2:0:0:
240,272,124213,1,4,3:2:0:0:
464,80,124350,5,6,3:2:0:0:
448,128,124384,1,2,2:0:0:0:
416,128,124418,1,2,2:0:0:0:
256,128,124486,1,6,3:2:0:0:
224,128,124520,1,0,2:0:0:0:
208,80,124554,1,0,2:0:0:0:
368,192,124622,2,0,L|400:192,2,27.5,10|0|0,2:0|2:0|2:0,2:0:0:0:
208,304,124759,5,6,3:2:0:0:
224,256,124793,1,0,2:0:0:0:
256,256,124827,1,0,2:0:0:0:
416,256,124895,1,6,3:2:0:0:
448,256,124929,1,0,2:0:0:0:
464,304,124963,1,0,2:0:0:0:
304,192,125032,2,0,L|272:192,2,27.5,10|0|0,2:0|2:0|2:0,2:0:0:0:
464,80,125168,5,6,3:2:0:0:
448,128,125202,1,0,2:0:0:0:
416,128,125236,1,0,2:0:0:0:
256,128,125304,1,10,2:0:0:0:
224,128,125338,1,0,2:0:0:0:
208,80,125372,1,8,2:0:0:0:
368,304,125441,6,0,L|256:304,1,110,6|8,3:2|2:0,2:0:0:0:
398,192,125713,2,0,L|288:192,1,110,8|0,2:0|3:2,2:0:0:0:
224,192,125918,1,0,3:2:0:0:
64,80,125986,2,0,L|176:80,1,110,2|8,3:2|2:0,2:0:0:0:
34,192,126259,2,0,L|144:192,1,110,2|0,3:2|3:2,2:0:0:0:
368,304,126532,5,6,3:2:0:0:
344,256,126566,1,0,2:0:0:0:
304,256,126600,1,2,2:0:0:0:
144,304,126668,1,6,3:2:0:0:
168,256,126702,1,0,2:0:0:0:
208,256,126736,1,0,2:0:0:0:
368,192,126804,1,10,2:0:0:0:
400,192,126838,1,0,2:0:0:0:
368,192,126872,1,0,2:0:0:0:
208,80,126941,5,6,3:2:0:0:
232,128,126975,1,0,2:0:0:0:
272,128,127009,1,2,2:0:0:0:
432,80,127077,1,6,3:2:0:0:
408,128,127111,1,0,2:0:0:0:
368,128,127145,1,0,2:0:0:0:
208,192,127213,1,10,2:0:0:0:
176,192,127247,1,0,2:0:0:0:
208,192,127282,1,0,2:0:0:0:
368,304,127350,5,6,3:2:0:0:
344,256,127384,1,0,2:0:0:0:
304,256,127418,1,0,2:0:0:0:
144,304,127486,1,0,2:0:0:0:
168,256,127520,1,0,2:0:0:0:
208,256,127554,1,0,2:0:0:0:
368,304,127622,5,6,3:2:0:0:
144,304,127759,2,0,L|128:240,1,55,10|0,2:0|2:0,2:0:0:0:
288,304,127895,2,0,L|272:240,1,55,6|0,3:2|2:0,2:0:0:0:
112,304,128032,1,8,2:0:0:0:
336,192,128168,1,10,2:0:0:0:
280,192,128236,1,8,2:0:0:0:
224,192,128304,1,8,2:0:0:0:
168,192,128372,1,8,2:0:0:0:
328,112,128441,2,0,L|392:112,1,55,10|8,2:0|2:0,2:0:0:0:
225,112,128577,2,0,L|280:112,1,55,10|8,2:0|2:0,2:0:0:0:
464,80,128713,5,6,3:2:0:0:
432,80,128747,1,2,2:0:0:0:
400,80,128782,1,2,2:0:0:0:
240,80,128850,1,6,3:2:0:0:
208,80,128884,1,0,2:0:0:0:
176,80,128918,1,0,2:0:0:0:
336,144,128986,2,0,L|368:176,2,27.5,10|0|0,2:0|2:0|2:0,2:0:0:0:
176,304,129122,5,6,3:2:0:0:
208,304,129157,1,2,2:0:0:0:
240,304,129191,1,2,2:0:0:0:
400,304,129259,1,6,3:2:0:0:
432,304,129293,1,0,2:0:0:0:
464,304,129327,1,0,2:0:0:0:
304,240,129395,2,0,L|272:208,2,27.5,10|0|0,2:0|2:0|2:0,2:0:0:0:
464,80,129532,5,6,3:2:0:0:
432,80,129566,1,0,2:0:0:0:
400,80,129600,1,0,2:0:0:0:
240,80,129668,1,10,2:0:0:0:
208,80,129702,1,0,2:0:0:0:
176,80,129736,1,8,2:0:0:0:
336,80,129804,6,0,L|448:80,1,110,6|8,3:2|2:0,2:0:0:0:
306,192,130077,2,0,L|416:192,1,110,8|4,2:0|3:2,2:0:0:0:
352,192,130282,1,0,3:2:0:0:
192,304,130350,2,0,L|304:304,1,110,2|8,3:2|2:0,2:0:0:0:
162,192,130622,2,0,L|272:192,1,110,0|8,3:2|2:0,2:0:0:0:
48,80,130895,5,6,3:2:0:0:
80,80,130929,1,2,2:0:0:0:
112,80,130963,1,2,2:0:0:0:
272,80,131032,1,6,3:2:0:0:
304,80,131066,1,0,2:0:0:0:
336,80,131100,1,0,2:0:0:0:
176,144,131168,2,0,L|144:176,2,27.5,10|0|0,2:0|2:0|2:0,2:0:0:0:
336,304,131304,5,6,3:2:0:0:
304,304,131338,1,2,2:0:0:0:
272,304,131372,1,2,2:0:0:0:
112,304,131441,1,6,3:2:0:0:
80,304,131475,1,0,2:0:0:0:
48,304,131509,1,0,2:0:0:0:
208,240,131577,2,0,L|240:208,2,27.5,10|0|0,2:0|2:0|2:0,2:0:0:0:
48,80,131713,5,6,3:2:0:0:
80,80,131747,1,2,2:0:0:0:
112,80,131782,1,2,2:0:0:0:
272,80,131850,1,10,2:0:0:0:
240,80,131884,1,0,2:0:0:0:
208,80,131918,1,0,2:0:0:0:
32,192,131986,6,0,L|64:192,1,27.5,6|0,3:2|2:0,2:0:0:0:
256,192,132122,2,0,L|287:200,1,27.5,4|0,3:2|2:0,2:0:0:0:
480,192,132259,2,0,L|453:208,1,27.5,4|0,3:2|2:0,2:0:0:0:
256,192,132395,2,0,L|233:215,1,27.5,4|0,3:2|2:0,2:0:0:0:
32,304,132532,2,0,L|48:331,1,27.5,6|0,3:2|2:0,2:0:0:0:
240,304,132668,2,0,L|232:335,1,27.5,4|0,3:2|2:0,2:0:0:0:
32,96,132804,2,0,L|32:128,1,27.5,4|0,3:2|2:0,2:0:0:0:
224,96,132941,2,0,L|224:128,1,27.5,4|0,3:2|2:0,2:0:0:0:
48,80,133077,5,6,3:2:0:0:
64,128,133111,1,2,2:0:0:0:
96,128,133145,1,2,2:0:0:0:
256,128,133213,1,6,3:2:0:0:
288,128,133247,1,0,2:0:0:0:
304,80,133282,1,0,2:0:0:0:
144,192,133350,2,0,L|112:192,2,27.5,10|0|0,2:0|2:0|2:0,2:0:0:0:
304,304,133486,5,6,3:2:0:0:
288,256,133520,1,0,2:0:0:0:
256,256,133554,1,0,2:0:0:0:
96,256,133622,1,6,3:2:0:0:
64,256,133657,1,0,2:0:0:0:
48,304,133691,1,0,2:0:0:0:
208,192,133759,2,0,L|240:192,2,27.5,10|0|0,2:0|2:0|2:0,2:0:0:0:
48,80,133895,5,6,3:2:0:0:
64,128,133929,1,0,2:0:0:0:
96,128,133963,1,0,2:0:0:0:
256,128,134032,1,10,2:0:0:0:
288,128,134066,1,0,2:0:0:0:
304,80,134100,1,8,2:0:0:0:
144,304,134168,6,0,L|256:304,1,110,4|8,3:2|2:0,2:0:0:0:
114,192,134441,2,0,L|224:192,1,110,8|0,2:0|3:2,2:0:0:0:
288,192,134645,1,0,3:2:0:0:
480,80,134713,1,8,2:0:0:0:
280,80,134850,1,8,2:0:0:0:
480,192,134986,1,8,2:0:0:0:
280,192,135122,1,8,2:0:0:0:
80,304,135259,5,6,3:2:0:0:
104,256,135293,1,0,2:0:0:0:
144,256,135327,1,2,2:0:0:0:
304,304,135395,1,6,3:2:0:0:
280,256,135429,1,0,2:0:0:0:
240,256,135463,1,0,2:0:0:0:
80,192,135532,1,10,2:0:0:0:
48,192,135566,1,0,2:0:0:0:
80,192,135600,1,0,2:0:0:0:
240,80,135668,5,6,3:2:0:0:
216,128,135702,1,0,2:0:0:0:
176,128,135736,1,2,2:0:0:0:
16,80,135804,1,6,3:2:0:0:
40,128,135838,1,0,2:0:0:0:
80,128,135872,1,0,2:0:0:0:
240,192,135941,1,10,2:0:0:0:
272,192,135975,1,0,2:0:0:0:
240,192,136009,1,0,2:0:0:0:
80,304,136077,5,6,3:2:0:0:
104,256,136111,1,0,2:0:0:0:
144,256,136145,1,0,2:0:0:0:
304,304,136213,1,0,2:0:0:0:
280,256,136247,1,0,2:0:0:0:
240,256,136282,1,0,2:0:0:0:
80,304,136350,5,4,3:2:0:0:
304,304,136486,2,0,L|320:240,1,55,10|0,2:0|2:0,2:0:0:0:
160,304,136622,2,0,L|176:240,1,55,6|0,3:2|2:0,2:0:0:0:
336,304,136759,1,10,2:0:0:0:
112,192,136895,2,0,L|176:192,1,55,10|8,2:0|2:0,2:0:0:0:
329,192,137032,2,0,L|384:192,1,55,10|8,2:0|2:0,2:0:0:0:
224,144,137168,1,10,2:0:0:0:
64,144,137236,1,8,2:0:0:0:
224,144,137304,1,10,2:0:0:0:
384,144,137372,1,8,2:0:0:0:
224,80,137441,5,6,3:2:0:0:
192,80,137475,1,2,2:0:0:0:
160,80,137509,1,2,2:0:0:0:
320,192,137577,1,6,3:2:0:0:
352,192,137611,1,0,2:0:0:0:
384,192,137645,1,0,2:0:0:0:
224,192,137713,2,0,L|192:224,2,27.5,10|0|0,2:0|2:0|2:0,2:0:0:0:
384,304,137850,5,6,3:2:0:0:
416,304,137884,1,0,2:0:0:0:
448,304,137918,1,0,2:0:0:0:
288,192,137986,1,6,3:2:0:0:
256,192,138020,1,0,2:0:0:0:
224,192,138054,1,0,2:0:0:0:
384,192,138122,2,0,L|416:160,2,27.5,10|2|2,2:0|2:0|2:0,2:0:0:0:
224,80,138259,5,6,3:2:0:0:
192,80,138293,1,0,2:0:0:0:
160,80,138327,1,0,2:0:0:0:
320,192,138395,1,10,2:0:0:0:
352,192,138429,1,0,2:0:0:0:
384,192,138463,1,0,2:0:0:0:
224,304,138532,6,0,L|336:304,1,110,6|8,3:2|2:0,2:0:0:0:
192,240,138804,2,0,L|304:240,1,110,8|0,2:0|3:2,2:0:0:0:
240,192,139009,1,0,3:2:0:0:
80,128,139077,2,0,L|192:128,1,110,2|8,3:2|2:0,2:0:0:0:
48,192,139350,2,0,L|160:192,1,110,2|0,3:2|3:2,2:0:0:0:
384,304,139622,5,6,3:2:0:0:
416,304,139657,1,2,2:0:0:0:
448,304,139691,1,2,2:0:0:0:
288,192,139759,1,6,3:2:0:0:
256,192,139793,1,0,2:0:0:0:
224,192,139827,1,0,2:0:0:0:
384,192,139895,2,0,L|416:160,2,27.5,10|0|0,2:0|2:0|2:0,2:0:0:0:
224,80,140032,5,6,3:2:0:0:
192,80,140066,1,2,2:0:0:0:
160,80,140100,1,2,2:0:0:0:
320,192,140168,1,6,3:2:0:0:
352,192,140202,1,0,2:0:0:0:
384,192,140236,1,0,2:0:0:0:
224,192,140304,2,0,L|192:224,2,27.5,10|0|0,2:0|2:0|2:0,2:0:0:0:
384,304,140441,5,6,3:2:0:0:
352,304,140475,1,0,2:0:0:0:
320,304,140509,1,0,2:0:0:0:
160,304,140577,1,10,2:0:0:0:
192,304,140611,1,0,2:0:0:0:
224,304,140645,1,0,2:0:0:0:
384,304,140713,6,0,P|384:224|320:176,1,165,2|0,3:2|2:0,2:0:0:0:
160,304,140986,2,0,P|160:224|224:176,1,165,0|0,3:2|2:0,2:0:0:0:
384,304,141259,1,6,3:2:0:0:
160,304,141395,1,4,3:2:0:0:
384,304,141532,1,4,3:2:0:0:
160,304,141668,1,4,3:2:0:0:
384,80,141804,5,6,3:2:0:0:
368,128,141838,1,2,2:0:0:0:
336,128,141872,1,2,2:0:0:0:
176,128,141941,1,6,3:2:0:0:
144,128,141975,1,0,2:0:0:0:
128,80,142009,1,0,2:0:0:0:
288,192,142077,2,0,L|320:192,2,27.5,10|0|0,2:0|2:0|2:0,2:0:0:0:
128,304,142213,5,6,3:2:0:0:
144,256,142247,1,0,2:0:0:0:
176,256,142282,1,0,2:0:0:0:
336,256,142350,1,4,3:2:0:0:
368,256,142384,1,0,2:0:0:0:
384,304,142418,1,0,2:0:0:0:
224,192,142486,2,0,L|192:192,2,27.5,10|2|2,2:0|2:0|2:0,2:0:0:0:
384,80,142622,5,6,3:2:0:0:
368,128,142657,1,0,2:0:0:0:
336,128,142691,1,0,2:0:0:0:
176,128,142759,1,10,2:0:0:0:
144,128,142793,1,0,2:0:0:0:
128,80,142827,1,0,2:0:0:0:
288,304,142895,6,0,L|176:304,1,110,6|8,3:2|2:0,2:0:0:0:
318,192,143168,2,0,L|208:192,1,110,0|0,2:0|3:2,2:0:0:0:
144,192,143372,1,0,3:2:0:0:
304,80,143441,2,0,L|416:80,1,110,2|8,3:2|2:0,2:0:0:0:
274,192,143713,2,0,L|384:192,1,110,2|0,3:2|3:2,2:0:0:0:
160,304,143986,5,6,3:2:0:0:
184,256,144020,1,0,2:0:0:0:
224,256,144054,1,2,2:0:0:0:
384,304,144122,1,6,3:2:0:0:
360,256,144157,1,0,2:0:0:0:
320,256,144191,1,0,2:0:0:0:
160,192,144259,1,10,2:0:0:0:
128,192,144293,1,0,2:0:0:0:
160,192,144327,1,0,2:0:0:0:
320,80,144395,5,6,3:2:0:0:
296,128,144429,1,0,2:0:0:0:
256,128,144463,1,2,2:0:0:0:
96,80,144532,1,6,3:2:0:0:
120,128,144566,1,0,2:0:0:0:
160,128,144600,1,0,2:0:0:0:
320,192,144668,1,10,2:0:0:0:
352,192,144702,1,0,2:0:0:0:
320,192,144736,1,0,2:0:0:0:
160,304,144804,5,6,3:2:0:0:
184,256,144838,1,0,2:0:0:0:
224,256,144872,1,0,2:0:0:0:
384,304,144941,1,10,2:0:0:0:
360,256,144975,1,0,2:0:0:0:
320,256,145009,1,0,2:0:0:0:
160,304,145077,5,6,3:2:0:0:
384,304,145213,2,0,L|400:240,1,55,10|0,2:0|2:0,2:0:0:0:
240,304,145350,2,0,L|256:240,1,55,6|0,3:2|2:0,2:0:0:0:
416,304,145486,1,8,2:0:0:0:
192,192,145622,1,10,2:0:0:0:
248,192,145691,1,8,2:0:0:0:
304,192,145759,1,8,2:0:0:0:
360,192,145827,1,8,2:0:0:0:
200,112,145895,2,0,L|136:112,1,55,10|8,2:0|2:0,2:0:0:0:
303,112,146032,2,0,L|240:112,1,55,10|8,2:0|2:0,2:0:0:0:
96,192,146168,5,2,2:0:0:0:
368,192,147259,1,2,2:0:0:0:
144,192,147804,1,2,2:0:0:0:
416,192,148350,5,2,2:0:0:0:
48,192,149168,1,2,2:0:0:0:
144,192,149304,1,2,2:0:0:0:
48,192,149441,1,2,2:0:0:0:
256,192,149577,12,2,149986,2:0:0:0:
256,192,150020,12,0,150054,2:0:0:0:
256,192,150088,12,0,150122,2:0:0:0:
256,192,150157,12,0,150191,2:0:0:0:
256,192,150225,12,0,150259,2:0:0:0:
256,192,150293,12,0,150327,2:0:0:0:
256,192,150361,12,0,150395,2:0:0:0:
256,192,150429,12,0,150463,2:0:0:0:
256,192,150497,12,2,150532,2:0:0:0:
