osu file format v14

[General]
AudioFilename: Greetings.mp3
AudioLeadIn: 0
PreviewTime: 33580
Countdown: 0
SampleSet: Soft
StackLeniency: 0.7
Mode: 0
LetterboxInBreaks: 0
WidescreenStoryboard: 0

[Editor]
DistanceSpacing: 1.3
BeatDivisor: 4
GridSize: 4
TimelineZoom: 1.7

[Metadata]
Title:Greetings
TitleUnicode:Greetings
Artist:VINXIS
ArtistUnicode:VINXIS
Creator:VINXIS
Version:Basic
Source:
Tags:artcore drum and bass dnb fort deetz okoratu okorin goobye walaowey handsome
BeatmapID:652931
BeatmapSetID:288974

[Difficulty]
HPDrainRate:2
CircleSize:2.5
OverallDifficulty:2
ApproachRate:3
SliderMultiplier:0.7
SliderTickRate:1

[Events]
//Background and Video events
0,0,"b20.jpg",0,0
//Break Periods
//Storyboard Layer 0 (Background)
//Storyboard Layer 1 (Fail)
//Storyboard Layer 2 (Pass)
//Storyboard Layer 3 (Foreground)
//Storyboard Sound Samples

[TimingPoints]
1252,300,4,2,1,60,1,0
4852,-100,4,2,1,60,0,0
13252,-100,4,2,1,30,0,0
14452,-100,4,2,1,100,0,0
24052,-100,4,2,1,100,0,0
31327,-100,4,2,1,15,0,0
31402,-100,4,2,1,22,0,0
31477,-100,4,2,1,37,0,0
31552,-100,4,2,1,43,0,0
31627,-100,4,2,1,52,0,0
31702,-100,4,2,1,62,0,0
31777,-100,4,2,1,70,0,0
31852,-100,4,2,1,75,0,0
31927,-100,4,2,1,79,0,0
32002,-100,4,2,1,82,0,0
32077,-100,4,2,1,87,0,0
32152,-100,4,2,1,90,0,0
32227,-100,4,2,1,94,0,0
32302,-100,4,2,1,100,0,0
33652,-100,4,3,1,40,0,0
34852,-100,4,1,1,55,0,1
34927,-100,4,1,1,100,0,1
54052,-100,4,2,1,100,0,0
55702,-100,4,1,1,100,0,0
56452,-100,4,1,1,100,0,1
73252,-100,4,2,1,100,0,0
73702,-100,4,2,1,60,0,0
75052,-100,4,2,1,40,0,0
75952,-100,4,2,1,20,0,0
76852,-100,4,2,1,5,0,0

[Colours]
Combo1 : 255,255,174
Combo2 : 147,215,255
Combo3 : 166,63,0
Combo4 : 255,128,128

[HitObjects]
52,44,4852,5,2,0:0:0:0:
408,208,7252,5,0,0:0:0:0:
44,356,9652,5,0,0:0:0:0:
256,104,12052,6,0,B|317:47|452:40|452:40|396:92,1,280,0|2,0:0|0:0,0:0:0:0:
428,260,14452,6,0,P|387:316|352:340,2,105,2|0|0,0:0|0:0|0:0,0:0:0:0:
444,208,15652,1,2,0:0:0:0:
380,116,16252,1,0,0:0:0:0:
280,164,16852,6,0,P|212:180|168:172,2,105,2|0|2,0:0|0:0|0:0,0:0:0:0:
324,128,18052,1,8,0:0:0:0:
220,88,18652,1,2,0:0:0:0:
112,112,19252,6,0,B|64:88|64:88|4:84,2,105,2|0|0,0:0|0:0|0:0,0:0:0:0:
160,140,20452,1,2,0:0:0:0:
204,244,21052,1,0,0:0:0:0:
279,161,21652,6,0,L|272:55,2,105,2|0|0,0:0|0:0|0:0,0:0:0:0:
252,210,22852,1,8,0:0:0:0:
288,316,23452,1,2,0:0:0:0:
176,316,24052,5,2,0:0:0:0:
92,244,24652,1,0,0:0:0:0:
200,212,25252,2,0,L|352:200,2,140,8|2|2,0:0|0:0|0:0,0:0:0:0:
100,160,27052,5,0,0:0:0:0:
172,72,27652,2,0,P|244:44|312:48,1,140,8|2,0:0|0:0,0:0:0:0:
255,146,28852,6,0,L|287:290,2,140,8|2|8,0:0|0:0|0:0,0:0:0:0:
172,72,30652,1,2,0:0:0:0:
256,192,31252,12,0,33652,0:0:0:0:
316,200,34852,6,0,P|249:185|174:191,1,140,6|0,0:0|0:0,0:0:0:0:
140,272,35752,1,8,0:0:0:0:
220,316,36052,6,0,P|256:328|292:332,1,70,2|8,0:0|0:0,0:0:0:0:
376,320,36652,1,0,0:0:0:0:
440,256,36952,1,8,0:0:0:0:
416,168,37252,6,0,P|392:136|300:88,1,140,2|0,0:0|0:0,0:0:0:0:
216,76,38152,1,8,0:0:0:0:
128,96,38452,6,0,P|68:124|40:152,2,105,2|0|8,0:0|0:0|0:0,0:0:0:0:
180,168,39652,6,0,P|212:228|268:276,1,140,2|0,0:0|0:0,0:0:0:0:
348,236,40552,1,8,0:0:0:0:
320,152,40852,6,0,P|299:115|276:88,1,70,2|8,0:0|0:0,0:0:0:0:
204,44,41452,1,0,0:0:0:0:
124,88,41752,1,8,0:0:0:0:
72,164,42052,6,0,P|60:232|76:304,1,140,2|0,0:0|0:0,0:0:0:0:
156,336,42952,1,8,0:0:0:0:
244,312,43252,6,0,P|293:294|337:266,1,105,2|0,0:0|0:0,0:0:0:0:
236,173,44152,1,8,0:0:0:0:
151,207,44452,6,0,P|107:151|127:91,1,140,2|0,0:0|0:0,0:0:0:0:
202,41,45352,1,8,0:0:0:0:
285,78,45652,6,0,P|321:90|365:94,1,70,2|8,0:0|0:0,0:0:0:0:
400,172,46252,2,0,L|432:248,1,70,0|8,0:0|0:0,0:0:0:0:
336,248,46852,6,0,P|280:256|192:244,1,140,2|0,0:0|0:0,0:0:0:0:
136,176,47752,1,8,0:0:0:0:
224,152,48052,6,0,L|332:148,1,105,2|0,0:0|0:0,0:0:0:0:
384,272,48952,1,8,0:0:0:0:
296,288,49252,6,0,L|144:264,1,140,2|0,0:0|0:0,0:0:0:0:
68,256,50152,1,8,0:0:0:0:
96,168,50452,6,0,L|160:128,1,70,2|8,0:0|0:0,0:0:0:0:
244,120,51052,2,0,L|312:160,1,70,0|8,0:0|0:0,0:0:0:0:
380,208,51652,6,0,P|384:248|328:332,1,140,2|0,0:0|0:0,0:0:0:0:
248,292,52552,1,8,0:0:0:0:
172,340,52852,6,0,L|64:352,2,105,2|0|8,0:0|0:0|0:0,0:0:0:0:
256,192,54052,12,2,56452,0:0:0:0:
320,84,57652,6,0,P|376:92|432:120,2,105,2|0|8,0:0|0:0|0:0,0:0:0:0:
232,108,58852,6,0,P|188:160|188:232,1,140,2|0,0:0|0:0,0:0:0:0:
272,252,59752,1,8,0:0:0:0:
316,172,60052,6,0,L|400:172,1,70,2|8,0:0|0:0,0:0:0:0:
408,260,60652,1,0,0:0:0:0:
360,336,60952,1,8,0:0:0:0:
272,312,61252,6,0,P|236:308|144:240,1,140,2|0,0:0|0:0,0:0:0:0:
208,180,62152,1,8,0:0:0:0:
300,172,62452,6,0,P|370:169|415:180,2,105,2|0|8,0:0|0:0|0:0,0:0:0:0:
208,180,63652,6,0,P|144:152|96:92,1,140,2|0,0:0|0:0,0:0:0:0:
180,60,64552,1,8,0:0:0:0:
260,104,64852,6,0,L|332:148,1,70,2|8,0:0|0:0,0:0:0:0:
273,219,65452,2,0,L|201:175,1,70,0|8,0:0|0:0,0:0:0:0:
120,162,66052,6,0,P|60:194|39:259,1,140,2|0,0:0|0:0,0:0:0:0:
130,253,66952,1,8,0:0:0:0:
148,340,67252,6,0,L|252:384,2,105,2|0|8,0:0|0:0|0:0,0:0:0:0:
112,256,68452,6,0,L|52:120,1,140,2|0,0:0|0:0,0:0:0:0:
148,132,69352,1,8,0:0:0:0:
216,192,69652,6,0,P|236:236|252:268,1,70,2|8,0:0|0:0,0:0:0:0:
320,304,70252,1,0,0:0:0:0:
392,248,70552,1,8,0:0:0:0:
460,188,70852,6,0,P|472:152|476:104,1,70,2|8,0:0|0:0,0:0:0:0:
395,78,71452,2,0,P|386:40|365:-3,1,70,0|8,0:0|0:0,0:0:0:0:
305,72,72052,6,0,P|249:80|197:108,2,105,2|0|8,0:0|0:0|0:0,0:0:0:0:
256,192,73252,12,0,76852,0:0:0:0:
