osu file format v14

[General]
AudioFilename: audio.mp3
AudioLeadIn: 0
PreviewTime: 33760
Countdown: 0
SampleSet: Normal
StackLeniency: 0.7
Mode: 1
LetterboxInBreaks: 0
WidescreenStoryboard: 0

[Editor]
DistanceSpacing: 1.5
BeatDivisor: 4
GridSize: 32
TimelineZoom: 1.9

[Metadata]
Title:Greetings
TitleUnicode:Greetings
Artist:VINXIS
ArtistUnicode:VINXIS
Creator:Nifty
Version:Oni
Source:osu!
Tags:artcore drum and bass dnb featured artist fa
BeatmapID:1831425
BeatmapSetID:876282

[Difficulty]
HPDrainRate:5
CircleSize:2
OverallDifficulty:5.5
ApproachRate:10
SliderMultiplier:1.4
SliderTickRate:1

[Events]
//Background and Video events
0,0,"sky.jpg",0,0
//Break Periods
//Storyboard Layer 0 (Background)
//Storyboard Layer 1 (Fail)
//Storyboard Layer 2 (Pass)
//Storyboard Layer 3 (Foreground)
//Storyboard Sound Samples

[TimingPoints]
160,300,4,1,0,20,1,0
160,-200,4,1,0,20,0,0
4060,-190.523367691047,4,1,0,25,0,0
4510,-177.880236794171,4,1,0,30,0,0
4660,-174.030779083589,4,1,0,30,0,0
4960,-166.810679886969,4,1,0,30,0,0
13060,-166.666666666667,4,1,0,30,0,0
13360,-161.311917563158,4,1,0,30,0,0
13660,-156.290537858257,4,1,0,35,0,0
14110,-149.318361678936,4,1,0,35,0,0
14260,-147.13065790945,4,1,0,35,0,0
14560,-142.962935429361,4,1,0,40,0,0
15760,-166.666666666667,4,1,0,40,0,0
16060,-160.03328692368,4,1,0,40,0,0
16210,-156.910495115376,4,1,0,40,0,0
16510,-151.017252210893,4,1,0,40,0,0
16660,-148.233574608182,4,1,0,40,0,0
16810,-145.550449969216,4,1,0,40,0,0
16960,-142.962935429361,4,1,0,40,0,0
18160,-166.666666666667,4,1,0,40,0,0
18310,-163.282634075453,4,1,0,40,0,0
18460,-160.03328692368,4,1,0,40,0,0
18610,-156.910495115376,4,1,0,40,0,0
18760,-153.907480057438,4,1,0,40,0,0
18910,-151.017252210893,4,1,0,40,0,0
19060,-148.233574608182,4,1,0,40,0,0
19210,-145.550449969216,4,1,0,40,0,0
19360,-142.962935429361,4,1,0,40,0,0
20560,-166.666666666667,4,1,0,40,0,0
20860,-160.03328692368,4,1,0,40,0,0
21010,-156.910495115376,4,1,0,40,0,0
21310,-151.017252210893,4,1,0,40,0,0
21460,-148.233574608182,4,1,0,40,0,0
21610,-145.550449969216,4,1,0,40,0,0
21760,-142.962935429361,4,1,0,40,0,0
22960,-166.666666666667,4,1,0,40,0,0
23110,-163.282634075453,4,1,0,40,0,0
23260,-160.03328692368,4,1,0,40,0,0
23410,-156.910495115376,4,1,0,40,0,0
23560,-153.907480057438,4,1,0,40,0,0
23710,-151.017252210893,4,1,0,40,0,0
23860,-148.233574608182,4,1,0,40,0,0
24010,-145.550449969216,4,1,0,40,0,0
24160,-142.962935429361,4,1,0,45,0,0
25360,-142.857142857143,4,1,0,50,0,0
25510,-140.363682300841,4,1,0,50,0,0
25660,-137.955771379696,4,1,0,50,0,0
25810,-135.628897635446,4,1,0,50,0,0
25960,-133.379393683952,4,1,0,50,0,0
26110,-131.20329162818,4,1,0,50,0,0
26260,-129.097056458016,4,1,0,50,0,0
26410,-127.057215134547,4,1,0,50,0,0
26560,-125.080989940987,4,1,0,50,0,0
27760,-125,4,1,0,50,0,0
27910,-123.080255711539,4,1,0,50,0,0
28060,-121.218439264107,4,1,0,50,0,0
28210,-119.412252891269,4,1,0,50,0,0
28360,-117.659101578632,4,1,0,50,0,0
28510,-115.956548762048,4,1,0,50,0,0
28660,-114.302696400608,4,1,0,50,0,0
28810,-112.695357402056,4,1,0,50,0,0
28960,-111.132473242079,4,1,0,55,0,0
29110,-109.612465129535,4,1,0,55,0,0
29260,-108.133475636987,4,1,0,55,0,0
29410,-106.693752654007,4,1,0,55,0,0
29560,-105.291974645693,4,1,0,55,0,0
29710,-103.926553026445,4,1,0,55,0,0
29860,-102.595986239826,4,1,0,55,0,0
30010,-101.299161749437,4,1,0,55,0,0
30160,-100.03471204508,4,1,0,55,0,0
30310,-98.8013421174313,4,1,0,55,0,0
30460,-97.5981105005807,4,1,0,55,0,0
30610,-96.4238328859267,4,1,0,55,0,0
30760,-95.2773858171989,4,1,0,55,0,0
30910,-94.1579688242965,4,1,0,55,0,0
31060,-93.0645505028743,4,1,0,55,0,0
31210,-91.9961508810471,4,1,0,55,0,0
31360,-90.952086440863,4,1,0,55,0,0
31960,-111.111111111111,4,1,0,55,0,0
32110,-102.645482007787,4,1,0,55,0,0
32260,-95.3785287671181,4,1,0,55,0,0
32335,-92.117759659238,4,1,0,55,0,0
32410,-89.0725763351979,4,1,0,55,0,0
32485,-86.2222084266689,4,1,0,55,0,0
32560,-83.5486800561781,4,1,0,55,0,0
33460,-125,4,1,0,50,0,0
33610,-133.333333333333,4,1,0,50,0,0
33760,-142.857142857143,4,1,0,50,0,0
34960,-100,4,1,0,50,0,1
54160,-100,4,1,0,50,0,0

[HitObjects]
299,86,3760,5,0,0:0:0:0:
299,86,4060,1,8,0:0:0:0:
304,78,4510,1,0,0:0:0:0:
296,78,4660,1,8,0:0:0:0:
297,109,4960,5,0,0:0:0:0:
312,100,7360,1,0,0:0:0:0:
301,97,8260,1,8,0:0:0:0:
304,103,9760,1,0,0:0:0:0:
304,103,12160,1,0,0:0:0:0:
303,90,13060,1,8,0:0:0:0:
309,78,13360,1,0,0:0:0:0:
309,78,13660,1,8,0:0:0:0:
309,78,14110,1,0,0:0:0:0:
309,78,14260,1,8,0:0:0:0:
304,103,14560,1,4,0:0:0:0:
303,104,15760,1,0,0:0:0:0:
303,104,16060,1,8,0:0:0:0:
303,104,16210,1,0,0:0:0:0:
305,104,16510,1,8,0:0:0:0:
305,104,16660,1,0,0:0:0:0:
305,104,16810,1,8,0:0:0:0:
305,104,16960,1,0,0:0:0:0:
304,109,18160,5,8,0:0:0:0:
304,109,18310,1,0,0:0:0:0:
304,109,18460,1,0,0:0:0:0:
304,109,18610,1,8,0:0:0:0:
304,109,18760,1,0,0:0:0:0:
304,109,18910,1,0,0:0:0:0:
304,109,19060,1,8,0:0:0:0:
304,109,19210,1,0,0:0:0:0:
304,109,19360,1,0,0:0:0:0:
170,84,20560,1,0,0:0:0:0:
170,84,20860,1,8,0:0:0:0:
170,84,21010,1,0,0:0:0:0:
170,84,21310,1,8,0:0:0:0:
170,84,21460,1,0,0:0:0:0:
170,84,21610,1,8,0:0:0:0:
170,84,21760,1,0,0:0:0:0:
214,116,22960,1,8,0:0:0:0:
214,116,23110,1,0,0:0:0:0:
214,116,23260,1,0,0:0:0:0:
214,116,23410,1,8,0:0:0:0:
214,116,23560,1,0,0:0:0:0:
214,116,23710,1,0,0:0:0:0:
214,116,23860,1,8,0:0:0:0:
214,116,24010,1,0,0:0:0:0:
248,130,24160,1,0,0:0:0:0:
246,129,24460,1,8,0:0:0:0:
246,129,24610,1,0,0:0:0:0:
247,129,24910,1,8,0:0:0:0:
247,129,25060,1,0,0:0:0:0:
247,129,25210,1,8,0:0:0:0:
300,131,25360,1,8,0:0:0:0:
300,131,25510,1,0,0:0:0:0:
300,131,25660,1,0,0:0:0:0:
300,131,25810,1,8,0:0:0:0:
400,78,25960,1,0,0:0:0:0:
231,53,26110,1,0,0:0:0:0:
231,53,26260,1,8,0:0:0:0:
231,53,26410,1,0,0:0:0:0:
231,53,26560,1,0,0:0:0:0:
246,80,26860,1,8,0:0:0:0:
246,80,27010,1,0,0:0:0:0:
245,80,27310,1,8,0:0:0:0:
245,80,27460,1,0,0:0:0:0:
245,80,27610,1,8,0:0:0:0:
245,80,27760,1,8,0:0:0:0:
245,80,27910,1,0,0:0:0:0:
245,80,28060,1,0,0:0:0:0:
259,73,28210,1,8,0:0:0:0:
246,74,28360,1,0,0:0:0:0:
246,74,28510,1,0,0:0:0:0:
246,74,28660,1,8,0:0:0:0:
234,66,28810,1,0,0:0:0:0:
234,66,28960,1,8,0:0:0:0:
234,66,29110,1,0,0:0:0:0:
234,66,29260,1,0,0:0:0:0:
234,66,29410,1,8,0:0:0:0:
234,66,29560,1,0,0:0:0:0:
234,66,29710,1,0,0:0:0:0:
234,66,29860,1,8,0:0:0:0:
234,66,30010,1,0,0:0:0:0:
234,66,30160,1,8,0:0:0:0:
281,62,30310,1,0,0:0:0:0:
234,66,30460,1,0,0:0:0:0:
281,62,30610,1,8,0:0:0:0:
281,62,30760,1,0,0:0:0:0:
281,62,30910,1,0,0:0:0:0:
193,90,31060,1,8,0:0:0:0:
193,90,31210,1,0,0:0:0:0:
230,49,31360,1,0,0:0:0:0:
158,57,31960,1,0,0:0:0:0:
158,57,32110,1,0,0:0:0:0:
158,57,32260,1,0,0:0:0:0:
158,57,32335,1,0,0:0:0:0:
159,58,32410,1,0,0:0:0:0:
179,66,32485,1,0,0:0:0:0:
179,66,32560,1,8,0:0:0:0:
441,50,33460,1,8,0:0:0:0:
441,50,33610,1,8,0:0:0:0:
376,74,33760,1,0,0:0:0:0:
366,57,34210,1,0,0:0:0:0:
366,57,34660,1,0,0:0:0:0:
374,58,34960,1,12,0:0:0:0:
325,58,35110,1,0,0:0:0:0:
325,58,35260,1,8,0:0:0:0:
325,58,35410,1,0,0:0:0:0:
325,58,35485,1,8,0:0:0:0:
312,77,35560,1,0,0:0:0:0:
325,58,35710,1,0,0:0:0:0:
325,58,35860,1,8,0:0:0:0:
340,56,36010,1,8,0:0:0:0:
316,71,36160,1,0,0:0:0:0:
316,71,36310,1,0,0:0:0:0:
316,71,36460,1,8,0:0:0:0:
329,68,36610,1,0,0:0:0:0:
329,68,36685,1,0,0:0:0:0:
329,68,36760,1,8,0:0:0:0:
329,68,36910,1,0,0:0:0:0:
329,68,37060,1,8,0:0:0:0:
329,68,37210,1,8,0:0:0:0:
329,68,37360,1,0,0:0:0:0:
308,93,37510,1,0,0:0:0:0:
308,93,37660,1,8,0:0:0:0:
308,93,37810,1,0,0:0:0:0:
308,93,37885,1,8,0:0:0:0:
308,93,37960,1,8,0:0:0:0:
308,93,38110,1,0,0:0:0:0:
308,93,38260,1,8,0:0:0:0:
308,93,38410,1,8,0:0:0:0:
308,93,38560,1,0,0:0:0:0:
308,93,38710,1,0,0:0:0:0:
308,93,38785,1,0,0:0:0:0:
301,89,38860,1,8,0:0:0:0:
308,93,39010,1,0,0:0:0:0:
308,93,39160,1,0,0:0:0:0:
301,89,39310,1,0,0:0:0:0:
301,91,39460,1,8,0:0:0:0:
315,75,39760,1,8,0:0:0:0:
301,91,39910,1,0,0:0:0:0:
291,78,40060,1,8,0:0:0:0:
313,85,40210,1,0,0:0:0:0:
309,87,40285,1,8,0:0:0:0:
301,84,40360,1,0,0:0:0:0:
301,84,40510,1,0,0:0:0:0:
301,84,40660,1,8,0:0:0:0:
301,84,40810,1,8,0:0:0:0:
301,84,40960,1,0,0:0:0:0:
301,84,41110,1,0,0:0:0:0:
301,84,41260,1,8,0:0:0:0:
301,84,41410,1,0,0:0:0:0:
301,84,41485,1,8,0:0:0:0:
301,84,41560,1,8,0:0:0:0:
301,84,41710,1,0,0:0:0:0:
301,84,41860,1,8,0:0:0:0:
296,77,42010,1,8,0:0:0:0:
313,80,42160,1,0,0:0:0:0:
313,80,42310,1,0,0:0:0:0:
313,80,42460,1,8,0:0:0:0:
313,80,42610,1,0,0:0:0:0:
313,80,42685,1,0,0:0:0:0:
313,80,42760,1,8,0:0:0:0:
313,80,42910,1,0,0:0:0:0:
313,80,43060,1,8,0:0:0:0:
313,80,43210,1,8,0:0:0:0:
304,79,43360,1,0,0:0:0:0:
304,79,43510,1,8,0:0:0:0:
316,110,43585,1,8,0:0:0:0:
304,79,43660,1,0,0:0:0:0:
304,79,43810,1,8,0:0:0:0:
322,74,43960,1,0,0:0:0:0:
298,86,44110,1,0,0:0:0:0:
307,74,44260,1,8,0:0:0:0:
304,79,44560,1,8,0:0:0:0:
325,58,44710,1,0,0:0:0:0:
325,58,44860,1,8,0:0:0:0:
325,58,45010,1,0,0:0:0:0:
325,58,45085,1,0,0:0:0:0:
312,77,45160,1,8,0:0:0:0:
325,58,45310,1,0,0:0:0:0:
325,58,45460,1,8,0:0:0:0:
316,71,45610,1,8,0:0:0:0:
340,56,45760,1,0,0:0:0:0:
316,71,45910,1,0,0:0:0:0:
316,71,46060,1,8,0:0:0:0:
329,68,46210,1,0,0:0:0:0:
329,68,46285,1,8,0:0:0:0:
329,68,46360,1,0,0:0:0:0:
329,68,46510,1,0,0:0:0:0:
329,68,46660,1,8,0:0:0:0:
329,68,46810,1,8,0:0:0:0:
329,68,46960,1,0,0:0:0:0:
308,93,47110,1,0,0:0:0:0:
308,93,47260,1,8,0:0:0:0:
308,93,47410,1,0,0:0:0:0:
308,93,47485,1,8,0:0:0:0:
308,93,47560,1,8,0:0:0:0:
308,93,47710,1,0,0:0:0:0:
308,93,47860,1,8,0:0:0:0:
308,93,48010,1,8,0:0:0:0:
308,93,48160,1,0,0:0:0:0:
308,93,48310,1,0,0:0:0:0:
308,93,48385,1,0,0:0:0:0:
301,89,48460,1,8,0:0:0:0:
308,93,48610,1,0,0:0:0:0:
308,85,48760,1,0,0:0:0:0:
301,89,48910,1,0,0:0:0:0:
301,91,49060,1,8,0:0:0:0:
315,75,49360,1,8,0:0:0:0:
301,91,49510,1,0,0:0:0:0:
291,78,49660,1,8,0:0:0:0:
313,85,49810,1,0,0:0:0:0:
309,87,49885,1,8,0:0:0:0:
301,84,49960,1,0,0:0:0:0:
301,84,50110,1,0,0:0:0:0:
301,84,50260,1,8,0:0:0:0:
301,84,50410,1,8,0:0:0:0:
301,84,50560,1,0,0:0:0:0:
301,84,50710,1,0,0:0:0:0:
301,84,50860,1,8,0:0:0:0:
301,84,51010,1,0,0:0:0:0:
301,84,51085,1,8,0:0:0:0:
301,84,51160,1,8,0:0:0:0:
301,84,51310,1,0,0:0:0:0:
301,84,51460,1,8,0:0:0:0:
296,77,51610,1,8,0:0:0:0:
313,80,51760,1,0,0:0:0:0:
313,80,51910,1,0,0:0:0:0:
313,80,52060,1,8,0:0:0:0:
313,80,52210,1,0,0:0:0:0:
313,80,52285,1,0,0:0:0:0:
313,80,52360,1,8,0:0:0:0:
313,80,52510,1,0,0:0:0:0:
313,80,52660,1,8,0:0:0:0:
313,80,52810,1,8,0:0:0:0:
304,79,52960,1,0,0:0:0:0:
304,79,53110,1,8,0:0:0:0:
316,110,53185,1,8,0:0:0:0:
304,79,53260,1,0,0:0:0:0:
304,79,53410,1,8,0:0:0:0:
312,76,53560,1,0,0:0:0:0:
310,69,53710,1,0,0:0:0:0:
307,74,53860,1,8,0:0:0:0:
296,85,54160,1,12,0:0:0:0:
330,87,55810,1,0,0:0:0:0:
330,87,55960,1,8,0:0:0:0:
330,87,56035,1,8,0:0:0:0:
330,87,56110,1,0,0:0:0:0:
330,87,56260,1,8,0:0:0:0:
330,87,56560,1,8,0:0:0:0:
330,87,56710,1,0,0:0:0:0:
330,87,56860,1,8,0:0:0:0:
330,87,57010,1,0,0:0:0:0:
330,87,57085,1,8,0:0:0:0:
330,87,57160,1,0,0:0:0:0:
330,87,57310,1,0,0:0:0:0:
330,87,57460,1,8,0:0:0:0:
330,87,57610,1,8,0:0:0:0:
330,87,57760,1,0,0:0:0:0:
330,87,57910,1,0,0:0:0:0:
330,87,57985,1,0,0:0:0:0:
330,87,58060,1,8,0:0:0:0:
330,87,58210,1,8,0:0:0:0:
330,87,58360,1,0,0:0:0:0:
330,87,58510,1,0,0:0:0:0:
327,80,58660,1,8,0:0:0:0:
328,79,58735,1,8,0:0:0:0:
327,80,58810,1,0,0:0:0:0:
309,107,58885,1,0,0:0:0:0:
328,79,58960,1,8,0:0:0:0:
306,95,59110,1,0,0:0:0:0:
306,95,59260,1,8,0:0:0:0:
306,95,59410,1,0,0:0:0:0:
306,95,59485,1,0,0:0:0:0:
306,95,59560,1,8,0:0:0:0:
306,95,59710,1,0,0:0:0:0:
306,95,59860,1,8,0:0:0:0:
306,95,60010,1,8,0:0:0:0:
306,95,60160,1,0,0:0:0:0:
306,95,60310,1,0,0:0:0:0:
306,95,60460,1,8,0:0:0:0:
306,95,60610,1,0,0:0:0:0:
306,95,60685,1,8,0:0:0:0:
306,95,60760,1,0,0:0:0:0:
306,95,60910,1,0,0:0:0:0:
315,100,61060,1,8,0:0:0:0:
315,100,61210,1,8,0:0:0:0:
308,97,61360,1,0,0:0:0:0:
308,97,61510,1,0,0:0:0:0:
308,97,61660,1,8,0:0:0:0:
308,97,61810,1,0,0:0:0:0:
308,97,61885,1,8,0:0:0:0:
308,97,61960,1,8,0:0:0:0:
308,97,62110,1,0,0:0:0:0:
308,97,62260,1,8,0:0:0:0:
308,97,62410,1,8,0:0:0:0:
308,97,62560,1,0,0:0:0:0:
308,97,62635,1,8,0:0:0:0:
308,97,62710,1,0,0:0:0:0:
308,97,62860,1,8,0:0:0:0:
308,97,63010,1,0,0:0:0:0:
308,97,63085,1,0,0:0:0:0:
308,97,63160,1,8,0:0:0:0:
308,97,63310,1,0,0:0:0:0:
308,97,63460,1,8,0:0:0:0:
308,97,63760,1,0,0:0:0:0:
297,86,63910,1,0,0:0:0:0:
297,86,64060,1,8,0:0:0:0:
297,86,64210,1,0,0:0:0:0:
305,85,64285,1,8,0:0:0:0:
305,85,64360,1,0,0:0:0:0:
305,85,64510,1,0,0:0:0:0:
305,85,64660,1,8,0:0:0:0:
305,85,64810,1,8,0:0:0:0:
305,85,64960,1,0,0:0:0:0:
305,85,65110,1,0,0:0:0:0:
305,85,65260,1,8,0:0:0:0:
305,85,65410,1,0,0:0:0:0:
305,85,65485,1,0,0:0:0:0:
305,85,65560,1,8,0:0:0:0:
305,85,65710,1,0,0:0:0:0:
305,85,65860,1,8,0:0:0:0:
305,85,66010,1,8,0:0:0:0:
305,85,66160,1,0,0:0:0:0:
305,85,66310,1,0,0:0:0:0:
308,88,66460,1,8,0:0:0:0:
308,88,66610,1,0,0:0:0:0:
308,88,66685,1,8,0:0:0:0:
308,88,66760,1,8,0:0:0:0:
308,88,66910,1,0,0:0:0:0:
308,88,67060,1,8,0:0:0:0:
295,80,67210,1,8,0:0:0:0:
295,80,67360,1,0,0:0:0:0:
295,80,67510,1,0,0:0:0:0:
302,82,67585,1,0,0:0:0:0:
302,82,67660,1,8,0:0:0:0:
302,82,67810,1,0,0:0:0:0:
302,82,67960,1,0,0:0:0:0:
302,82,68110,1,0,0:0:0:0:
302,82,68260,1,8,0:0:0:0:
315,75,68560,1,8,0:0:0:0:
301,91,68710,1,0,0:0:0:0:
291,78,68860,1,8,0:0:0:0:
313,85,69010,1,0,0:0:0:0:
309,87,69085,1,8,0:0:0:0:
301,84,69160,1,0,0:0:0:0:
301,84,69310,1,0,0:0:0:0:
301,84,69460,1,8,0:0:0:0:
301,84,69610,1,8,0:0:0:0:
301,84,69760,1,0,0:0:0:0:
301,84,69910,1,0,0:0:0:0:
301,84,70060,1,8,0:0:0:0:
301,84,70210,1,0,0:0:0:0:
307,76,70285,1,8,0:0:0:0:
307,76,70360,1,0,0:0:0:0:
307,76,70510,1,8,0:0:0:0:
301,84,70660,1,8,0:0:0:0:
296,77,70810,1,0,0:0:0:0:
313,80,70960,1,8,0:0:0:0:
313,80,71110,1,0,0:0:0:0:
313,80,71260,1,8,0:0:0:0:
306,69,71335,1,8,0:0:0:0:
313,80,71410,1,0,0:0:0:0:
313,80,71560,1,8,0:0:0:0:
313,80,71710,1,8,0:0:0:0:
309,69,71860,1,0,0:0:0:0:
309,70,71935,1,0,0:0:0:0:
309,69,72010,1,0,0:0:0:0:
309,70,72160,1,8,0:0:0:0:
309,69,72310,1,0,0:0:0:0:
316,110,72385,1,8,0:0:0:0:
304,79,72460,1,0,0:0:0:0:
304,79,72610,1,8,0:0:0:0:
317,101,72760,1,0,0:0:0:0:
316,100,72910,1,0,0:0:0:0:
307,74,73060,1,8,0:0:0:0:
304,79,73360,1,12,0:0:0:0:
