osu file format v14

[General]
AudioFilename: audio.mp3
AudioLeadIn: 0
PreviewTime: 33760
Countdown: 0
SampleSet: Normal
StackLeniency: 0.7
Mode: 1
LetterboxInBreaks: 0
WidescreenStoryboard: 0

[Editor]
DistanceSpacing: 1.5
BeatDivisor: 8
GridSize: 32
TimelineZoom: 1.9

[Metadata]
Title:Greetings
TitleUnicode:Greetings
Artist:VINXIS
ArtistUnicode:VINXIS
Creator:Nifty
Version:Muzukashii
Source:osu!
Tags:artcore drum and bass dnb featured artist fa
BeatmapID:1831424
BeatmapSetID:876282

[Difficulty]
HPDrainRate:6
CircleSize:2
OverallDifficulty:5
ApproachRate:10
SliderMultiplier:1.4
SliderTickRate:1

[Events]
//Background and Video events
0,0,"sky.jpg",0,0
//Break Periods
//Storyboard Layer 0 (Background)
//Storyboard Layer 1 (Fail)
//Storyboard Layer 2 (Pass)
//Storyboard Layer 3 (Foreground)
//Storyboard Sound Samples

[TimingPoints]
160,300,4,1,0,20,1,0
160,-166.666666666667,4,1,0,20,0,0
4510,-166.666666666667,4,1,0,25,0,0
4960,-166.666666666667,4,1,0,30,0,0
13060,-166.666666666667,4,1,0,30,0,0
13360,-161.311917563158,4,1,0,30,0,0
13660,-156.290537858257,4,1,0,35,0,0
14110,-149.318361678936,4,1,0,35,0,0
14260,-147.13065790945,4,1,0,35,0,0
14560,-142.962935429361,4,1,0,40,0,0
24160,-142.962935429361,4,1,0,45,0,0
25360,-142.857142857143,4,1,0,50,0,0
28960,-142.857142857143,4,1,0,50,0,0
29260,-137.943401822232,4,1,0,50,0,0
29410,-135.61105664067,4,1,0,50,0,0
29710,-131.175410382271,4,1,0,50,0,0
29860,-129.064732416544,4,1,0,50,0,0
30010,-127.388535031847,4,1,0,50,0,0
30160,-125.040638207417,4,1,0,50,0,0
30460,-121.259890259799,4,1,0,50,0,0
30610,-119.45390453005,4,1,0,50,0,0
30910,-115.99878433274,4,1,0,50,0,0
31060,-114.345173776078,4,1,0,50,0,0
31210,-112.737919286414,4,1,0,50,0,0
31360,-111.175222155888,4,1,0,50,0,0
33460,-125,4,1,0,50,0,0
34960,-100,4,1,0,50,0,1
54160,-100,4,1,0,50,0,0

[HitObjects]
298,85,3760,5,0,0:0:0:0:
298,85,4060,1,8,0:0:0:0:
303,77,4510,1,0,0:0:0:0:
295,77,4660,1,8,0:0:0:0:
296,108,4960,5,0,0:0:0:0:
311,99,7360,1,0,0:0:0:0:
300,96,8260,1,8,0:0:0:0:
303,102,9760,1,0,0:0:0:0:
303,102,12160,1,0,0:0:0:0:
302,89,13060,1,8,0:0:0:0:
308,77,13360,1,0,0:0:0:0:
308,77,13660,1,8,0:0:0:0:
308,77,14110,1,0,0:0:0:0:
308,77,14260,1,8,0:0:0:0:
303,102,14560,1,4,0:0:0:0:
302,103,15760,1,0,0:0:0:0:
302,103,16060,1,8,0:0:0:0:
302,103,16210,1,0,0:0:0:0:
304,103,16510,1,8,0:0:0:0:
304,103,16660,1,0,0:0:0:0:
304,103,16960,1,0,0:0:0:0:
303,108,18160,5,8,0:0:0:0:
303,108,18460,1,0,0:0:0:0:
303,108,18610,1,8,0:0:0:0:
303,108,18910,1,0,0:0:0:0:
303,108,19060,1,8,0:0:0:0:
303,108,19210,1,0,0:0:0:0:
303,108,19360,1,0,0:0:0:0:
169,83,20560,1,0,0:0:0:0:
169,83,20860,1,8,0:0:0:0:
169,83,21010,1,0,0:0:0:0:
169,83,21310,1,8,0:0:0:0:
169,83,21460,1,0,0:0:0:0:
169,83,21760,1,0,0:0:0:0:
213,115,22960,1,8,0:0:0:0:
213,115,23260,1,0,0:0:0:0:
213,115,23410,1,8,0:0:0:0:
213,115,23710,1,0,0:0:0:0:
213,115,23860,1,8,0:0:0:0:
213,115,24010,1,0,0:0:0:0:
247,129,24160,1,0,0:0:0:0:
245,128,24460,1,8,0:0:0:0:
245,128,24610,1,0,0:0:0:0:
246,128,24910,1,8,0:0:0:0:
246,128,25060,1,0,0:0:0:0:
299,130,25360,1,8,0:0:0:0:
299,130,25660,1,0,0:0:0:0:
299,130,25810,1,8,0:0:0:0:
230,52,26260,1,8,0:0:0:0:
230,52,26560,1,0,0:0:0:0:
245,79,26860,1,8,0:0:0:0:
245,79,27010,1,0,0:0:0:0:
244,79,27310,1,8,0:0:0:0:
244,79,27460,1,0,0:0:0:0:
244,79,27760,1,8,0:0:0:0:
244,79,28060,1,0,0:0:0:0:
258,72,28210,1,8,0:0:0:0:
256,85,28510,1,0,0:0:0:0:
245,73,28660,1,8,0:0:0:0:
255,85,28810,1,0,0:0:0:0:
233,65,28960,1,8,0:0:0:0:
233,65,29260,1,0,0:0:0:0:
233,65,29410,1,8,0:0:0:0:
233,65,29710,1,0,0:0:0:0:
233,65,29860,1,8,0:0:0:0:
251,83,30010,1,0,0:0:0:0:
233,65,30160,1,8,0:0:0:0:
233,65,30460,1,0,0:0:0:0:
280,61,30610,1,8,0:0:0:0:
280,61,30910,1,0,0:0:0:0:
192,89,31060,1,8,0:0:0:0:
192,89,31210,1,0,0:0:0:0:
229,48,31360,1,0,0:0:0:0:
157,56,31960,1,0,0:0:0:0:
157,56,32110,1,0,0:0:0:0:
157,56,32260,1,0,0:0:0:0:
157,56,32410,1,0,0:0:0:0:
178,65,32560,1,8,0:0:0:0:
440,49,33460,1,8,0:0:0:0:
440,49,33610,1,8,0:0:0:0:
375,73,33760,1,0,0:0:0:0:
365,56,34210,1,0,0:0:0:0:
365,56,34660,1,0,0:0:0:0:
373,57,34960,1,12,0:0:0:0:
324,57,35260,1,8,0:0:0:0:
324,57,35410,1,0,0:0:0:0:
324,57,35485,1,0,0:0:0:0:
311,76,35560,1,0,0:0:0:0:
324,57,35710,1,0,0:0:0:0:
324,57,35860,1,8,0:0:0:0:
315,70,36160,1,0,0:0:0:0:
315,70,36310,1,0,0:0:0:0:
315,70,36460,1,8,0:0:0:0:
328,67,36610,1,0,0:0:0:0:
328,67,36910,1,0,0:0:0:0:
328,67,37060,1,8,0:0:0:0:
328,67,37360,1,0,0:0:0:0:
307,92,37510,1,0,0:0:0:0:
307,92,37660,1,8,0:0:0:0:
307,92,37810,1,0,0:0:0:0:
307,92,37885,1,0,0:0:0:0:
307,92,37960,1,0,0:0:0:0:
307,92,38110,1,0,0:0:0:0:
307,92,38260,1,8,0:0:0:0:
307,92,38410,1,8,0:0:0:0:
307,92,38560,1,0,0:0:0:0:
307,92,39010,1,0,0:0:0:0:
300,88,39310,1,0,0:0:0:0:
300,90,39460,1,8,0:0:0:0:
314,74,39760,1,0,0:0:0:0:
290,77,40060,1,8,0:0:0:0:
312,84,40210,1,0,0:0:0:0:
308,86,40285,1,0,0:0:0:0:
300,83,40360,1,0,0:0:0:0:
300,83,40510,1,0,0:0:0:0:
300,83,40660,1,8,0:0:0:0:
300,83,40960,1,0,0:0:0:0:
300,83,41110,1,0,0:0:0:0:
300,83,41260,1,8,0:0:0:0:
300,83,41410,1,0,0:0:0:0:
300,83,41710,1,0,0:0:0:0:
300,83,41860,1,8,0:0:0:0:
312,79,42160,1,0,0:0:0:0:
312,79,42310,1,0,0:0:0:0:
312,79,42460,1,8,0:0:0:0:
312,79,42610,1,0,0:0:0:0:
312,79,42685,1,0,0:0:0:0:
312,79,42760,1,0,0:0:0:0:
312,79,42910,1,0,0:0:0:0:
312,79,43060,1,8,0:0:0:0:
312,79,43210,1,8,0:0:0:0:
303,78,43360,1,0,0:0:0:0:
303,78,43660,1,0,0:0:0:0:
303,78,43810,1,8,0:0:0:0:
306,73,44260,1,0,0:0:0:0:
303,78,44560,1,0,0:0:0:0:
324,57,44860,1,8,0:0:0:0:
324,57,45010,1,0,0:0:0:0:
324,57,45085,1,0,0:0:0:0:
311,76,45160,1,0,0:0:0:0:
324,57,45310,1,0,0:0:0:0:
324,57,45460,1,8,0:0:0:0:
339,55,45760,1,0,0:0:0:0:
315,70,45910,1,0,0:0:0:0:
315,70,46060,1,8,0:0:0:0:
328,67,46210,1,0,0:0:0:0:
328,67,46510,1,0,0:0:0:0:
328,67,46660,1,8,0:0:0:0:
328,67,46960,1,0,0:0:0:0:
307,92,47260,1,8,0:0:0:0:
307,92,47410,1,0,0:0:0:0:
307,92,47485,1,0,0:0:0:0:
307,92,47560,1,0,0:0:0:0:
307,92,47710,1,0,0:0:0:0:
307,92,47860,1,8,0:0:0:0:
307,92,48160,1,0,0:0:0:0:
307,92,48310,1,0,0:0:0:0:
300,88,48460,1,8,0:0:0:0:
307,92,48610,1,0,0:0:0:0:
300,90,49060,1,8,0:0:0:0:
314,74,49360,1,0,0:0:0:0:
290,77,49660,1,8,0:0:0:0:
312,84,49810,1,0,0:0:0:0:
308,86,49885,1,0,0:0:0:0:
300,83,49960,1,0,0:0:0:0:
300,83,50110,1,0,0:0:0:0:
300,83,50260,1,8,0:0:0:0:
300,83,50560,1,0,0:0:0:0:
300,83,50710,1,0,0:0:0:0:
300,83,50860,1,8,0:0:0:0:
300,83,51010,1,0,0:0:0:0:
300,83,51310,1,0,0:0:0:0:
300,83,51460,1,8,0:0:0:0:
312,79,51760,1,0,0:0:0:0:
312,79,51910,1,0,0:0:0:0:
312,79,52060,1,8,0:0:0:0:
312,79,52210,1,0,0:0:0:0:
312,79,52285,1,0,0:0:0:0:
312,79,52360,1,0,0:0:0:0:
312,79,52510,1,0,0:0:0:0:
312,79,52660,1,8,0:0:0:0:
303,78,52960,1,0,0:0:0:0:
303,78,53110,1,8,0:0:0:0:
315,109,53185,1,8,0:0:0:0:
303,78,53260,1,8,0:0:0:0:
303,78,53410,1,8,0:0:0:0:
309,68,53710,1,0,0:0:0:0:
306,73,53860,1,8,0:0:0:0:
295,84,54160,1,12,0:0:0:0:
329,86,55810,1,0,0:0:0:0:
329,86,55960,1,0,0:0:0:0:
329,86,56035,1,0,0:0:0:0:
329,86,56110,1,0,0:0:0:0:
329,86,56260,1,8,0:0:0:0:
329,86,56560,1,0,0:0:0:0:
329,86,56860,1,8,0:0:0:0:
329,86,57010,1,0,0:0:0:0:
329,86,57085,1,0,0:0:0:0:
329,86,57160,1,0,0:0:0:0:
329,86,57310,1,0,0:0:0:0:
329,86,57460,1,8,0:0:0:0:
329,86,57760,1,0,0:0:0:0:
329,86,58060,1,8,0:0:0:0:
311,90,58210,1,8,0:0:0:0:
329,86,58360,1,0,0:0:0:0:
329,86,58510,1,0,0:0:0:0:
326,79,58660,1,8,0:0:0:0:
327,78,58735,1,8,0:0:0:0:
326,79,58810,1,8,0:0:0:0:
327,78,58960,1,0,0:0:0:0:
305,94,59260,1,8,0:0:0:0:
305,94,59410,1,0,0:0:0:0:
305,94,59485,1,0,0:0:0:0:
305,94,59560,1,0,0:0:0:0:
305,94,59710,1,0,0:0:0:0:
305,94,59860,1,8,0:0:0:0:
305,94,60160,1,0,0:0:0:0:
305,94,60310,1,0,0:0:0:0:
305,94,60460,1,8,0:0:0:0:
305,94,60610,1,0,0:0:0:0:
305,94,60910,1,0,0:0:0:0:
314,99,61060,1,8,0:0:0:0:
307,96,61360,1,0,0:0:0:0:
307,96,61660,1,8,0:0:0:0:
307,96,61810,1,0,0:0:0:0:
307,96,61885,1,0,0:0:0:0:
307,96,61960,1,0,0:0:0:0:
307,96,62110,1,0,0:0:0:0:
307,96,62260,1,8,0:0:0:0:
307,96,62560,1,0,0:0:0:0:
307,96,63010,1,8,0:0:0:0:
307,96,63160,1,0,0:0:0:0:
307,96,63310,1,0,0:0:0:0:
307,96,63460,1,8,0:0:0:0:
307,96,63760,1,0,0:0:0:0:
296,85,64060,1,8,0:0:0:0:
296,85,64210,1,0,0:0:0:0:
304,84,64285,1,0,0:0:0:0:
304,84,64360,1,0,0:0:0:0:
304,84,64510,1,0,0:0:0:0:
304,84,64660,1,8,0:0:0:0:
304,84,64960,1,0,0:0:0:0:
304,84,65110,1,0,0:0:0:0:
304,84,65260,1,8,0:0:0:0:
304,84,65410,1,0,0:0:0:0:
304,84,65710,1,0,0:0:0:0:
304,84,65860,1,8,0:0:0:0:
304,84,66160,1,0,0:0:0:0:
304,84,66310,1,0,0:0:0:0:
307,87,66460,1,8,0:0:0:0:
307,87,66610,1,0,0:0:0:0:
307,87,66685,1,0,0:0:0:0:
307,87,66760,1,0,0:0:0:0:
307,87,66910,1,0,0:0:0:0:
307,87,67060,1,8,0:0:0:0:
294,79,67360,1,0,0:0:0:0:
294,79,67510,1,0,0:0:0:0:
301,81,67660,1,8,0:0:0:0:
301,81,67810,1,0,0:0:0:0:
301,81,68260,1,8,0:0:0:0:
314,74,68560,1,0,0:0:0:0:
290,77,68860,1,8,0:0:0:0:
312,84,69010,1,0,0:0:0:0:
308,86,69085,1,0,0:0:0:0:
300,83,69160,1,0,0:0:0:0:
300,83,69310,1,0,0:0:0:0:
300,83,69460,1,8,0:0:0:0:
300,83,69760,1,0,0:0:0:0:
300,83,69910,1,0,0:0:0:0:
300,83,70060,1,8,0:0:0:0:
300,83,70210,1,0,0:0:0:0:
300,83,70285,1,0,0:0:0:0:
300,83,70360,1,0,0:0:0:0:
300,83,70660,1,8,0:0:0:0:
295,76,70810,1,0,0:0:0:0:
312,79,70960,1,8,0:0:0:0:
312,79,71260,1,8,0:0:0:0:
312,79,71410,1,8,0:0:0:0:
312,79,71560,1,0,0:0:0:0:
312,79,71710,1,8,0:0:0:0:
308,68,71860,1,0,0:0:0:0:
308,69,71935,1,0,0:0:0:0:
308,68,72010,1,0,0:0:0:0:
308,69,72160,1,8,0:0:0:0:
303,78,72460,1,0,0:0:0:0:
303,78,72610,1,8,0:0:0:0:
315,99,72910,1,0,0:0:0:0:
306,73,73060,1,8,0:0:0:0:
303,78,73360,1,12,0:0:0:0:
