osu file format v14

[General]
AudioFilename: audio.mp3
AudioLeadIn: 0
PreviewTime: 33760
Countdown: 0
SampleSet: Normal
StackLeniency: 0.7
Mode: 1
LetterboxInBreaks: 0
WidescreenStoryboard: 0

[Editor]
DistanceSpacing: 1.5
BeatDivisor: 4
GridSize: 32
TimelineZoom: 1.9

[Metadata]
Title:Greetings
TitleUnicode:Greetings
Artist:VINXIS
ArtistUnicode:VINXIS
Creator:Nifty
Version:Kantan
Source:osu!
Tags:artcore drum and bass dnb featured artist fa
BeatmapID:1831423
BeatmapSetID:876282

[Difficulty]
HPDrainRate:7
CircleSize:2
OverallDifficulty:4
ApproachRate:10
SliderMultiplier:1.4
SliderTickRate:1

[Events]
//Background and Video events
0,0,"sky.jpg",0,0
//Break Periods
//Storyboard Layer 0 (Background)
//Storyboard Layer 1 (Fail)
//Storyboard Layer 2 (Pass)
//Storyboard Layer 3 (Foreground)
//Storyboard Sound Samples

[TimingPoints]
160,300,4,1,0,20,1,0
160,-111.111111111111,4,1,0,20,0,0
4960,-111.111111111111,4,1,0,30,0,0
13660,-111.111111111111,4,1,0,35,0,0
14560,-111.111111111111,4,1,0,40,0,0
24160,-111.111111111111,4,1,0,45,0,0
25360,-111.111111111111,4,1,0,50,0,0
34960,-111.111111111111,4,1,0,50,0,1
54160,-111.111111111111,4,1,0,50,0,0

[HitObjects]
271,87,4060,5,8,0:0:0:0:
271,87,4660,1,8,0:0:0:0:
296,108,4960,5,0,0:0:0:0:
311,99,7360,1,0,0:0:0:0:
300,96,8260,1,8,0:0:0:0:
303,102,9760,1,0,0:0:0:0:
303,102,12160,1,0,0:0:0:0:
302,89,13060,1,8,0:0:0:0:
308,77,13660,1,8,0:0:0:0:
308,77,14260,1,8,0:0:0:0:
303,102,14560,1,4,0:0:0:0:
302,103,15760,1,8,0:0:0:0:
302,103,16210,1,8,0:0:0:0:
304,103,16960,1,0,0:0:0:0:
303,108,18160,5,8,0:0:0:0:
303,108,18610,1,0,0:0:0:0:
303,108,19360,1,0,0:0:0:0:
169,83,20560,1,8,0:0:0:0:
169,83,21010,1,8,0:0:0:0:
169,83,21760,1,0,0:0:0:0:
213,115,22960,1,8,0:0:0:0:
213,115,23410,1,0,0:0:0:0:
247,129,24160,1,0,0:0:0:0:
261,113,25060,1,0,0:0:0:0:
299,130,25360,1,8,0:0:0:0:
299,130,25810,1,8,0:0:0:0:
230,52,26560,1,0,0:0:0:0:
285,87,27460,1,0,0:0:0:0:
244,79,27760,1,8,0:0:0:0:
258,72,28210,1,8,0:0:0:0:
268,88,28960,1,0,0:0:0:0:
260,98,29410,1,0,0:0:0:0:
233,65,30160,1,8,0:0:0:0:
280,61,30610,1,8,0:0:0:0:
229,48,31360,1,0,0:0:0:0:
157,56,31960,1,0,0:0:0:0:
157,56,32260,1,0,0:0:0:0:
178,65,32560,1,8,0:0:0:0:
440,49,33460,1,8,0:0:0:0:
375,73,33760,1,0,0:0:0:0:
365,56,34660,1,0,0:0:0:0:
373,57,34960,1,12,0:0:0:0:
311,76,35560,1,0,0:0:0:0:
324,57,35860,1,8,0:0:0:0:
315,70,36160,1,0,0:0:0:0:
328,67,36760,1,0,0:0:0:0:
328,67,37360,1,8,0:0:0:0:
307,92,37960,1,8,0:0:0:0:
307,92,38260,1,8,0:0:0:0:
307,92,38560,1,0,0:0:0:0:
314,74,39760,1,0,0:0:0:0:
300,83,40360,1,8,0:0:0:0:
300,83,40660,1,8,0:0:0:0:
300,83,40960,1,0,0:0:0:0:
300,83,41560,1,0,0:0:0:0:
312,79,42160,1,8,0:0:0:0:
312,79,42760,1,0,0:0:0:0:
312,79,43060,1,8,0:0:0:0:
303,78,43360,1,0,0:0:0:0:
303,78,44560,1,0,0:0:0:0:
311,76,45160,1,0,0:0:0:0:
324,57,45460,1,8,0:0:0:0:
339,55,45760,1,0,0:0:0:0:
328,67,46360,1,8,0:0:0:0:
328,67,46960,1,0,0:0:0:0:
307,92,47560,1,8,0:0:0:0:
307,92,47860,1,0,0:0:0:0:
307,92,48160,1,8,0:0:0:0:
314,74,49360,1,0,0:0:0:0:
300,83,49960,1,8,0:0:0:0:
300,83,50260,1,8,0:0:0:0:
300,83,50560,1,0,0:0:0:0:
300,83,51160,1,8,0:0:0:0:
312,79,51760,1,0,0:0:0:0:
312,79,52360,1,0,0:0:0:0:
312,79,52660,1,8,0:0:0:0:
303,78,52960,1,8,0:0:0:0:
295,84,53860,1,0,0:0:0:0:
295,84,54160,1,12,0:0:0:0:
329,86,55960,1,8,0:0:0:0:
329,86,56260,1,8,0:0:0:0:
329,86,56560,1,0,0:0:0:0:
329,86,56860,1,8,0:0:0:0:
329,86,57460,1,8,0:0:0:0:
329,86,57760,1,0,0:0:0:0:
329,86,58360,1,0,0:0:0:0:
326,79,58660,1,8,0:0:0:0:
327,78,58960,1,0,0:0:0:0:
305,94,59860,1,8,0:0:0:0:
307,79,60160,1,0,0:0:0:0:
305,94,60460,1,8,0:0:0:0:
314,99,61060,1,8,0:0:0:0:
307,96,61360,1,0,0:0:0:0:
307,96,61960,1,8,0:0:0:0:
307,96,62260,1,8,0:0:0:0:
307,96,62560,1,0,0:0:0:0:
307,96,63760,1,0,0:0:0:0:
288,91,64060,1,8,0:0:0:0:
304,84,64660,1,8,0:0:0:0:
304,84,64960,1,0,0:0:0:0:
304,84,65260,1,8,0:0:0:0:
304,84,65860,1,8,0:0:0:0:
304,84,66160,1,0,0:0:0:0:
307,87,66760,1,8,0:0:0:0:
307,87,67060,1,0,0:0:0:0:
294,79,67360,1,8,0:0:0:0:
314,74,68560,1,0,0:0:0:0:
290,77,68860,1,8,0:0:0:0:
300,83,69460,1,8,0:0:0:0:
300,83,69760,1,0,0:0:0:0:
300,83,70060,1,8,0:0:0:0:
300,83,70360,1,0,0:0:0:0:
312,79,70960,1,8,0:0:0:0:
312,79,71260,1,8,0:0:0:0:
312,79,71560,1,0,0:0:0:0:
308,69,72160,1,8,0:0:0:0:
314,72,73060,1,8,0:0:0:0:
303,78,73360,1,12,0:0:0:0:
