osu file format v14

[General]
AudioFilename: audio.mp3
AudioLeadIn: 0
PreviewTime: 34960
Countdown: 1
SampleSet: Soft
StackLeniency: 0.7
Mode: 1
LetterboxInBreaks: 0
WidescreenStoryboard: 0

[Editor]
DistanceSpacing: 1.5
BeatDivisor: 4
GridSize: 32
TimelineZoom: 1.1

[Metadata]
Title:Greetings
TitleUnicode:Greetings
Artist:VINXIS
ArtistUnicode:VINXIS
Creator:Jorkseljund
Version:Oni
Source:
Tags:DnB Drum and Bass
BeatmapID:1717768
BeatmapSetID:819304

[Difficulty]
HPDrainRate:6
CircleSize:5
OverallDifficulty:6
ApproachRate:5
SliderMultiplier:1.4
SliderTickRate:1

[Events]
//Background and Video events
0,0,"space-planet-light-night-sky-1080P-wallpaper.jpg",0,0
//Break Periods
//Storyboard Layer 0 (Background)
//Storyboard Layer 1 (Fail)
//Storyboard Layer 2 (Pass)
//Storyboard Layer 3 (Foreground)
//Storyboard Sound Samples

[TimingPoints]
160,300,4,2,0,100,1,0
3685,-100,4,2,0,20,0,0
4885,-100,4,2,0,80,0,0
13360,-100,4,2,0,20,0,0
14485,-100,4,2,0,80,0,0
15760,-100,4,2,0,20,0,0
16885,-100,4,2,0,80,0,0
18160,-100,4,2,0,20,0,0
19285,-100,4,2,0,80,0,0
20560,-100,4,2,0,20,0,0
21760,-100,4,2,0,80,0,0
22960,-100,4,2,0,20,0,0
24160,-100,4,2,0,80,0,0
24385,-100,4,2,0,20,0,0
24535,-100,4,2,0,80,0,0
24835,-100,4,2,0,20,0,0
24985,-100,4,2,0,80,0,0
25285,-100,4,2,0,20,0,0
26485,-100,4,2,0,80,0,0
26785,-100,4,2,0,20,0,0
26935,-100,4,2,0,80,0,0
27235,-100,4,2,0,20,0,0
27385,-100,4,2,0,80,0,0
27685,-100,4,2,0,20,0,0
28960,-100,4,2,0,40,0,0
31285,-100,4,2,0,60,0,0
33610,-100,4,2,0,30,0,0
34960,-100,4,2,0,100,0,1
54160,-100,4,2,0,80,0,0
55735,-100,4,2,0,60,0,0
56560,-100,4,2,0,100,0,1
73360,-100,4,2,0,100,0,0

[HitObjects]
295,97,3760,5,0,0:0:0:0:
193,123,3910,1,0,0:0:0:0:
142,137,3985,1,0,0:0:0:0:
192,124,4060,1,0,0:0:0:0:
250,211,4210,1,0,0:0:0:0:
307,298,4360,1,8,0:0:0:0:
393,238,4510,1,0,0:0:0:0:
479,179,4660,1,0,0:0:0:0:
479,179,4810,1,0,0:0:0:0:
294,128,4960,1,8,0:0:0:0:
107,161,5410,1,0,0:0:0:0:
107,161,5860,1,8,0:0:0:0:
304,107,7360,1,0,0:0:0:0:
208,117,7810,1,8,0:0:0:0:
208,117,8260,1,0,0:0:0:0:
258,108,9760,1,8,0:0:0:0:
485,326,10210,1,0,0:0:0:0:
286,81,10660,1,8,0:0:0:0:
131,140,12160,1,0,0:0:0:0:
440,198,12610,1,8,0:0:0:0:
233,159,13060,1,0,0:0:0:0:
395,26,13360,1,0,0:0:0:0:
336,113,13510,1,0,0:0:0:0:
330,165,13585,1,0,0:0:0:0:
330,165,13660,1,0,0:0:0:0:
235,119,13810,1,0,0:0:0:0:
331,161,13960,1,8,0:0:0:0:
227,177,14110,1,0,0:0:0:0:
123,193,14260,1,0,0:0:0:0:
19,210,14410,1,0,0:0:0:0:
122,193,14560,1,8,0:0:0:0:
294,73,15010,1,0,0:0:0:0:
96,92,15460,1,8,0:0:0:0:
296,154,15760,1,8,0:0:0:0:
260,252,15910,1,0,0:0:0:0:
109,249,16060,1,0,0:0:0:0:
166,161,16210,1,8,0:0:0:0:
356,72,16510,1,0,0:0:0:0:
276,141,16660,1,8,0:0:0:0:
367,192,16810,1,0,0:0:0:0:
458,242,16960,1,0,0:0:0:0:
159,140,17410,1,8,0:0:0:0:
213,209,17860,1,0,0:0:0:0:
404,123,18160,1,8,0:0:0:0:
334,201,18310,1,0,0:0:0:0:
334,201,18460,1,0,0:0:0:0:
266,120,18610,1,8,0:0:0:0:
331,202,18760,1,0,0:0:0:0:
265,119,18910,1,0,0:0:0:0:
369,131,19060,1,8,0:0:0:0:
453,192,19210,1,0,0:0:0:0:
368,129,19360,1,8,0:0:0:0:
126,330,19810,1,0,0:0:0:0:
414,202,20260,1,8,0:0:0:0:
230,100,20560,1,0,0:0:0:0:
271,196,20710,1,0,0:0:0:0:
365,260,20860,1,8,0:0:0:0:
297,179,21010,1,0,0:0:0:0:
297,179,21310,1,8,0:0:0:0:
297,179,21460,1,0,0:0:0:0:
195,153,21610,1,0,0:0:0:0:
248,62,21760,1,0,0:0:0:0:
310,97,22210,1,8,0:0:0:0:
333,124,22660,1,0,0:0:0:0:
123,143,22960,1,8,0:0:0:0:
211,198,23110,1,0,0:0:0:0:
299,253,23260,1,0,0:0:0:0:
299,253,23410,1,8,0:0:0:0:
299,253,23560,1,0,0:0:0:0:
299,253,23710,1,0,0:0:0:0:
299,253,23860,1,8,0:0:0:0:
299,253,24010,1,0,0:0:0:0:
299,253,24160,1,8,0:0:0:0:
178,81,24460,1,0,0:0:0:0:
248,159,24610,1,0,0:0:0:0:
436,66,24910,1,0,0:0:0:0:
361,139,25060,1,8,0:0:0:0:
179,33,25360,1,8,0:0:0:0:
243,115,25510,1,0,0:0:0:0:
308,196,25660,1,0,0:0:0:0:
242,114,25810,1,8,0:0:0:0:
307,195,25960,1,0,0:0:0:0:
241,113,26110,1,0,0:0:0:0:
307,194,26260,1,8,0:0:0:0:
240,112,26410,1,0,0:0:0:0:
306,193,26560,1,8,0:0:0:0:
103,248,26860,1,0,0:0:0:0:
205,224,27010,1,8,0:0:0:0:
411,183,27310,1,8,0:0:0:0:
308,203,27460,1,0,0:0:0:0:
178,37,27760,1,8,0:0:0:0:
268,90,27910,1,8,0:0:0:0:
358,144,28060,1,0,0:0:0:0:
267,89,28210,1,8,0:0:0:0:
356,143,28360,1,0,0:0:0:0:
266,88,28510,1,0,0:0:0:0:
355,143,28660,1,8,0:0:0:0:
265,88,28810,1,0,0:0:0:0:
354,142,28960,1,8,0:0:0:0:
178,37,29110,1,8,0:0:0:0:
268,90,29260,1,8,0:0:0:0:
358,144,29410,1,8,0:0:0:0:
267,89,29560,1,0,0:0:0:0:
356,143,29710,1,0,0:0:0:0:
266,88,29860,1,8,0:0:0:0:
355,143,30010,1,0,0:0:0:0:
265,88,30160,1,8,0:0:0:0:
354,142,30310,1,0,0:0:0:0:
178,37,30460,1,0,0:0:0:0:
268,90,30610,1,8,0:0:0:0:
358,144,30760,1,0,0:0:0:0:
267,89,30910,1,0,0:0:0:0:
356,143,31060,1,8,0:0:0:0:
266,88,31210,1,0,0:0:0:0:
355,143,31360,1,8,0:0:0:0:
354,142,31810,1,0,0:0:0:0:
149,92,32185,1,0,0:0:0:0:
195,115,32260,1,0,0:0:0:0:
145,132,32335,1,0,0:0:0:0:
270,94,32410,1,0,0:0:0:0:
241,138,32485,1,0,0:0:0:0:
262,198,32560,1,6,0:0:0:0:
466,150,32860,1,0,0:0:0:0:
271,229,33010,1,8,0:0:0:0:
466,152,33310,1,0,0:0:0:0:
368,190,33460,1,8,0:0:0:0:
164,139,33760,1,4,0:0:0:0:
428,309,34210,1,0,0:0:0:0:
173,123,34660,1,0,0:0:0:0:
378,81,34960,1,6,0:0:0:0:
223,223,35260,1,8,0:0:0:0:
317,178,35410,1,0,0:0:0:0:
213,198,35560,1,0,0:0:0:0:
316,198,35710,1,0,0:0:0:0:
316,198,35860,1,8,0:0:0:0:
150,68,36160,1,0,0:0:0:0:
237,125,36310,1,0,0:0:0:0:
237,125,36460,1,8,0:0:0:0:
340,109,36610,1,0,0:0:0:0:
392,107,36685,1,0,0:0:0:0:
392,107,36760,1,8,0:0:0:0:
366,152,36835,1,8,0:0:0:0:
341,198,36910,1,0,0:0:0:0:
237,179,37060,1,0,0:0:0:0:
133,159,37210,1,8,0:0:0:0:
224,211,37360,1,0,0:0:0:0:
428,256,37660,1,0,0:0:0:0:
325,235,37810,1,0,0:0:0:0:
220,241,37960,1,8,0:0:0:0:
373,245,38110,1,8,0:0:0:0:
373,245,38260,1,0,0:0:0:0:
189,143,38560,1,0,0:0:0:0:
96,92,38710,1,8,0:0:0:0:
188,142,38860,1,0,0:0:0:0:
290,117,39010,1,8,0:0:0:0:
341,105,39085,1,0,0:0:0:0:
289,117,39160,1,8,0:0:0:0:
340,105,39235,1,8,0:0:0:0:
289,117,39310,1,0,0:0:0:0:
242,22,39460,1,0,0:0:0:0:
214,123,39610,1,8,0:0:0:0:
214,123,39760,1,0,0:0:0:0:
403,214,40060,1,8,0:0:0:0:
308,168,40210,1,0,0:0:0:0:
216,218,40360,1,0,0:0:0:0:
496,259,40510,1,0,0:0:0:0:
401,213,40660,1,8,0:0:0:0:
211,122,40960,1,8,0:0:0:0:
117,75,41110,1,8,0:0:0:0:
210,121,41260,1,0,0:0:0:0:
314,106,41410,1,0,0:0:0:0:
366,102,41485,1,0,0:0:0:0:
313,106,41560,1,8,0:0:0:0:
365,102,41635,1,0,0:0:0:0:
312,106,41710,1,0,0:0:0:0:
318,210,41860,1,0,0:0:0:0:
324,314,42010,1,8,0:0:0:0:
235,258,42160,1,0,0:0:0:0:
57,146,42460,1,0,0:0:0:0:
146,201,42610,1,0,0:0:0:0:
138,43,42760,1,8,0:0:0:0:
97,171,42910,1,8,0:0:0:0:
97,171,43060,1,0,0:0:0:0:
303,131,43360,1,0,0:0:0:0:
406,112,43510,1,0,0:0:0:0:
303,133,43660,1,8,0:0:0:0:
203,165,43810,1,0,0:0:0:0:
153,182,43885,1,0,0:0:0:0:
203,166,43960,1,8,0:0:0:0:
223,62,44110,1,0,0:0:0:0:
315,110,44260,1,0,0:0:0:0:
221,62,44410,1,8,0:0:0:0:
378,81,44560,1,6,0:0:0:0:
223,223,44860,1,8,0:0:0:0:
317,178,45010,1,0,0:0:0:0:
213,196,45160,1,0,0:0:0:0:
316,198,45310,1,0,0:0:0:0:
316,198,45460,1,8,0:0:0:0:
150,68,45760,1,0,0:0:0:0:
237,125,45910,1,0,0:0:0:0:
237,125,46060,1,8,0:0:0:0:
340,109,46210,1,0,0:0:0:0:
392,107,46285,1,0,0:0:0:0:
392,107,46360,1,8,0:0:0:0:
366,152,46435,1,8,0:0:0:0:
341,198,46510,1,0,0:0:0:0:
237,179,46660,1,0,0:0:0:0:
133,159,46810,1,8,0:0:0:0:
224,211,46960,1,0,0:0:0:0:
428,256,47260,1,0,0:0:0:0:
325,235,47410,1,0,0:0:0:0:
220,241,47560,1,8,0:0:0:0:
373,245,47710,1,8,0:0:0:0:
373,245,47860,1,0,0:0:0:0:
189,143,48160,1,0,0:0:0:0:
96,92,48310,1,8,0:0:0:0:
188,142,48460,1,0,0:0:0:0:
290,117,48610,1,8,0:0:0:0:
341,105,48685,1,0,0:0:0:0:
289,117,48760,1,8,0:0:0:0:
340,105,48835,1,8,0:0:0:0:
289,117,48910,1,0,0:0:0:0:
242,22,49060,1,0,0:0:0:0:
214,123,49210,1,8,0:0:0:0:
214,123,49360,1,0,0:0:0:0:
403,214,49660,1,8,0:0:0:0:
308,168,49810,1,0,0:0:0:0:
221,227,49960,1,0,0:0:0:0:
496,259,50110,1,0,0:0:0:0:
401,213,50260,1,8,0:0:0:0:
211,122,50560,1,8,0:0:0:0:
117,75,50710,1,8,0:0:0:0:
210,121,50860,1,0,0:0:0:0:
314,106,51010,1,0,0:0:0:0:
366,102,51085,1,8,0:0:0:0:
313,106,51160,1,8,0:0:0:0:
365,102,51235,1,0,0:0:0:0:
312,106,51310,1,0,0:0:0:0:
318,210,51460,1,0,0:0:0:0:
324,314,51610,1,8,0:0:0:0:
235,258,51760,1,0,0:0:0:0:
57,146,52060,1,0,0:0:0:0:
146,201,52210,1,0,0:0:0:0:
183,103,52360,1,8,0:0:0:0:
97,171,52510,1,8,0:0:0:0:
97,171,52660,1,0,0:0:0:0:
303,131,52960,1,0,0:0:0:0:
406,112,53110,1,0,0:0:0:0:
303,133,53260,1,8,0:0:0:0:
203,165,53410,1,0,0:0:0:0:
153,182,53485,1,0,0:0:0:0:
203,166,53560,1,8,0:0:0:0:
223,62,53710,1,0,0:0:0:0:
315,110,53860,1,0,0:0:0:0:
221,62,54010,1,8,0:0:0:0:
325,60,54160,1,6,0:0:0:0:
350,373,54610,1,0,0:0:0:0:
313,60,55060,1,8,0:0:0:0:
130,157,55810,1,0,0:0:0:0:
181,166,55885,1,0,0:0:0:0:
181,166,55960,1,8,0:0:0:0:
282,139,56110,1,0,0:0:0:0:
282,139,56260,1,0,0:0:0:0:
282,139,56410,1,8,0:0:0:0:
205,66,56560,1,6,0:0:0:0:
411,92,56860,1,0,0:0:0:0:
359,183,57010,1,0,0:0:0:0:
292,264,57160,1,8,0:0:0:0:
149,193,57310,1,8,0:0:0:0:
44,198,57460,1,0,0:0:0:0:
242,131,57760,1,0,0:0:0:0:
341,98,58060,1,8,0:0:0:0:
237,80,58210,1,8,0:0:0:0:
132,91,58360,1,0,0:0:0:0:
216,153,58510,1,0,0:0:0:0:
298,216,58660,1,8,0:0:0:0:
245,222,58735,1,0,0:0:0:0:
348,123,58810,1,0,0:0:0:0:
301,147,58885,1,0,0:0:0:0:
272,50,58960,1,8,0:0:0:0:
345,246,59260,1,8,0:0:0:0:
308,147,59410,1,0,0:0:0:0:
211,106,59560,1,0,0:0:0:0:
293,106,59710,1,0,0:0:0:0:
293,106,59860,1,8,0:0:0:0:
122,229,60160,1,0,0:0:0:0:
217,184,60310,1,0,0:0:0:0:
314,144,60460,1,8,0:0:0:0:
340,109,60610,1,0,0:0:0:0:
392,107,60685,1,0,0:0:0:0:
392,107,60760,1,8,0:0:0:0:
366,152,60835,1,8,0:0:0:0:
341,198,60910,1,0,0:0:0:0:
237,179,61060,1,0,0:0:0:0:
133,159,61210,1,8,0:0:0:0:
224,211,61360,1,0,0:0:0:0:
428,256,61660,1,0,0:0:0:0:
325,235,61810,1,0,0:0:0:0:
256,155,61960,1,8,0:0:0:0:
373,245,62110,1,8,0:0:0:0:
373,245,62260,1,0,0:0:0:0:
189,143,62560,1,0,0:0:0:0:
96,92,62710,1,8,0:0:0:0:
188,142,62860,1,0,0:0:0:0:
290,117,63010,1,8,0:0:0:0:
341,105,63085,1,0,0:0:0:0:
289,117,63160,1,8,0:0:0:0:
340,105,63235,1,8,0:0:0:0:
289,117,63310,1,0,0:0:0:0:
242,22,63460,1,0,0:0:0:0:
214,123,63610,1,8,0:0:0:0:
214,123,63760,1,0,0:0:0:0:
403,214,64060,1,8,0:0:0:0:
308,168,64210,1,0,0:0:0:0:
249,255,64360,1,0,0:0:0:0:
496,259,64510,1,0,0:0:0:0:
401,213,64660,1,8,0:0:0:0:
211,122,64960,1,8,0:0:0:0:
117,75,65110,1,8,0:0:0:0:
210,121,65260,1,0,0:0:0:0:
314,106,65410,1,0,0:0:0:0:
366,102,65485,1,0,0:0:0:0:
313,106,65560,1,8,0:0:0:0:
365,102,65635,1,0,0:0:0:0:
312,106,65710,1,0,0:0:0:0:
318,210,65860,1,0,0:0:0:0:
324,314,66010,1,8,0:0:0:0:
235,258,66160,1,0,0:0:0:0:
57,146,66460,1,0,0:0:0:0:
146,201,66610,1,0,0:0:0:0:
179,101,66760,1,8,0:0:0:0:
97,171,66910,1,8,0:0:0:0:
97,171,67060,1,0,0:0:0:0:
303,131,67360,1,0,0:0:0:0:
406,112,67510,1,0,0:0:0:0:
303,133,67660,1,8,0:0:0:0:
203,165,67810,1,0,0:0:0:0:
153,182,67885,1,0,0:0:0:0:
203,166,67960,1,8,0:0:0:0:
223,62,68110,1,0,0:0:0:0:
315,110,68260,1,0,0:0:0:0:
221,62,68410,1,8,0:0:0:0:
378,81,68560,1,8,0:0:0:0:
223,223,68860,1,8,0:0:0:0:
317,178,69010,1,0,0:0:0:0:
212,164,69160,1,0,0:0:0:0:
316,198,69310,1,0,0:0:0:0:
316,198,69460,1,8,0:0:0:0:
150,68,69760,1,8,0:0:0:0:
237,125,69910,1,0,0:0:0:0:
237,125,70060,1,8,0:0:0:0:
340,109,70210,1,8,0:0:0:0:
316,198,70360,1,8,0:0:0:0:
316,198,70435,1,0,0:0:0:0:
316,198,70510,1,8,0:0:0:0:
218,158,70660,1,0,0:0:0:0:
120,119,70810,1,8,0:0:0:0:
178,206,70960,1,0,0:0:0:0:
296,379,71260,1,8,0:0:0:0:
291,326,71335,1,0,0:0:0:0:
286,273,71410,1,8,0:0:0:0:
306,170,71560,1,0,0:0:0:0:
327,67,71710,1,0,0:0:0:0:
327,67,71860,1,0,0:0:0:0:
275,78,71935,1,0,0:0:0:0:
223,90,72010,1,0,0:0:0:0:
126,131,72160,1,8,0:0:0:0:
322,205,72460,1,0,0:0:0:0:
322,205,72610,1,0,0:0:0:0:
245,133,72760,1,8,0:0:0:0:
112,209,72910,1,8,0:0:0:0:
216,205,73060,1,0,0:0:0:0:
151,121,73210,1,0,0:0:0:0:
326,26,73360,1,6,0:0:0:0:
293,339,73810,1,0,0:0:0:0:
326,25,74260,1,8,0:0:0:0:
