osu file format v14

[General]
AudioFilename: audio.mp3
AudioLeadIn: 0
PreviewTime: 34960
Countdown: 1
SampleSet: None
StackLeniency: 0.7
Mode: 1
LetterboxInBreaks: 0
WidescreenStoryboard: 1

[Editor]
DistanceSpacing: 1.5
BeatDivisor: 4
GridSize: 32
TimelineZoom: 1

[Metadata]
Title:Greetings
TitleUnicode:Greetings
Artist:VINXIS
ArtistUnicode:VINXIS
Creator:Jorkseljund
Version:Muzukashii
Source:
Tags:DnB Drum and Bass
BeatmapID:1717767
BeatmapSetID:819304

[Difficulty]
HPDrainRate:5
CircleSize:5
OverallDifficulty:5
ApproachRate:5
SliderMultiplier:1.4
SliderTickRate:1

[Events]
//Background and Video events
0,0,"space-planet-light-night-sky-1080P-wallpaper.jpg",0,0
//Break Periods
//Storyboard Layer 0 (Background)
//Storyboard Layer 1 (Fail)
//Storyboard Layer 2 (Pass)
//Storyboard Layer 3 (Foreground)
//Storyboard Sound Samples

[TimingPoints]
160,300,4,2,0,100,1,0
3685,-100,4,2,0,20,0,0
4885,-100,4,2,0,80,0,0
13360,-100,4,2,0,20,0,0
14485,-100,4,2,0,80,0,0
15760,-100,4,2,0,20,0,0
16885,-100,4,2,0,80,0,0
18160,-100,4,2,0,20,0,0
19285,-100,4,2,0,80,0,0
20560,-100,4,2,0,20,0,0
21760,-100,4,2,0,80,0,0
22960,-100,4,2,0,20,0,0
24160,-100,4,2,0,80,0,0
24385,-100,4,2,0,20,0,0
24535,-100,4,2,0,80,0,0
24835,-100,4,2,0,20,0,0
24985,-100,4,2,0,80,0,0
25285,-100,4,2,0,20,0,0
26485,-100,4,2,0,80,0,0
26785,-100,4,2,0,20,0,0
26935,-100,4,2,0,80,0,0
27235,-100,4,2,0,20,0,0
27385,-100,4,2,0,80,0,0
27685,-100,4,2,0,20,0,0
28960,-100,4,2,0,40,0,0
31285,-100,4,2,0,60,0,0
33610,-100,4,2,0,30,0,0
34960,-100,4,2,0,100,0,1
54160,-100,4,2,0,80,0,0
55735,-100,4,2,0,60,0,0
56560,-100,4,2,0,100,0,1
73360,-100,4,2,0,100,0,0

[HitObjects]
164,172,3760,1,0,0:0:0:0:
373,166,4060,1,0,0:0:0:0:
271,192,4210,1,0,0:0:0:0:
247,121,4510,1,0,0:0:0:0:
325,190,4660,1,0,0:0:0:0:
246,120,4810,1,0,0:0:0:0:
324,190,4960,1,8,0:0:0:0:
9,193,5410,1,0,0:0:0:0:
323,214,5860,1,8,0:0:0:0:
353,94,7360,1,0,0:0:0:0:
38,104,7810,1,8,0:0:0:0:
351,72,8260,1,0,0:0:0:0:
289,132,9760,1,8,0:0:0:0:
289,132,10210,1,0,0:0:0:0:
289,132,10660,1,8,0:0:0:0:
274,112,12160,1,0,0:0:0:0:
274,112,12610,1,8,0:0:0:0:
274,112,13060,1,0,0:0:0:0:
135,270,13360,1,0,0:0:0:0:
323,177,13660,1,0,0:0:0:0:
246,248,13810,1,0,0:0:0:0:
401,106,14110,1,0,0:0:0:0:
323,177,14260,1,0,0:0:0:0:
246,248,14410,1,0,0:0:0:0:
192,157,14560,1,8,0:0:0:0:
476,22,15010,1,0,0:0:0:0:
201,176,15460,1,8,0:0:0:0:
399,106,15760,1,0,0:0:0:0:
364,313,16060,1,8,0:0:0:0:
381,209,16210,1,0,0:0:0:0:
184,136,16510,1,0,0:0:0:0:
285,164,16660,1,8,0:0:0:0:
254,63,16810,1,0,0:0:0:0:
85,229,16960,1,0,0:0:0:0:
452,217,17410,1,8,0:0:0:0:
189,225,17860,1,0,0:0:0:0:
341,80,18160,1,8,0:0:0:0:
289,283,18460,1,0,0:0:0:0:
315,181,18610,1,8,0:0:0:0:
105,181,18910,1,0,0:0:0:0:
210,181,19060,1,8,0:0:0:0:
210,181,19210,1,0,0:0:0:0:
306,140,19360,1,8,0:0:0:0:
369,134,19810,1,0,0:0:0:0:
369,134,20260,1,8,0:0:0:0:
160,112,20560,1,0,0:0:0:0:
368,133,20860,1,8,0:0:0:0:
263,122,21010,1,0,0:0:0:0:
402,279,21310,1,0,0:0:0:0:
339,194,21460,1,8,0:0:0:0:
235,208,21610,1,8,0:0:0:0:
143,156,21760,1,0,0:0:0:0:
444,65,22210,1,8,0:0:0:0:
146,169,22660,1,0,0:0:0:0:
353,135,22960,1,8,0:0:0:0:
152,197,23260,1,0,0:0:0:0:
252,166,23410,1,8,0:0:0:0:
411,302,23710,1,0,0:0:0:0:
331,233,23860,1,8,0:0:0:0:
331,233,24010,1,0,0:0:0:0:
249,166,24160,1,8,0:0:0:0:
44,120,24460,1,8,0:0:0:0:
146,143,24610,1,0,0:0:0:0:
320,259,24910,1,0,0:0:0:0:
232,200,25060,1,8,0:0:0:0:
422,111,25360,1,0,0:0:0:0:
214,142,25660,1,0,0:0:0:0:
318,127,25810,1,8,0:0:0:0:
119,59,26110,1,0,0:0:0:0:
218,93,26260,1,0,0:0:0:0:
317,127,26410,1,8,0:0:0:0:
273,222,26560,1,0,0:0:0:0:
273,222,27010,1,8,0:0:0:0:
273,222,27460,1,0,0:0:0:0:
400,54,27760,1,8,0:0:0:0:
318,119,27910,1,0,0:0:0:0:
237,187,28060,1,0,0:0:0:0:
317,119,28210,1,8,0:0:0:0:
107,125,28510,1,0,0:0:0:0:
211,122,28660,1,8,0:0:0:0:
211,122,28810,1,0,0:0:0:0:
308,161,28960,1,8,0:0:0:0:
125,264,29260,1,0,0:0:0:0:
360,183,29410,1,0,0:0:0:0:
154,140,29710,1,0,0:0:0:0:
360,183,29860,1,8,0:0:0:0:
215,31,30160,1,0,0:0:0:0:
287,106,30310,1,0,0:0:0:0:
358,182,30460,1,8,0:0:0:0:
286,105,30610,1,0,0:0:0:0:
132,248,30910,1,8,0:0:0:0:
209,177,31060,1,8,0:0:0:0:
133,249,31210,1,0,0:0:0:0:
358,182,31360,1,0,0:0:0:0:
325,210,31810,1,8,0:0:0:0:
13,165,32260,1,0,0:0:0:0:
220,132,32560,1,8,0:0:0:0:
424,82,32860,1,0,0:0:0:0:
322,107,33010,1,8,0:0:0:0:
322,107,33310,1,0,0:0:0:0:
322,107,33460,1,8,0:0:0:0:
271,199,33610,1,0,0:0:0:0:
271,199,33760,1,4,0:0:0:0:
271,199,34210,1,0,0:0:0:0:
271,199,34660,1,0,0:0:0:0:
124,48,34960,1,6,0:0:0:0:
330,88,35260,1,8,0:0:0:0:
330,88,35410,1,0,0:0:0:0:
330,88,35710,1,0,0:0:0:0:
330,88,35860,1,8,0:0:0:0:
140,178,36160,1,0,0:0:0:0:
329,88,36460,1,8,0:0:0:0:
175,230,36760,1,0,0:0:0:0:
213,194,36835,1,0,0:0:0:0:
252,159,36910,1,0,0:0:0:0:
339,216,37060,1,8,0:0:0:0:
419,21,37360,1,0,0:0:0:0:
332,212,37660,1,0,0:0:0:0:
375,116,37810,1,8,0:0:0:0:
167,149,38110,1,8,0:0:0:0:
270,133,38260,1,0,0:0:0:0:
86,30,38560,1,0,0:0:0:0:
269,132,38860,1,8,0:0:0:0:
164,132,39010,1,0,0:0:0:0:
59,133,39160,1,0,0:0:0:0:
59,133,39310,1,0,0:0:0:0:
59,133,39460,1,8,0:0:0:0:
267,107,39760,1,8,0:0:0:0:
261,316,40060,1,8,0:0:0:0:
264,211,40210,1,0,0:0:0:0:
93,87,40510,1,0,0:0:0:0:
177,148,40660,1,8,0:0:0:0:
383,107,40960,1,0,0:0:0:0:
177,149,41260,1,8,0:0:0:0:
385,172,41560,1,0,0:0:0:0:
332,167,41635,1,0,0:0:0:0:
332,167,41710,1,0,0:0:0:0:
262,88,41860,1,8,0:0:0:0:
419,21,42160,1,0,0:0:0:0:
332,212,42460,1,0,0:0:0:0:
375,116,42610,1,8,0:0:0:0:
167,149,42910,1,8,0:0:0:0:
270,133,43060,1,0,0:0:0:0:
86,30,43360,1,0,0:0:0:0:
269,132,43660,1,8,0:0:0:0:
164,132,43810,1,0,0:0:0:0:
59,133,43960,1,0,0:0:0:0:
59,133,44110,1,0,0:0:0:0:
59,133,44260,1,8,0:0:0:0:
267,107,44560,1,8,0:0:0:0:
261,316,44860,1,8,0:0:0:0:
264,211,45010,1,0,0:0:0:0:
93,87,45310,1,0,0:0:0:0:
177,148,45460,1,8,0:0:0:0:
383,107,45760,1,0,0:0:0:0:
177,149,46060,1,8,0:0:0:0:
385,172,46360,1,0,0:0:0:0:
332,167,46435,1,0,0:0:0:0:
332,167,46510,1,0,0:0:0:0:
262,88,46660,1,8,0:0:0:0:
419,21,46960,1,0,0:0:0:0:
332,212,47260,1,0,0:0:0:0:
375,116,47410,1,8,0:0:0:0:
167,149,47710,1,8,0:0:0:0:
270,133,47860,1,0,0:0:0:0:
86,30,48160,1,0,0:0:0:0:
269,132,48460,1,8,0:0:0:0:
164,132,48610,1,0,0:0:0:0:
59,133,48760,1,0,0:0:0:0:
59,133,48910,1,0,0:0:0:0:
59,133,49060,1,8,0:0:0:0:
267,107,49360,1,8,0:0:0:0:
261,316,49660,1,8,0:0:0:0:
264,211,49810,1,0,0:0:0:0:
93,87,50110,1,0,0:0:0:0:
177,148,50260,1,8,0:0:0:0:
383,107,50560,1,0,0:0:0:0:
177,149,50860,1,8,0:0:0:0:
385,172,51160,1,0,0:0:0:0:
332,167,51235,1,0,0:0:0:0:
332,167,51310,1,0,0:0:0:0:
262,88,51460,1,8,0:0:0:0:
419,21,51760,1,0,0:0:0:0:
332,212,52060,1,0,0:0:0:0:
375,116,52210,1,8,0:0:0:0:
167,149,52510,1,8,0:0:0:0:
270,133,52660,1,0,0:0:0:0:
86,30,52960,1,0,0:0:0:0:
269,132,53260,1,8,0:0:0:0:
164,132,53410,1,0,0:0:0:0:
59,133,53560,1,0,0:0:0:0:
59,133,53710,1,0,0:0:0:0:
59,133,53860,1,8,0:0:0:0:
267,107,54160,1,6,0:0:0:0:
263,207,54610,1,0,0:0:0:0:
263,207,55060,1,8,0:0:0:0:
140,101,55810,1,0,0:0:0:0:
228,158,55960,1,8,0:0:0:0:
139,100,56110,1,0,0:0:0:0:
226,157,56260,1,0,0:0:0:0:
138,99,56410,1,8,0:0:0:0:
419,21,56560,1,6,0:0:0:0:
332,212,56860,1,0,0:0:0:0:
375,116,57010,1,8,0:0:0:0:
167,149,57310,1,8,0:0:0:0:
270,133,57460,1,0,0:0:0:0:
86,30,57760,1,0,0:0:0:0:
269,132,58060,1,8,0:0:0:0:
164,132,58210,1,8,0:0:0:0:
59,133,58360,1,0,0:0:0:0:
59,133,58510,1,0,0:0:0:0:
59,133,58660,1,8,0:0:0:0:
111,128,58735,1,8,0:0:0:0:
163,123,58810,1,8,0:0:0:0:
267,107,58960,1,8,0:0:0:0:
261,316,59260,1,8,0:0:0:0:
264,211,59410,1,0,0:0:0:0:
93,87,59710,1,0,0:0:0:0:
177,148,59860,1,8,0:0:0:0:
383,107,60160,1,0,0:0:0:0:
177,149,60460,1,8,0:0:0:0:
385,172,60760,1,0,0:0:0:0:
332,167,60835,1,0,0:0:0:0:
332,167,60910,1,0,0:0:0:0:
262,88,61060,1,8,0:0:0:0:
419,21,61360,1,0,0:0:0:0:
332,212,61660,1,0,0:0:0:0:
375,116,61810,1,8,0:0:0:0:
167,149,62110,1,8,0:0:0:0:
270,133,62260,1,0,0:0:0:0:
86,30,62560,1,0,0:0:0:0:
269,132,62860,1,8,0:0:0:0:
164,132,63010,1,0,0:0:0:0:
59,133,63160,1,0,0:0:0:0:
59,133,63310,1,0,0:0:0:0:
59,133,63460,1,8,0:0:0:0:
267,107,63760,1,8,0:0:0:0:
261,316,64060,1,8,0:0:0:0:
264,211,64210,1,0,0:0:0:0:
93,87,64510,1,0,0:0:0:0:
177,148,64660,1,8,0:0:0:0:
383,107,64960,1,0,0:0:0:0:
177,149,65260,1,8,0:0:0:0:
385,172,65560,1,0,0:0:0:0:
332,167,65635,1,0,0:0:0:0:
332,167,65710,1,0,0:0:0:0:
262,88,65860,1,8,0:0:0:0:
419,21,66160,1,0,0:0:0:0:
332,212,66460,1,0,0:0:0:0:
375,116,66610,1,8,0:0:0:0:
167,149,66910,1,8,0:0:0:0:
270,133,67060,1,0,0:0:0:0:
86,30,67360,1,0,0:0:0:0:
269,132,67660,1,8,0:0:0:0:
164,132,67810,1,0,0:0:0:0:
59,133,67960,1,0,0:0:0:0:
59,133,68110,1,0,0:0:0:0:
59,133,68260,1,8,0:0:0:0:
267,107,68560,1,8,0:0:0:0:
261,316,68860,1,8,0:0:0:0:
264,211,69010,1,0,0:0:0:0:
93,87,69310,1,0,0:0:0:0:
177,148,69460,1,8,0:0:0:0:
383,107,69760,1,0,0:0:0:0:
278,110,69910,1,0,0:0:0:0:
177,149,70060,1,8,0:0:0:0:
74,127,70210,1,8,0:0:0:0:
385,172,70360,1,0,0:0:0:0:
332,167,70435,1,0,0:0:0:0:
332,167,70510,1,0,0:0:0:0:
262,88,70660,1,8,0:0:0:0:
58,140,70960,1,0,0:0:0:0:
154,180,71260,1,8,0:0:0:0:
154,180,71335,1,8,0:0:0:0:
154,180,71410,1,8,0:0:0:0:
235,113,71560,1,0,0:0:0:0:
438,165,71860,1,0,0:0:0:0:
387,151,71935,1,0,0:0:0:0:
336,138,72010,1,0,0:0:0:0:
231,134,72160,1,8,0:0:0:0:
272,86,72610,1,0,0:0:0:0:
291,82,73060,1,8,0:0:0:0:
107,183,73360,1,6,0:0:0:0:
398,64,73810,1,0,0:0:0:0:
132,232,74260,1,8,0:0:0:0:
