osu file format v14

[General]
AudioFilename: audio.mp3
AudioLeadIn: 0
PreviewTime: 34960
Countdown: 1
SampleSet: None
StackLeniency: 0.7
Mode: 1
LetterboxInBreaks: 0
WidescreenStoryboard: 1

[Editor]
DistanceSpacing: 1.5
BeatDivisor: 4
GridSize: 32
TimelineZoom: 1

[Metadata]
Title:Greetings
TitleUnicode:Greetings
Artist:VINXIS
ArtistUnicode:VINXIS
Creator:Jorkseljund
Version:Kantan
Source:
Tags:DnB Drum and Bass
BeatmapID:1717766
BeatmapSetID:819304

[Difficulty]
HPDrainRate:3
CircleSize:5
OverallDifficulty:3
ApproachRate:5
SliderMultiplier:1.4
SliderTickRate:1

[Events]
//Background and Video events
0,0,"space-planet-light-night-sky-1080P-wallpaper.jpg",0,0
//Break Periods
//Storyboard Layer 0 (Background)
//Storyboard Layer 1 (Fail)
//Storyboard Layer 2 (Pass)
//Storyboard Layer 3 (Foreground)
//Storyboard Sound Samples

[TimingPoints]
160,300,4,2,0,100,1,0
3685,-100,4,2,0,20,0,0
4885,-100,4,2,0,80,0,0
13360,-100,4,2,0,20,0,0
14485,-100,4,2,0,80,0,0
15760,-100,4,2,0,20,0,0
16885,-100,4,2,0,80,0,0
18160,-100,4,2,0,20,0,0
19285,-100,4,2,0,80,0,0
20560,-100,4,2,0,20,0,0
21760,-100,4,2,0,80,0,0
22960,-100,4,2,0,20,0,0
24160,-100,4,2,0,80,0,0
24385,-100,4,2,0,20,0,0
24535,-100,4,2,0,80,0,0
24835,-100,4,2,0,20,0,0
24985,-100,4,2,0,80,0,0
25285,-100,4,2,0,20,0,0
26485,-100,4,2,0,80,0,0
26785,-100,4,2,0,20,0,0
26935,-100,4,2,0,80,0,0
27235,-100,4,2,0,20,0,0
27385,-100,4,2,0,80,0,0
27685,-100,4,2,0,20,0,0
28960,-100,4,2,0,40,0,0
31285,-100,4,2,0,60,0,0
33610,-100,4,2,0,30,0,0
34960,-100,4,2,0,100,0,1
54160,-100,4,2,0,80,0,0
55735,-100,4,2,0,60,0,0
56560,-100,4,2,0,100,0,1
73360,-100,4,2,0,100,0,0

[HitObjects]
256,166,3760,5,0,0:0:0:0:
264,60,4960,1,8,0:0:0:0:
117,115,7360,1,0,0:0:0:0:
439,100,9760,1,8,0:0:0:0:
406,164,12160,1,0,0:0:0:0:
166,125,13360,1,0,0:0:0:0:
259,92,14560,1,8,0:0:0:0:
231,150,15760,1,0,0:0:0:0:
223,81,16960,1,0,0:0:0:0:
176,118,18160,1,8,0:0:0:0:
293,97,19360,1,0,0:0:0:0:
293,97,20560,1,0,0:0:0:0:
216,98,21760,1,8,0:0:0:0:
299,144,22960,1,8,0:0:0:0:
219,149,24160,1,8,0:0:0:0:
246,110,25360,1,0,0:0:0:0:
162,147,26560,1,0,0:0:0:0:
258,148,27760,1,8,0:0:0:0:
203,152,28960,1,8,0:0:0:0:
254,131,30160,1,0,0:0:0:0:
138,98,31360,1,0,0:0:0:0:
138,98,32560,1,8,0:0:0:0:
206,124,33760,1,4,0:0:0:0:
206,124,34960,1,6,0:0:0:0:
225,146,36160,1,0,0:0:0:0:
225,146,37360,1,8,0:0:0:0:
151,123,38560,1,8,0:0:0:0:
242,148,39010,1,0,0:0:0:0:
242,148,39460,1,8,0:0:0:0:
88,4,39760,1,8,0:0:0:0:
242,148,40960,1,0,0:0:0:0:
207,109,42160,1,0,0:0:0:0:
207,109,43360,1,8,0:0:0:0:
207,109,43810,1,0,0:0:0:0:
207,109,44260,1,8,0:0:0:0:
98,97,44560,1,8,0:0:0:0:
206,124,45760,1,0,0:0:0:0:
225,146,46960,1,0,0:0:0:0:
225,146,48160,1,8,0:0:0:0:
376,123,48610,1,0,0:0:0:0:
69,194,49060,1,8,0:0:0:0:
151,123,49360,1,8,0:0:0:0:
242,148,49960,1,0,0:0:0:0:
242,148,50560,1,8,0:0:0:0:
242,148,51760,1,0,0:0:0:0:
207,109,52960,1,8,0:0:0:0:
285,119,53410,1,0,0:0:0:0:
285,119,53860,1,8,0:0:0:0:
207,109,54160,1,8,0:0:0:0:
207,109,55360,1,0,0:0:0:0:
206,124,56560,1,6,0:0:0:0:
225,146,57760,1,0,0:0:0:0:
232,95,58360,1,8,0:0:0:0:
225,146,58960,1,0,0:0:0:0:
151,123,60160,1,8,0:0:0:0:
242,148,60760,1,0,0:0:0:0:
242,148,61360,1,8,0:0:0:0:
242,148,62560,1,8,0:0:0:0:
94,106,63010,1,0,0:0:0:0:
94,106,63460,1,8,0:0:0:0:
207,109,63760,1,0,0:0:0:0:
207,109,64960,1,8,0:0:0:0:
207,109,65560,1,0,0:0:0:0:
207,109,66160,1,8,0:0:0:0:
206,124,67360,1,0,0:0:0:0:
326,106,67810,1,0,0:0:0:0:
326,106,68260,1,8,0:0:0:0:
225,146,68560,1,8,0:0:0:0:
225,146,69760,1,8,0:0:0:0:
151,123,70960,1,8,0:0:0:0:
242,148,71560,1,0,0:0:0:0:
242,148,72160,1,8,0:0:0:0:
120,85,72610,1,0,0:0:0:0:
120,85,73060,1,8,0:0:0:0:
242,148,73360,1,6,0:0:0:0:
