osu file format v14

[General]
AudioFilename: audio.mp3
AudioLeadIn: 0
PreviewTime: 34810
Countdown: 0
SampleSet: Soft
StackLeniency: 0.7
Mode: 0
LetterboxInBreaks: 0
WidescreenStoryboard: 0

[Editor]
DistanceSpacing: 0.6
BeatDivisor: 4
GridSize: 32
TimelineZoom: 2

[Metadata]
Title:Greetings
TitleUnicode:Greetings
Artist:VINXIS
ArtistUnicode:VINXIS
Creator:Eve Sistine uwu
Version:Mellow Greeting
Source:
Tags:artcore drum and bass dnb fukarina-desu
BeatmapID:1927705
BeatmapSetID:923116

[Difficulty]
HPDrainRate:5
CircleSize:4
OverallDifficulty:9
ApproachRate:9.4
SliderMultiplier:1.5
SliderTickRate:1

[Events]
//Background and Video events
0,0,"37386131_p0.jpg",0,0
//Break Periods
//Storyboard Layer 0 (Background)
//Storyboard Layer 1 (Fail)
//Storyboard Layer 2 (Pass)
//Storyboard Layer 3 (Foreground)
//Storyboard Sound Samples

[TimingPoints]
160,300,4,2,1,45,1,0
4960,-166.666666666667,4,2,1,45,0,0
13360,-100,4,2,1,25,0,0
14560,-166.666666666667,4,2,1,45,0,0
24160,-125,4,2,1,45,0,0
31960,-125,4,2,1,25,0,0
32560,-1000,4,2,1,40,0,0
34960,-100,4,2,1,55,0,1
38560,-100,4,2,1,55,0,0
39760,-100,4,2,1,55,0,1
43360,-100,4,2,1,55,0,0
44560,-100,4,2,1,55,0,1
48160,-100,4,2,1,55,0,0
49360,-100,4,2,1,55,0,1
54160,-100,4,2,1,55,0,0
56560,-100,4,2,1,55,0,1
73360,-166.666666666667,4,2,1,45,0,0

[Colours]
Combo1 : 192,192,192
Combo2 : 128,128,0
Combo3 : 128,0,0
Combo4 : 255,255,128

[HitObjects]
128,96,4960,6,0,P|74:53|6:64,2,134.999995880127,2|0|2,0:0|0:0|0:0,0:0:0:0:
352,96,7360,6,0,P|417:89|468:131,2,134.999995880127,2|0|2,0:0|0:0|0:0,0:0:0:0:
163,255,9760,6,0,P|131:287|34:282,2,134.999995880127,2|0|2,0:0|0:0|0:0,0:0:0:0:
380,255,12160,6,0,P|376:197|310:152,2,134.999995880127,2|0|2,0:0|0:0|0:0,0:0:0:0:
205,227,13360,6,0,L|125:233,1,75,2|0,0:0|0:0,0:0:0:0:
34,134,13660,1,8,0:0:0:0:
264,63,13810,2,0,L|316:44,1,37.5
161,122,13960,1,0,0:0:0:0:
161,144,14035,1,0,0:0:0:0:
161,167,14110,1,0,0:0:0:0:
162,190,14185,1,0,0:0:0:0:
162,213,14260,1,8,0:0:0:0:
245,341,14560,6,0,P|308:329|333:259,2,134.999995880127,2|0|2,0:0|0:0|0:0,0:0:0:0:
83,253,15760,5,8,0:0:0:0:
83,253,15910,2,0,L|84:201,1,44.999998626709,2|0,0:0|0:0,0:0:0:0:
200,125,16210,1,8,0:0:0:0:
200,125,16360,2,0,L|202:181,1,44.999998626709,2|0,0:0|0:0,0:0:0:0:
355,211,16660,1,8,0:0:0:0:
248,296,16810,1,0,0:0:0:0:
338,102,16960,6,0,P|266:91|188:174,1,179.999994506836,2|0,0:0|0:0,0:0:0:0:
105,269,17860,1,8,0:0:0:0:
105,269,18010,2,0,L|108:320,1,44.999998626709,2|0,0:0|0:0,0:0:0:0:
245,363,18310,1,8,0:0:0:0:
245,363,18460,2,0,L|242:313,1,44.999998626709,2|0,0:0|0:0,0:0:0:0:
349,285,18760,1,2,0:0:0:0:
233,139,18910,1,2,0:0:0:0:
392,150,19060,1,8,0:0:0:0:
240,256,19210,1,0,0:0:0:0:
135,320,19360,6,0,P|104:258|128:189,2,134.999995880127
344,54,20560,5,8,0:0:0:0:
344,54,20710,2,0,L|302:95,1,44.999998626709,2|0,0:0|0:0,0:0:0:0:
321,221,21010,1,8,0:0:0:0:
321,221,21160,2,0,L|369:179,1,44.999998626709,2|0,0:0|0:0,0:0:0:0:
162,145,21460,1,8,0:0:0:0:
143,323,21610,1,0,0:0:0:0:
314,273,21760,6,0,P|268:223|198:238,2,134.999995880127,2|0|2,0:0|0:0|0:0,0:0:0:0:
206,331,22960,5,8,0:0:0:0:
206,331,23110,2,0,L|144:336,1,44.999998626709,2|0,0:0|0:0,0:0:0:0:
245,213,23410,1,8,0:0:0:0:
245,213,23560,2,0,L|309:206,1,44.999998626709,2|0,0:0|0:0,0:0:0:0:
102,220,23860,1,0,0:0:0:0:
282,323,24010,1,0,0:0:0:0:
64,341,24160,5,0,0:0:0:0:
147,254,24310,1,0,0:0:0:0:
75,157,24460,2,0,L|118:101,1,60,10|0,0:0|0:0,0:0:0:0:
283,86,24760,1,0,0:0:0:0:
221,188,24910,1,0,0:0:0:0:
312,266,25060,2,0,L|277:343,1,60,10|0,0:0|0:0,0:0:0:0:
443,140,25360,5,2,0:0:0:0:
236,96,25510,1,0,0:0:0:0:
410,41,25660,1,0,0:0:0:0:
311,186,25810,1,2,0:0:0:0:
461,267,25960,1,0,0:0:0:0:
249,259,26110,1,0,0:0:0:0:
420,160,26260,1,0,0:0:0:0:
353,322,26410,1,0,0:0:0:0:
294,163,26560,6,0,P|234:150|175:188,1,120,2|0,0:0|0:0,0:0:0:0:
97,325,27010,2,0,P|156:336|208:295,1,120,2|0,0:0|0:0,0:0:0:0:
360,273,27460,2,0,L|353:349,1,60,2|0,0:0|0:0,0:0:0:0:
384,118,27760,5,2,0:0:0:0:
184,147,27910,1,0,0:0:0:0:
301,32,28060,1,0,0:0:0:0:
304,213,28210,1,2,0:0:0:0:
105,227,28360,1,0,0:0:0:0:
237,134,28510,1,0,0:0:0:0:
226,299,28660,1,0,0:0:0:0:
92,150,28810,1,0,0:0:0:0:
96,320,28960,6,0,L|167:320,1,60,2|0,0:0|0:0,0:0:0:0:
288,320,29260,1,8,0:0:0:0:
47,191,29410,2,0,L|118:191,1,60,2|0,0:0|0:0,0:0:0:0:
239,191,29710,1,8,0:0:0:0:
349,84,29860,2,0,L|316:6,1,60,2|0,0:0|0:0,0:0:0:0:
209,130,30160,5,2,0:0:0:0:
377,212,30310,1,0,0:0:0:0:
198,293,30460,1,0,0:0:0:0:
295,105,30610,1,2,0:0:0:0:
369,292,30760,1,0,0:0:0:0:
477,165,30910,1,0,0:0:0:0:
380,73,31060,2,0,L|380:23,2,30
364,115,31360,6,0,P|276:109|243:185,1,180,2|0,0:0|0:0,0:0:0:0:
232,340,31960,2,0,L|270:320,3,30
198,346,32260,1,0,0:0:0:0:
171,333,32335,1,0,0:0:0:0:
148,314,32410,1,0,0:0:0:0:
131,289,32485,1,0,0:0:0:0:
121,261,32560,2,0,L|121:216,1,45,10|0,0:0|0:0,0:0:0:0:
256,192,33760,12,0,34660,0:0:0:0:
412,136,34960,5,6,0:0:0:0:
213,203,35110,1,0,0:0:0:0:
358,280,35260,1,10,0:0:0:0:
287,61,35410,1,0,0:0:0:0:
251,71,35485,1,0,0:0:0:0:
215,82,35560,1,0,0:0:0:0:
179,92,35635,1,0,0:0:0:0:
143,103,35710,1,0,0:0:0:0:
105,245,35860,1,10,0:0:0:0:
230,327,36010,1,0,0:0:0:0:
400,160,36160,5,0,0:0:0:0:
427,326,36310,1,0,0:0:0:0:
244,183,36460,1,10,0:0:0:0:
283,327,36610,1,0,0:0:0:0:
247,335,36685,1,0,0:0:0:0:
210,342,36760,1,0,0:0:0:0:
173,350,36835,1,0,0:0:0:0:
137,358,36910,1,0,0:0:0:0:
26,247,37060,1,10,0:0:0:0:
175,205,37210,1,0,0:0:0:0:
247,31,37360,5,0,0:0:0:0:
433,36,37510,1,0,0:0:0:0:
279,170,37660,1,10,0:0:0:0:
405,181,37810,1,0,0:0:0:0:
401,218,37885,1,0,0:0:0:0:
398,255,37960,1,0,0:0:0:0:
395,293,38035,1,0,0:0:0:0:
391,330,38110,1,0,0:0:0:0:
229,280,38260,1,10,0:0:0:0:
77,346,38410,1,0,0:0:0:0:
268,328,38560,6,0,P|260:266|164:234,1,150,2|0,0:0|0:0,0:0:0:0:
155,79,39010,2,0,B|263:43|263:43|229:90,1,150,2|0,0:0|0:0,0:0:0:0:
109,208,39460,2,0,P|172:234|202:224,1,75,2|0,0:0|0:0,0:0:0:0:
378,215,39760,5,6,0:0:0:0:
158,155,39910,1,0,0:0:0:0:
321,82,40060,1,10,0:0:0:0:
298,296,40210,1,0,0:0:0:0:
260,295,40285,1,0,0:0:0:0:
223,295,40360,1,0,0:0:0:0:
185,295,40435,1,0,0:0:0:0:
148,295,40510,1,0,0:0:0:0:
74,170,40660,1,10,0:0:0:0:
183,74,40810,1,0,0:0:0:0:
424,171,40960,5,0,0:0:0:0:
232,218,41110,1,0,0:0:0:0:
303,86,41260,1,10,0:0:0:0:
363,270,41410,1,0,0:0:0:0:
327,283,41485,1,0,0:0:0:0:
292,296,41560,1,0,0:0:0:0:
257,309,41635,1,0,0:0:0:0:
222,323,41710,1,0,0:0:0:0:
121,226,41860,1,10,0:0:0:0:
53,361,42010,1,0,0:0:0:0:
124,226,42160,5,0,0:0:0:0:
277,118,42310,1,0,0:0:0:0:
126,76,42460,1,10,0:0:0:0:
228,245,42610,1,0,0:0:0:0:
260,225,42685,1,0,0:0:0:0:
292,206,42760,1,0,0:0:0:0:
324,187,42835,1,0,0:0:0:0:
356,168,42910,1,0,0:0:0:0:
266,65,43060,1,10,0:0:0:0:
115,82,43210,1,0,0:0:0:0:
68,236,43360,6,0,P|182:235|183:203,1,150,2|0,0:0|0:0,0:0:0:0:
306,88,43810,2,0,B|385:176|385:176|335:169,1,150,2|0,0:0|0:0,0:0:0:0:
173,128,44260,2,0,P|126:152|117:186,1,75,2|0,0:0|0:0,0:0:0:0:
295,206,44560,5,6,0:0:0:0:
114,299,44710,1,0,0:0:0:0:
257,339,44860,1,10,0:0:0:0:
168,158,45010,1,0,0:0:0:0:
201,140,45085,1,0,0:0:0:0:
234,122,45160,1,0,0:0:0:0:
267,105,45235,1,0,0:0:0:0:
300,87,45310,1,0,0:0:0:0:
433,141,45460,1,10,0:0:0:0:
420,276,45610,1,0,0:0:0:0:
112,299,45760,5,0,0:0:0:0:
311,263,45910,1,0,0:0:0:0:
197,170,46060,1,10,0:0:0:0:
212,378,46210,1,0,0:0:0:0:
249,373,46285,1,0,0:0:0:0:
286,369,46360,1,0,0:0:0:0:
323,364,46435,1,0,0:0:0:0:
360,360,46510,1,0,0:0:0:0:
440,243,46660,1,10,0:0:0:0:
364,141,46810,1,0,0:0:0:0:
119,237,46960,5,0,0:0:0:0:
208,54,47110,1,0,0:0:0:0:
64,107,47260,1,10,0:0:0:0:
276,180,47410,1,0,0:0:0:0:
264,215,47485,1,0,0:0:0:0:
253,251,47560,1,0,0:0:0:0:
242,287,47635,1,0,0:0:0:0:
231,323,47710,1,0,0:0:0:0:
378,288,47860,1,10,0:0:0:0:
440,164,48010,1,0,0:0:0:0:
297,77,48160,6,0,P|228:78|165:25,1,150,2|0,0:0|0:0,0:0:0:0:
139,193,48610,2,0,B|60:259|60:259|138:252,1,150,2|0,0:0|0:0,0:0:0:0:
274,338,49060,2,0,P|317:321|336:290,1,75,2|0,0:0|0:0,0:0:0:0:
356,172,49360,5,6,0:0:0:0:
172,257,49510,1,0,0:0:0:0:
315,304,49660,1,10,0:0:0:0:
223,122,49810,1,0,0:0:0:0:
189,139,49885,1,0,0:0:0:0:
156,156,49960,1,0,0:0:0:0:
123,174,50035,1,0,0:0:0:0:
90,191,50110,1,0,0:0:0:0:
129,334,50260,1,10,0:0:0:0:
265,349,50410,1,0,0:0:0:0:
414,201,50560,5,0,0:0:0:0:
218,153,50710,1,0,0:0:0:0:
345,65,50860,1,10,0:0:0:0:
366,280,51010,1,0,0:0:0:0:
329,270,51085,1,0,0:0:0:0:
293,261,51160,1,0,0:0:0:0:
256,252,51235,1,0,0:0:0:0:
220,243,51310,1,0,0:0:0:0:
111,161,51460,1,10,0:0:0:0:
164,43,51610,1,0,0:0:0:0:
317,164,51760,5,0,0:0:0:0:
494,123,51910,1,0,0:0:0:0:
373,48,52060,1,10,0:0:0:0:
430,236,52210,1,0,0:0:0:0:
393,244,52285,1,0,0:0:0:0:
357,253,52360,1,0,0:0:0:0:
320,262,52435,1,0,0:0:0:0:
284,270,52510,1,0,0:0:0:0:
137,251,52660,1,10,0:0:0:0:
41,343,52810,1,0,0:0:0:0:
137,252,52960,6,0,P|134:191|51:149,1,150,2|0,0:0|0:0,0:0:0:0:
272,125,53410,2,0,P|317:97|261:113,1,150,2|0,0:0|0:0,0:0:0:0:
360,300,53860,2,0,P|414:276|359:258,1,150,2|6,0:0|0:0,0:0:0:0:
158,166,55810,5,0,0:0:0:0:
165,187,55885,1,0,0:0:0:0:
175,206,55960,2,0,L|142:240,3,37.5,2|0|0|0,0:0|0:0|0:0|0:0,0:0:0:0:
269,307,56260,2,0,P|307:311|356:275,1,75,2|0,0:0|0:0,0:0:0:0:
392,58,56560,5,6,0:0:0:0:
161,140,56710,1,0,0:0:0:0:
339,176,56860,1,10,0:0:0:0:
222,34,57010,1,0,0:0:0:0:
222,34,57085,1,0,0:0:0:0:
222,34,57160,1,0,0:0:0:0:
146,192,57310,1,0,0:0:0:0:
337,177,57460,1,10,0:0:0:0:
206,334,57610,1,0,0:0:0:0:
344,354,57760,6,0,P|372:311|360:268,1,75,2|0,0:0|0:0,0:0:0:0:
270,210,58060,2,0,L|232:210,1,37.5,8|0,0:0|0:0,0:0:0:0:
422,189,58210,2,0,L|459:189,1,37.5
355,76,58360,2,0,L|365:35,3,37.5
261,111,58660,2,0,L|205:103,3,37.5,10|0|0|0,0:0|0:0|0:0|0:0,0:0:0:0:
346,250,58960,5,6,0:0:0:0:
111,245,59110,1,0,0:0:0:0:
268,124,59260,1,10,0:0:0:0:
241,344,59410,1,0,0:0:0:0:
241,344,59485,1,0,0:0:0:0:
241,344,59560,1,0,0:0:0:0:
376,223,59710,5,0,0:0:0:0:
203,160,59860,1,10,0:0:0:0:
377,223,60010,1,0,0:0:0:0:
203,160,60160,1,0,0:0:0:0:
431,122,60310,5,0,0:0:0:0:
152,225,60460,1,10,0:0:0:0:
431,123,60610,1,0,0:0:0:0:
149,228,60760,1,0,0:0:0:0:
351,265,60910,1,0,0:0:0:0:
195,341,61060,1,10,0:0:0:0:
236,182,61210,1,0,0:0:0:0:
330,366,61360,6,0,P|416:355|427:293,1,150,2|0,0:0|0:0,0:0:0:0:
303,221,61810,2,0,P|299:165|381:131,1,150,2|0,0:0|0:0,0:0:0:0:
448,280,62260,2,0,P|412:311|373:313,1,75,2|0,0:0|0:0,0:0:0:0:
148,282,62560,5,2,0:0:0:0:
311,198,62710,1,2,0:0:0:0:
148,279,62860,1,2,0:0:0:0:
309,198,63010,1,2,0:0:0:0:
77,239,63160,1,2,0:0:0:0:
388,230,63310,1,2,0:0:0:0:
79,237,63460,1,2,0:0:0:0:
387,231,63610,1,2,0:0:0:0:
182,88,63760,5,6,0:0:0:0:
249,258,63910,1,0,0:0:0:0:
127,199,64060,1,10,0:0:0:0:
324,125,64210,1,0,0:0:0:0:
324,125,64285,1,0,0:0:0:0:
324,125,64360,1,0,0:0:0:0:
416,289,64510,5,0,0:0:0:0:
194,257,64660,1,10,0:0:0:0:
416,293,64810,1,0,0:0:0:0:
193,257,64960,1,0,0:0:0:0:
372,202,65110,1,0,0:0:0:0:
136,342,65260,1,10,0:0:0:0:
372,204,65410,1,0,0:0:0:0:
136,346,65560,1,0,0:0:0:0:
297,339,65710,1,0,0:0:0:0:
64,267,65860,1,10,0:0:0:0:
297,339,66010,1,0,0:0:0:0:
64,267,66160,6,0,P|78:201|153:176,1,150,2|0,0:0|0:0,0:0:0:0:
289,87,66610,2,0,P|359:118|323:133,1,150,2|0,0:0|0:0,0:0:0:0:
287,278,67060,2,0,P|329:267|355:241,1,75,2|0,0:0|0:0,0:0:0:0:
247,66,67360,5,2,0:0:0:0:
56,174,67510,1,2,0:0:0:0:
245,206,67660,1,2,0:0:0:0:
136,48,67810,1,2,0:0:0:0:
102,277,67960,1,2,0:0:0:0:
329,292,68110,1,2,0:0:0:0:
179,137,68260,1,2,0:0:0:0:
328,292,68410,1,2,0:0:0:0:
176,136,68560,5,6,0:0:0:0:
413,191,68710,1,0,0:0:0:0:
226,228,68860,1,10,0:0:0:0:
406,86,69010,1,0,0:0:0:0:
406,86,69085,1,0,0:0:0:0:
406,86,69160,1,0,0:0:0:0:
427,248,69310,1,0,0:0:0:0:
290,145,69460,5,10,0:0:0:0:
150,308,69610,1,0,0:0:0:0:
291,147,69760,1,0,0:0:0:0:
345,277,69910,2,0,L|322:312,2,37.5,0|0|10,0:0|0:0|0:0,0:0:0:0:
367,273,70135,1,0,0:0:0:0:
384,259,70210,1,0,0:0:0:0:
391,237,70285,1,0,0:0:0:0:
387,214,70360,2,0,P|355:174|298:167,1,75
150,181,70660,6,0,L|102:181,1,37.5,10|0,0:0|0:0,0:0:0:0:
236,300,70810,2,0,L|296:300,1,37.5
84,283,70960,5,2,0:0:0:0:
295,152,71110,1,2,0:0:0:0:
83,285,71260,1,2,0:0:0:0:
295,149,71410,1,2,0:0:0:0:
45,224,71560,1,2,0:0:0:0:
388,231,71710,1,2,0:0:0:0:
42,223,71860,1,2,0:0:0:0:
387,232,72010,1,2,0:0:0:0:
136,331,72160,5,2,0:0:0:0:
356,81,72310,1,2,0:0:0:0:
136,330,72460,1,2,0:0:0:0:
355,80,72610,1,2,0:0:0:0:
261,359,72760,1,2,0:0:0:0:
294,22,72910,1,2,0:0:0:0:
260,363,73060,1,2,0:0:0:0:
292,18,73210,1,2,0:0:0:0:
259,364,73360,6,0,P|334:355|368:292,2,134.999995880127
