osu file format v14

[General]
AudioFilename: audio.mp3
AudioLeadIn: 0
PreviewTime: 33760
Countdown: 0
SampleSet: Soft
StackLeniency: 0.4
Mode: 0
LetterboxInBreaks: 0
WidescreenStoryboard: 0

[Editor]
DistanceSpacing: 1.4
BeatDivisor: 4
GridSize: 4
TimelineZoom: 2

[Metadata]
Title:Greetings
TitleUnicode:Greetings
Artist:VINXIS
ArtistUnicode:VINXIS
Creator:B U R R
Version:Airin's Advanced
Source:osu!
Tags:artcore drum and bass dnb featured artist burr Cris- 84461810 Mindmaster107 AirinCat ezek Ataraxia
BeatmapID:1689685
BeatmapSetID:800526

[Difficulty]
HPDrainRate:4.2
CircleSize:3.5
OverallDifficulty:5
ApproachRate:6.5
SliderMultiplier:0.8
SliderTickRate:1

[Events]
//Background and Video events
0,0,"GreetingsVIN.jpg",0,0
//Break Periods
//Storyboard Layer 0 (Background)
//Storyboard Layer 1 (Fail)
//Storyboard Layer 2 (Pass)
//Storyboard Layer 3 (Foreground)
//Storyboard Sound Samples

[TimingPoints]
160,300,4,3,99,50,1,0
3760,-100,4,3,99,50,0,0
4060,-100,4,3,99,50,0,0
4360,-100,4,3,99,50,0,0
4660,-100,4,3,99,50,0,0
4960,-100,4,3,99,50,0,0
7360,-100,4,3,99,50,0,0
9760,-100,4,3,99,50,0,0
12160,-100,4,3,99,50,0,0
13360,-100,4,3,10,40,0,0
13660,-100,4,3,10,40,0,0
13960,-100,4,3,10,45,0,0
14260,-100,4,3,10,50,0,0
14560,-100,4,3,99,50,0,0
15010,-100,4,3,99,50,0,0
15460,-100,4,3,99,50,0,0
15760,-100,4,2,10,60,0,0
16960,-100,4,3,99,50,0,0
17410,-100,4,3,99,50,0,0
17860,-100,4,3,99,50,0,0
18160,-100,4,2,10,60,0,0
19360,-100,4,3,99,50,0,0
19810,-100,4,3,99,50,0,0
20260,-100,4,3,99,50,0,0
20560,-100,4,2,10,60,0,0
21760,-100,4,3,99,50,0,0
22210,-100,4,3,99,50,0,0
22660,-100,4,3,99,50,0,0
22960,-100,4,2,10,60,0,0
24160,-100,4,2,10,70,0,0
24610,-100,4,2,10,70,0,0
25060,-100,4,2,10,70,0,0
26560,-100,4,2,10,70,0,0
27010,-100,4,2,10,70,0,0
27460,-100,4,2,10,70,0,0
28960,-100,4,2,10,70,0,0
31360,-100,4,2,10,70,0,0
33760,-100,4,3,98,80,0,0
34210,-100,4,3,98,100,0,0
34660,-100,4,3,98,90,0,0
34960,-100,4,2,10,80,0,1
53860,-100,4,2,10,80,0,0
54160,-100,4,2,99,60,0,0
54310,-100,4,2,99,35,0,0
54610,-100,4,2,99,60,0,0
54760,-100,4,2,99,35,0,0
55060,-100,4,2,99,60,0,0
55210,-100,4,2,99,35,0,0
55810,-100,4,2,10,80,0,0
56260,-100,4,2,10,80,0,0
56560,-100,4,2,10,80,0,1
57760,-100,4,2,10,80,0,1
58060,-100,4,2,10,80,0,1
58660,-100,4,2,10,80,0,1
58960,-100,4,2,10,80,0,1
69760,-100,4,2,10,80,0,1
70060,-100,4,2,10,80,0,1
70210,-100,4,2,10,80,0,1
70660,-100,4,2,10,80,0,1
71260,-100,4,2,10,80,0,1
71860,-100,4,2,10,80,0,1
72160,-100,4,2,10,80,0,1
73060,-100,4,2,10,80,0,0
73360,-100,4,3,99,60,0,0

[Colours]
Combo1 : 215,120,115
Combo2 : 116,241,207
Combo3 : 151,201,101
Combo4 : 240,216,117

[HitObjects]
256,192,1360,12,0,4360,0:0:0:0:
126,70,4960,6,0,P|66:78|7:90,2,120,0|0|0,0:0|0:0|0:0,0:0:0:0:
157,156,7360,2,0,P|216:143|275:135,2,120,0|0|0,0:0|0:0|0:0,0:0:0:0:
370,25,9760,6,0,P|313:32|251:45,2,120,0|0|0,0:0|0:0|0:0,0:0:0:0:
394,111,12160,2,0,P|454:99|512:90,2,120,0|0|0,0:0|0:0|0:0,0:0:0:0:
356,216,13360,2,0,P|317:220|269:229,1,80,4|8,2:3|2:0,2:0:0:0:
183,289,13960,2,0,L|191:341,2,40,4|0|8,2:3|2:0|2:0,2:0:0:0:
99,215,14560,6,0,P|72:161|83:91,2,120,0|0|0,0:0|0:0|0:0,0:0:0:0:
192,140,15760,2,0,L|271:127,1,80,4|8,0:3|0:0,0:0:0:0:
327,75,16210,2,0,P|345:112|340:157,1,80,4|8,0:3|0:0,0:0:0:0:
285,201,16660,2,0,L|292:248,1,40,4|8,0:3|0:0,0:0:0:0:
279,316,16960,2,0,P|332:289|402:300,2,120,0|0|0,0:0|0:0|0:0,0:0:0:0:
175,368,18160,6,0,P|167:305|155:245,1,120,8|8,0:0|0:0,0:0:0:0:
97,201,18760,2,0,B|57:201|57:201|15:214,1,80,0|8,0:0|0:0,0:0:0:0:
165,169,19360,6,0,P|157:106|146:50,2,120,0|0|0,0:0|0:0|0:0,0:0:0:0:
276,123,20560,2,0,L|358:109,1,80,4|8,0:3|0:0,0:0:0:0:
411,58,21010,2,0,P|429:95|424:140,1,80,4|8,0:3|0:0,0:0:0:0:
369,183,21460,2,0,L|377:238,1,40,4|8,0:3|0:0,0:0:0:0:
361,296,21760,2,0,P|414:269|484:280,2,120,0|0|0,0:0|0:0|0:0,0:0:0:0:
274,375,22960,6,0,L|260:288,1,80,8|4,0:0|0:3,0:0:0:0:
283,222,23410,2,0,P|243:220|208:238,1,80,8|4,0:0|0:3,0:0:0:0:
184,310,23860,2,0,L|136:317,1,40,8|4,0:0|0:3,0:0:0:0:
76,279,24160,6,0,L|61:188,1,80,4|8,0:3|0:0,0:0:0:0:
11,143,24610,2,0,P|46:125|85:126,1,80,0|8,0:0|0:0,0:0:0:0:
139,183,25060,2,0,L|194:174,1,40,0|8,0:0|0:2,0:0:0:0:
237,127,25360,6,0,P|228:64|216:1,2,120,8|8|8,0:0|0:0|0:0,0:0:0:0:
361,118,26560,2,0,B|364:159|364:159|374:200,1,80,4|8,0:3|0:0,0:0:0:0:
425,255,27010,2,0,P|387:273|342:268,1,80,0|8,0:0|0:0,0:0:0:0:
298,214,27460,2,0,L|250:221,1,40,0|8,0:0|0:0,0:0:0:0:
197,266,27760,6,0,L|217:392,2,120,8|8|8,0:0|0:0|0:0,0:0:0:0:
75,281,28960,2,0,P|70:236|61:194,1,80,8|0,0:0|0:0,0:0:0:0:
10,146,29410,2,0,P|47:127|92:132,1,80,8|0,0:0|0:0,0:0:0:0:
136,184,29860,2,0,L|191:175,1,40,8|0,0:0|0:0,0:0:0:0:
234,126,30160,6,0,P|252:163|247:208,1,80,8|0,0:0|0:0,0:0:0:0:
196,258,30610,2,0,B|233:279|233:279|281:271,1,80,8|0,0:0|0:0,0:0:0:0:
339,240,31060,2,0,L|330:188,1,40,8|0,0:0|0:0,0:0:0:0:
408,184,31360,2,0,B|419:259|419:259|398:302,2,120,4|0|0,0:3|0:0|3:0,2:2:0:0:
376,84,32560,1,4,2:3:0:0:
263,0,33010,1,0,0:0:0:0:
131,56,33460,2,0,L|138:103,1,40,8|0,0:0|0:0,0:0:0:0:
208,133,33760,38,0,B|144:129|144:129|86:163,2,120,8|0|0,0:3|0:0|0:0,2:0:0:0:
208,133,34960,6,0,L|221:215,1,80,4|8,0:3|0:1,0:0:0:0:
273,271,35410,2,0,P|236:290|191:285,1,80,0|0,3:3|3:0,0:0:0:0:
142,227,35860,2,0,L|90:235,1,40,8|0,0:1|0:0,0:0:0:0:
43,287,36160,6,0,P|24:250|29:205,1,80,4|8,0:3|0:1,0:0:0:0:
126,153,36760,2,0,P|145:190|140:235,1,80,4|8,0:3|0:1,0:0:0:0:
73,88,37360,6,0,P|110:69|155:74,1,80,4|8,0:3|0:1,0:0:0:0:
206,127,37810,2,0,L|285:114,1,80,0|0,3:3|3:3,0:0:0:0:
360,79,38260,2,0,L|352:31,1,40,8|0,0:1|0:0,0:0:0:0:
272,35,38560,6,0,P|277:73|285:117,1,80,6|8,0:3|0:1,0:0:0:0:
348,162,39010,2,0,P|387:153|430:148,1,80,2|0,3:3|3:1,0:0:0:0:
497,181,39460,1,10,0:1:0:0:
454,281,39760,6,0,L|374:293,1,80,4|8,0:3|0:1,0:0:0:0:
314,346,40210,2,0,P|295:311|297:271,1,80,0|0,3:3|3:3,0:0:0:0:
350,212,40660,2,0,L|342:164,1,40,8|0,0:1|0:0,0:0:0:0:
290,112,40960,6,0,P|324:93|364:95,1,80,4|8,0:3|0:1,0:0:0:0:
424,195,41560,2,0,P|389:213|349:211,1,80,4|8,0:3|0:1,0:0:0:0:
221,165,42160,6,0,L|137:178,1,80,4|8,0:3|0:1,0:0:0:0:
83,231,42610,2,0,P|65:196|66:156,1,80,0|0,3:0|3:0,0:0:0:0:
140,117,43060,2,0,L|131:65,1,40,8|0,0:1|0:0,0:0:0:0:
55,77,43360,6,0,P|60:115|67:156,1,80,6|8,0:3|0:1,0:0:0:0:
131,203,43810,2,0,B|172:191|172:191|225:187,1,80,2|0,3:0|3:0,0:0:0:0:
287,205,44260,2,0,L|294:252,1,40,10|0,0:1|0:0,0:0:0:0:
241,306,44560,6,0,L|158:319,1,80,4|8,0:3|0:1,0:0:0:0:
102,372,45010,2,0,P|83:337|85:297,1,80,0|0,3:0|3:0,0:0:0:0:
134,238,45460,2,0,L|126:190,1,40,8|0,0:1|0:0,0:0:0:0:
74,138,45760,6,0,P|111:119|156:124,1,80,4|8,0:3|0:1,0:0:0:0:
208,221,46360,2,0,P|171:240|126:235,1,80,4|8,0:3|0:1,0:0:0:0:
272,172,46960,6,0,P|291:209|286:254,1,80,4|8,0:3|0:1,0:0:0:0:
229,300,47410,2,0,L|242:382,1,80,0|0,3:0|3:0,0:0:0:0:
320,363,47860,2,0,L|313:319,1,40,8|0,0:1|0:0,0:0:0:0:
288,246,48160,6,0,P|328:236|367:233,1,80,6|8,0:3|0:1,0:0:0:0:
411,167,48610,2,0,P|401:125|398:87,1,80,2|0,3:0|3:0,0:0:0:0:
323,63,49060,1,10,0:1:0:0:
232,116,49360,6,0,L|245:202,1,80,4|8,0:3|0:1,0:0:0:0:
297,254,49810,2,0,P|260:273|215:268,1,80,0|0,3:0|3:0,0:0:0:0:
164,214,50260,2,0,L|112:222,1,40,8|0,0:1|0:0,0:0:0:0:
63,272,50560,6,0,P|44:235|49:190,1,80,4|8,0:3|0:1,0:0:0:0:
147,139,51160,2,0,P|166:176|161:221,1,80,0|8,3:0|0:1,0:0:0:0:
95,80,51760,6,0,P|132:61|177:65,1,80,4|8,0:3|0:1,0:0:0:0:
228,116,52210,2,0,L|307:103,1,80,0|0,3:0|3:0,0:0:0:0:
382,73,52660,2,0,L|374:25,1,40,8|0,0:1|0:0,0:0:0:0:
296,24,52960,6,0,P|301:64|310:114,1,80,6|8,0:3|0:1,0:0:0:0:
354,167,53410,2,0,B|394:156|394:156|433:154,1,80,2|0,3:0|3:0,0:0:0:0:
499,198,53860,2,0,L|507:248,1,40,10|0,0:1|0:0,0:0:0:0:
471,309,54160,6,0,P|412:303|359:330,2,120,4|0|0,3:2|3:0|3:0,3:3:0:0:
112,279,55960,2,0,L|99:193,1,80,0|8,3:3|0:1,0:0:0:0:
210,95,56560,6,0,L|223:181,1,80,4|8,0:3|0:1,0:0:0:0:
273,235,57010,2,0,P|236:254|191:249,1,80,0|0,3:0|3:0,0:0:0:0:
140,195,57460,2,0,L|84:203,1,40,8|0,0:1|0:0,0:0:0:0:
41,255,57760,6,0,P|22:218|27:173,1,80,6|10,0:3|0:1,0:0:0:0:
63,111,58210,2,0,L|56:67,2,40,2|2|2,0:3|3:3|3:3,0:0:0:0:
141,144,58660,1,10,0:1:0:0:
141,144,58960,6,0,L|227:130,1,80,4|8,0:3|0:1,0:0:0:0:
277,76,59410,2,0,P|296:113|291:158,1,80,0|0,3:0|3:0,0:0:0:0:
240,210,59860,2,0,L|248:261,1,40,8|0,0:1|0:0,0:0:0:0:
299,309,60160,6,0,P|264:327|224:325,1,80,4|8,0:3|0:1,0:0:0:0:
165,226,60760,2,0,P|199:207|239:209,1,80,4|8,0:3|0:1,0:0:0:0:
356,260,61360,6,0,L|442:246,1,80,4|8,0:3|0:1,0:0:0:0:
510,266,61810,2,0,P|511:226|493:191,1,80,0|0,3:0|3:0,0:0:0:0:
413,172,62260,2,0,L|404:116,1,40,8|0,0:1|0:0,0:0:0:0:
481,112,62560,6,0,L|493:191,1,80,6|8,0:3|0:1,0:0:0:0:
447,256,63010,2,0,B|406:258|406:258|367:268,1,80,2|0,3:0|3:0,0:0:0:0:
295,303,63460,2,0,L|302:350,1,40,10|0,0:1|0:0,0:0:0:0:
380,346,63760,6,0,L|366:259,1,80,4|8,0:3|0:1,0:0:0:0:
388,189,64210,2,0,P|348:188|313:206,1,80,0|0,3:0|3:0,0:0:0:0:
292,282,64660,2,0,L|244:289,1,40,8|0,0:1|0:0,0:0:0:0:
190,339,64960,6,0,P|172:303|173:264,1,80,4|8,0:3|0:1,0:0:0:0:
277,207,65560,2,0,P|294:242|293:281,1,80,4|8,0:3|0:1,0:0:0:0:
191,186,66160,6,0,L|177:99,1,80,4|8,0:3|0:1,0:0:0:0:
200,30,66610,2,0,P|160:28|125:46,1,80,0|0,3:0|3:0,0:0:0:0:
101,124,67060,2,0,L|58:131,1,40,8|0,0:1|0:0,0:0:0:0:
46,55,67360,6,0,P|85:47|125:45,1,80,6|8,0:3|0:1,0:0:0:0:
178,107,67810,2,0,P|185:145|191:190,1,80,2|0,3:0|3:0,0:0:0:0:
239,249,68260,1,10,0:1:0:0:
326,187,68560,6,0,L|312:104,1,80,4|8,0:3|0:1,0:0:0:0:
257,50,69010,2,0,P|292:32|331:33,1,80,0|0,3:0|3:0,0:0:0:0:
388,89,69460,2,0,L|443:80,1,40,8|0,0:1|0:0,0:0:0:0:
505,103,69760,6,0,P|506:64|489:29,1,80,6|10,0:3|0:1,0:0:0:0:
427,82,70210,2,0,L|435:133,2,40,2|2|2,3:0|3:0|3:0,3:3:0:0:
355,46,70660,2,0,L|307:53,1,40,10|2,0:1|0:0,0:0:0:0:
265,113,70960,6,0,P|273:154|278:195,1,80,4|10,0:3|0:1,0:0:0:0:
327,254,71410,2,0,L|370:247,2,40,2|2|2,0:0|3:0|3:0,3:3:0:0:
248,270,71860,2,0,L|200:277,1,40,10|2,0:1|0:3,0:0:0:0:
128,281,72160,6,0,P|124:238|114:194,1,80,6|8,0:3|0:1,0:0:0:0:
63,141,72610,2,0,B|102:123|102:123|143:125,1,80,2|0,3:0|3:0,0:0:0:0:
198,188,73060,1,10,0:1:0:0:
198,188,73360,6,0,P|261:175|332:166,2,120,4|0|0,0:3|0:0|0:0,0:0:0:0:
