osu file format v14

[General]
AudioFilename: audio.mp3
AudioLeadIn: 0
PreviewTime: 115082
Countdown: 0
SampleSet: Soft
StackLeniency: 0.4
Mode: 0
LetterboxInBreaks: 0
WidescreenStoryboard: 1

[Editor]
Bookmarks: 10483,25242,37435,47702,48344,52194,93905,94547,119253,186953
DistanceSpacing: 1.7
BeatDivisor: 4
GridSize: 4
TimelineZoom: 1.8

[Metadata]
Title:Free
TitleUnicode:Free
Artist:VINXIS
ArtistUnicode:VINXIS
Creator:_GiaNt
Version:I want to see this go
Source:
Tags:Vinxis Daxxel _GiaNt banana
BeatmapID:1656502
BeatmapSetID:789315

[Difficulty]
HPDrainRate:6.7
CircleSize:4
OverallDifficulty:9.2
ApproachRate:9.3
SliderMultiplier:1.6
SliderTickRate:1

[Events]
//Background and Video events
0,0,"Lilith.(Tokyo.Babel).full.1252289.jpg",0,0
//Break Periods
//Storyboard Layer 0 (Background)
//Storyboard Layer 1 (Fail)
//Storyboard Layer 2 (Pass)
//Storyboard Layer 3 (Foreground)
//Storyboard Sound Samples

[TimingPoints]
2141,320.855614973262,4,2,0,100,1,0
2141,-133.333333333333,4,2,1,45,0,0
3424,-133.333333333333,4,2,1,45,0,0
4707,-133.333333333333,4,2,1,45,0,0
5991,-133.333333333333,4,2,1,45,0,0
7274,-100,4,2,1,60,0,0
11124,-100,4,2,3,60,0,0
12408,-100,4,2,1,60,0,0
13691,-100,4,2,3,60,0,0
14975,-100,4,2,2,60,0,0
16258,-100,4,2,3,60,0,0
17542,-100,4,2,1,60,0,0
21392,-100,4,2,3,60,0,0
25242,-125,4,2,0,60,0,0
27809,-100,4,2,1,60,0,0
30215,-136.986301369863,4,2,1,5,0,0
30376,-133.333333333333,4,2,1,15,0,0
32782,-133.333333333333,4,2,1,5,0,0
32943,-133.333333333333,4,2,1,15,0,0
35349,-133.333333333333,4,2,1,5,0,0
35509,-133.333333333333,4,2,1,15,0,0
38076,-133.333333333333,4,2,1,15,0,0
40483,-133.333333333333,4,2,1,5,0,0
40643,-133.333333333333,4,2,1,15,0,0
43050,-133.333333333333,4,2,1,5,0,0
43210,-133.333333333333,4,2,1,15,0,0
45616,-133.333333333333,4,2,1,5,0,0
45777,-133.333333333333,4,2,1,15,0,0
48344,-83.3333333333333,4,2,1,60,0,0
52194,-83.3333333333333,4,2,3,60,0,0
53477,-83.3333333333333,4,2,1,60,0,0
54761,-83.3333333333333,4,2,1,60,0,0
56044,-83.3333333333333,4,2,2,60,0,0
57328,-83.3333333333333,4,2,3,60,0,0
58611,-83.3333333333333,4,2,1,60,0,0
59895,-83.3333333333333,4,2,3,60,0,0
61178,-83.3333333333333,4,2,1,60,0,0
62461,-83.3333333333333,4,2,1,60,0,0
86846,-83.3333333333333,4,2,1,80,0,0
94547,-66.6666666666667,4,2,1,70,0,1
135616,-100,4,2,0,70,0,0
156151,-83.3333333333333,4,2,0,70,0,0
174119,-83.3333333333333,4,2,0,80,0,0
186953,-58.8235294117647,4,2,0,70,0,1
187274,-66.6666666666667,4,2,0,70,0,1
204921,-83.3333333333333,4,2,0,70,0,0
207488,-66.6666666666667,4,2,0,70,0,1
225456,-83.3333333333333,4,2,0,70,0,0
228023,-100,4,2,0,70,0,0
230590,-125,4,2,0,30,0,0

[HitObjects]
188,72,2141,6,0,P|144:104|244:112,1,240.000009155274
344,66,3424,2,0,B|290:108|227:59|227:59|126:143,1,240.000009155274
256,236,4707,2,0,P|346:202|314:292,1,240.000009155274
53,295,5991,2,0,P|102:210|12:99,1,240.000009155274
140,124,7274,6,0,P|92:192|92:220,1,80
110,354,7595,2,0,P|156:287|163:260,1,80
203,161,7916,1,0,0:0:0:0:
203,161,8076,1,0,0:0:0:0:
253,287,8237,1,0,0:0:0:0:
86,187,8397,1,0,0:0:0:0:
265,41,8558,6,0,L|265:126,1,80
186,312,8878,2,0,L|184:220,1,80
179,18,9199,1,0,0:0:0:0:
266,197,9360,1,0,0:0:0:0:
82,94,9520,2,0,L|111:176,1,80
171,290,9841,5,0,0:0:0:0:
171,290,10001,1,0,0:0:0:0:
218,134,10162,1,0,0:0:0:0:
69,226,10322,1,0,0:0:0:0:
303,274,10483,1,0,0:0:0:0:
154,176,10643,1,0,0:0:0:0:
376,153,10804,1,0,0:0:0:0:
201,342,10964,1,0,0:0:0:0:
132,148,11124,5,0,0:0:0:0:
252,256,11285,1,0,0:0:0:0:
144,68,11445,2,0,P|188:52|224:64,1,80
356,76,11766,1,0,0:0:0:0:
356,76,11927,1,0,0:0:0:0:
180,177,12087,1,0,0:0:0:0:
272,304,12247,1,0,0:0:0:0:
296,112,12408,6,0,P|252:176|228:180,1,80
108,236,12729,1,0,0:0:0:0:
36,96,12889,1,0,0:0:0:0:
150,317,13050,1,0,0:0:0:0:
150,317,13211,1,0,0:0:0:0:
154,157,13371,2,0,P|148:117|128:84,1,80
268,268,13691,6,0,P|320:224|324:188,1,80
360,60,14012,1,0,0:0:0:0:
251,185,14173,1,0,0:0:0:0:
431,119,14333,1,0,0:0:0:0:
431,119,14493,1,0,0:0:0:0:
336,260,14654,1,0,0:0:0:0:
260,56,14814,1,0,0:0:0:0:
172,344,14975,6,0,P|228:332|244:304,1,80
324,180,15296,1,0,0:0:0:0:
332,356,15456,1,0,0:0:0:0:
240,160,15616,1,0,0:0:0:0:
240,160,15777,1,0,0:0:0:0:
260,304,15937,2,0,P|312:276|324:236,1,80
332,52,16258,6,0,P|388:80|400:120,1,80
436,292,16579,1,0,0:0:0:0:
276,124,16739,1,0,0:0:0:0:
388,240,16900,1,0,0:0:0:0:
232,360,17060,1,0,0:0:0:0:
440,182,17221,1,0,0:0:0:0:
440,182,17381,1,0,0:0:0:0:
296,72,17542,6,0,P|272:136|252:144,1,80
124,52,17862,2,0,P|104:104|108:144,1,80
144,292,18183,1,0,0:0:0:0:
32,164,18344,1,0,0:0:0:0:
224,203,18504,1,0,0:0:0:0:
224,203,18665,1,0,0:0:0:0:
268,56,18825,6,0,P|300:116|300:140,1,80
272,292,19146,1,0,0:0:0:0:
376,160,19306,1,0,0:0:0:0:
184,264,19467,1,0,0:0:0:0:
272,124,19627,1,0,0:0:0:0:
379,343,19788,1,0,0:0:0:0:
379,343,19948,1,0,0:0:0:0:
384,140,20108,6,0,P|332:172|292:176,1,80
196,56,20429,2,0,P|192:112|220:136,1,80
332,240,20750,2,0,P|272:280|232:276,1,80
132,192,21071,1,0,0:0:0:0:
132,192,21231,1,0,0:0:0:0:
284,132,21392,5,0,0:0:0:0:
204,260,21552,1,0,0:0:0:0:
224,92,21713,2,0,P|280:64|320:72,1,80
464,84,22034,2,0,P|460:152|428:184,1,80
296,188,22354,1,0,0:0:0:0:
296,188,22515,1,0,0:0:0:0:
272,336,22675,6,0,P|228:308|208:264,1,80
176,140,22996,1,0,0:0:0:0:
172,332,23157,1,0,0:0:0:0:
56,192,23317,2,0,P|96:148|136:152,1,80
292,196,23638,1,0,0:0:0:0:
292,196,23798,1,0,0:0:0:0:
424,300,23959,6,0,P|452:228|444:196,1,80
456,48,24280,1,0,0:0:0:0:
380,208,24440,1,0,0:0:0:0:
480,136,24600,2,0,P|416:116|376:136,1,80
272,220,24921,1,0,0:0:0:0:
272,220,25082,1,0,0:0:0:0:
235,61,25242,6,0,P|210:89|206:120,1,64
216,324,25563,1,0,0:0:0:0:
360,200,25723,1,0,0:0:0:0:
220,172,25884,2,0,P|201:198|177:219,1,64
72,300,26205,1,0,0:0:0:0:
72,300,26365,1,0,0:0:0:0:
68,176,26526,6,0,P|112:140|136:136,1,64
240,80,26846,1,0,0:0:0:0:
196,208,27007,1,0,0:0:0:0:
196,208,27087,1,0,0:0:0:0:
196,208,27167,1,0,0:0:0:0:
312,132,27328,1,0,0:0:0:0:
272,312,27488,2,0,P|224:288|216:268,1,64
72,224,27809,6,0,B|112:188|152:252|212:132|212:132|264:232|280:268|324:316|404:284|520:248|544:184|452:92|452:92|336:216|268:64|256:-68|160:112|92:-4|12:28|44:96|64:140,1,1200
168,288,30376,6,0,B|236:248|276:264|276:264|380:312|460:220|460:220|384:212|424:80|332:108|336:200|336:200|264:112|192:240|204:64|204:64|120:88|144:164,1,900.000034332277
112,316,32943,6,0,B|112:220|208:200|208:200|116:192|72:104|156:48|196:88|228:24|228:24|268:112|276:152|276:152|364:92|452:184|452:184|432:240|340:224,1,900.000034332277
208,256,35509,6,0,B|160:236|200:136|200:136|148:196|132:116|84:84|84:84|36:124|0:204|60:280|60:280|124:264|124:264|132:328|248:336,1,720.000027465821
124,256,38076,6,0,B|188:212|220:132|220:132|260:224|276:296|340:356|340:356|376:308|432:288|432:244|432:244|424:188|336:204|336:204|296:152|328:88|328:88|292:108|228:52,1,900.000034332277
116,68,40643,6,0,B|92:116|96:176|200:148|200:148|236:248|92:248|92:248|136:344|248:352|248:352|280:320|216:284|336:260|336:260|360:228|388:204|368:160|368:160|316:184|304:104,1,900.000034332277
204,40,43210,6,0,B|180:60|280:108|272:164|272:164|144:104|120:208|80:208|44:248|44:248|84:328|164:196|172:340|172:340|244:328|356:336|192:268|196:244|264:208|312:192|364:264,1,900.000034332277
456,176,45777,6,0,B|444:128|400:228|360:232|360:232|328:208|408:24|300:136|320:168|276:40|276:40|168:60|148:120|148:120|144:176|252:156|252:156|276:200|240:236,1,720.000027465821
188,68,48344,6,0,P|164:120|180:184,1,95.9999970703126
264,288,48665,1,0,0:0:0:0:
284,128,48825,1,0,0:0:0:0:
180,252,48985,2,0,P|120:184|120:164,1,95.9999970703126
136,20,49306,2,0,P|184:76|192:128,1,95.9999970703126
224,256,49627,5,0,0:0:0:0:
304,112,49788,1,0,0:0:0:0:
156,184,49948,1,0,0:0:0:0:
372,244,50108,1,0,0:0:0:0:
228,320,50269,2,0,P|168:272|168:244,1,95.9999970703126
188,88,50590,1,0,0:0:0:0:
108,256,50750,1,0,0:0:0:0:
144,36,50911,6,0,P|128:120|152:156,1,95.9999970703126
272,208,51231,2,0,P|216:268|180:264,1,95.9999970703126
88,160,51552,2,0,P|136:116|176:104,1,95.9999970703126
324,64,51873,1,0,0:0:0:0:
220,192,52034,1,0,0:0:0:0:
252,4,52194,5,0,0:0:0:0:
308,156,52354,1,0,0:0:0:0:
176,56,52515,2,0,P|136:116|136:148,1,95.9999970703126
271,227,52836,2,0,P|339:267|381:267,1,95.9999970703126
498,304,53157,2,0,P|498:248|458:208,1,95.9999970703126
348,108,53477,5,0,0:0:0:0:
284,260,53638,1,0,0:0:0:0:
288,48,53798,1,0,0:0:0:0:
356,196,53959,1,0,0:0:0:0:
224,100,54119,2,0,P|224:152|188:192,1,95.9999970703126
36,180,54440,2,0,P|80:96|104:80,1,95.9999970703126
228,24,54761,6,0,P|300:60|316:64,1,95.9999970703126
468,124,55082,2,0,P|448:176|408:204,1,95.9999970703126
252,212,55403,1,0,0:0:0:0:
380,312,55563,1,0,0:0:0:0:
336,136,55723,2,0,P|308:96|264:84,1,95.9999970703126
100,88,56044,6,0,P|60:144|76:176,1,95.9999970703126
208,244,56365,2,0,P|192:160|184:152,1,95.9999970703126
68,40,56686,1,0,0:0:0:0:
112,196,56846,1,0,0:0:0:0:
184,88,57007,1,0,0:0:0:0:
28,136,57167,1,0,0:0:0:0:
116,276,57328,6,0,P|204:268|220:256,1,95.9999970703126
296,128,57649,2,0,P|232:144|196:120,1,95.9999970703126
80,28,57969,2,0,L|64:160,1,95.9999970703126
112,280,58290,1,0,0:0:0:0:
156,124,58451,1,0,0:0:0:0:
72,188,58611,6,0,P|160:208|200:192,1,95.9999970703126
268,84,58932,2,0,P|312:144|304:204,1,95.9999970703126
304,328,59253,2,0,P|264:272|256:228,1,95.9999970703126
280,84,59574,1,0,0:0:0:0:
156,188,59734,1,0,0:0:0:0:
364,132,59895,5,0,0:0:0:0:
244,208,60055,1,0,0:0:0:0:
372,36,60215,1,0,0:0:0:0:
384,256,60376,1,0,0:0:0:0:
324,124,60536,2,0,P|232:68|224:72,1,95.9999970703126
116,60,60857,2,0,P|84:124|92:152,1,95.9999970703126
140,280,61178,5,0,0:0:0:0:
272,192,61338,1,0,0:0:0:0:
136,140,61499,2,0,P|176:92|224:100,1,95.9999970703126
348,104,61820,2,0,P|352:164|332:212,1,95.9999970703126
244,300,62140,1,0,0:0:0:0:
192,164,62301,1,0,0:0:0:0:
332,140,62461,6,0,P|348:204|324:220,1,95.9999970703126
204,284,62782,2,0,L|140:200,1,95.9999970703126
72,84,63103,2,0,P|144:92|184:128,1,95.9999970703126
284,180,63424,1,0,0:0:0:0:
136,168,63584,1,0,0:0:0:0:
232,60,63745,6,0,P|240:128|272:152,1,95.9999970703126
400,172,64066,2,0,P|432:220|432:280,1,95.9999970703126
300,300,64386,2,0,P|276:228|248:212,1,95.9999970703126
140,140,64707,1,0,0:0:0:0:
100,280,64868,1,0,0:0:0:0:
232,92,65028,5,0,0:0:0:0:
212,280,65189,1,0,0:0:0:0:
100,192,65349,2,0,P|152:148|192:144,1,95.9999970703126
324,144,65670,2,0,P|312:208|280:236,1,95.9999970703126
192,124,65991,2,0,P|160:180|152:232,1,95.9999970703126
244,324,66312,6,0,P|248:252|232:216,1,95.9999970703126
144,124,66632,2,0,P|168:76|232:64,1,95.9999970703126
348,72,66953,2,0,P|344:152|320:180,1,95.9999970703126
236,268,67274,1,0,0:0:0:0:
252,124,67435,1,0,0:0:0:0:
204,344,67595,5,0,0:0:0:0:
304,176,67755,1,0,0:0:0:0:
168,228,67916,2,0,P|192:132|208:116,1,95.9999970703126
296,44,68237,1,0,0:0:0:0:
268,232,68397,1,0,0:0:0:0:
232,72,68558,2,0,P|172:112|160:168,1,95.9999970703126
192,272,68878,6,0,P|212:188|232:156,1,95.9999970703126
300,64,69199,2,0,P|364:108|364:132,1,95.9999970703126
324,256,69520,2,0,P|272:180|264:164,1,95.9999970703126
232,36,69841,1,0,0:0:0:0:
212,196,70001,1,0,0:0:0:0:
180,72,70162,5,0,0:0:0:0:
272,292,70322,1,0,0:0:0:0:
332,140,70483,2,0,P|288:88|256:68,1,95.9999970703126
108,24,70804,2,0,P|80:68|96:140,1,95.9999970703126
176,244,71124,2,0,P|260:204|292:212,1,95.9999970703126
412,144,71445,6,0,P|404:224|384:256,1,95.9999970703126
304,372,71766,1,0,0:0:0:0:
292,208,71927,1,0,0:0:0:0:
356,316,72087,1,0,0:0:0:0:
204,240,72247,1,0,0:0:0:0:
196,356,72408,2,0,P|132:328|120:300,1,95.9999970703126
140,144,72729,6,0,P|208:188|228:176,1,95.9999970703126
356,108,73050,1,0,0:0:0:0:
280,252,73210,1,0,0:0:0:0:
256,128,73370,1,0,0:0:0:0:
204,368,73531,1,0,0:0:0:0:
148,216,73691,2,0,P|260:192|264:184,1,95.9999970703126
356,108,74012,5,0,0:0:0:0:
312,308,74173,1,0,0:0:0:0:
244,160,74333,2,0,P|200:224|168:228,1,95.9999970703126
104,88,74654,2,0,P|56:136|56:168,1,95.9999970703126
172,276,74975,2,0,P|164:192|188:168,1,95.9999970703126
244,44,75296,6,0,P|272:112|260:152,1,95.9999970703126
212,284,75616,1,0,0:0:0:0:
184,148,75777,1,0,0:0:0:0:
240,368,75937,1,0,0:0:0:0:
96,260,76098,1,0,0:0:0:0:
260,260,76258,2,0,P|312:204|312:180,1,95.9999970703126
276,28,76579,6,0,P|252:88|248:120,1,95.9999970703126
248,284,76900,1,0,0:0:0:0:
204,56,77060,1,0,0:0:0:0:
378,136,77221,2,0,P|377:197|339:224,1,95.9999970703126
201,218,77542,1,0,0:0:0:0:
112,340,77702,1,0,0:0:0:0:
108,176,77862,6,0,P|144:128|188:112,1,95.9999970703126
336,76,78183,2,0,P|252:40|212:36,1,95.9999970703126
168,184,78504,2,0,P|240:160|272:192,1,95.9999970703126
388,260,78825,2,0,P|404:200|380:164,1,95.9999970703126
272,60,79146,5,0,0:0:0:0:
264,280,79306,1,0,0:0:0:0:
236,120,79467,1,0,0:0:0:0:
352,328,79627,1,0,0:0:0:0:
152,196,79788,1,0,0:0:0:0:
304,192,79948,1,0,0:0:0:0:
212,68,80108,2,0,P|156:112|136:152,1,95.9999970703126
200,276,80429,6,0,P|232:212|280:200,1,95.9999970703126
364,304,80750,2,0,P|396:252|372:200,1,95.9999970703126
340,76,81071,2,0,P|304:148|288:156,1,95.9999970703126
172,60,81392,2,0,P|128:120|136:164,1,95.9999970703126
168,288,81713,5,0,0:0:0:0:
32,136,81873,1,0,0:0:0:0:
28,268,82034,1,0,0:0:0:0:
120,148,82194,1,0,0:0:0:0:
88,360,82354,2,0,P|172:360|208:328,1,95.9999970703126
148,204,82675,2,0,P|168:136|208:112,1,95.9999970703126
280,244,82996,6,0,P|352:248|388:264,1,95.9999970703126
500,344,83317,1,0,0:0:0:0:
372,168,83477,1,0,0:0:0:0:
312,308,83638,1,0,0:0:0:0:
312,308,83798,1,0,0:0:0:0:
228,176,83959,2,0,P|196:224|156:240,1,95.9999970703126
12,268,84280,5,0,0:0:0:0:
220,204,84440,1,0,0:0:0:0:
84,132,84600,2,0,P|104:196|140:236,1,95.9999970703126
252,300,84921,2,0,P|320:252|324:208,1,95.9999970703126
360,96,85242,1,0,0:0:0:0:
208,292,85403,1,0,0:0:0:0:
320,152,85563,5,0,0:0:0:0:
156,344,85723,1,0,0:0:0:0:
144,132,85884,1,0,0:0:0:0:
264,284,86044,1,0,0:0:0:0:
268,120,86205,2,0,P|224:72|188:72,1,95.9999970703126
40,112,86526,2,0,P|84:172|108:176,1,95.9999970703126
200,208,86846,5,0,0:0:0:0:
416,100,87007,1,0,0:0:0:0:
340,340,87167,1,0,0:0:0:0:
280,104,87328,1,0,0:0:0:0:
396,248,87488,1,0,0:0:0:0:
176,84,87649,1,0,0:0:0:0:
268,252,87809,1,0,0:0:0:0:
348,76,87969,1,0,0:0:0:0:
328,296,88130,6,0,L|276:324,1,47.9999985351563
320,168,88290,2,0,L|368:144,1,47.9999985351563
168,248,88451,2,0,L|96:292,1,47.9999985351563
192,132,88611,2,0,L|240:108,1,47.9999985351563
164,112,88772,1,0,0:0:0:0:
156,66,88852,1,0,0:0:0:0:
190,35,88932,1,0,0:0:0:0:
232,44,89012,1,0,0:0:0:0:
267,75,89092,1,0,0:0:0:0:
314,84,89172,1,0,0:0:0:0:
358,67,89252,1,0,0:0:0:0:
484,152,89413,6,0,P|480:216|456:240,1,95.9999970703126
288,152,89734,1,0,0:0:0:0:
112,232,89895,1,0,0:0:0:0:
112,208,90055,1,0,0:0:0:0:
112,188,90215,1,0,0:0:0:0:
200,16,90376,2,0,P|252:60|248:96,1,95.9999970703126
200,268,90697,5,0,0:0:0:0:
128,92,90857,1,0,0:0:0:0:
316,108,91018,2,0,P|328:176|316:208,1,95.9999970703126
128,204,91338,2,0,P|152:280|188:280,1,95.9999970703126
348,272,91659,2,0,P|344:200|328:180,1,95.9999970703126
228,68,91980,5,0,0:0:0:0:
180,264,92141,1,0,0:0:0:0:
148,136,92301,1,0,0:0:0:0:
224,336,92461,1,0,0:0:0:0:
256,196,92622,1,0,0:0:0:0:
104,228,92782,1,0,0:0:0:0:
124,36,92943,2,0,L|200:104,1,95.9999970703126
328,256,93263,2,0,P|388:204|396:152,1,95.9999970703126
400,60,93584,2,0,P|336:88|332:112,1,95.9999970703126
128,148,94547,6,0,B|92:68|92:68|276:80,1,240.000009155274
460,104,95028,1,0,0:0:0:0:
332,280,95189,1,0,0:0:0:0:
364,140,95349,1,0,0:0:0:0:
216,312,95509,1,0,0:0:0:0:
436,184,95670,1,0,0:0:0:0:
244,84,95830,6,0,B|224:32|224:32|288:29,1,120.000004577637
436,48,96151,2,0,B|444:120|444:120|408:160,1,120.000004577637
256,304,96472,1,0,0:0:0:0:
324,164,96632,1,0,0:0:0:0:
160,308,96793,1,0,0:0:0:0:
208,100,96953,1,0,0:0:0:0:
344,320,97114,5,0,0:0:0:0:
84,144,97274,1,0,0:0:0:0:
224,328,97435,1,0,0:0:0:0:
324,164,97595,1,0,0:0:0:0:
144,248,97755,2,0,P|168:160|184:156,1,120.000004577637
408,184,98076,2,0,P|364:104|328:96,1,120.000004577637
176,48,98397,5,0,0:0:0:0:
184,276,98558,1,0,0:0:0:0:
72,76,98718,1,0,0:0:0:0:
220,184,98878,1,0,0:0:0:0:
32,316,99039,1,0,0:0:0:0:
104,168,99199,1,0,0:0:0:0:
312,260,99360,2,0,P|364:208|360:148,1,120.000004577637
160,64,99681,5,0,0:0:0:0:
224,292,99841,1,0,0:0:0:0:
104,184,100001,1,0,0:0:0:0:
316,100,100162,1,0,0:0:0:0:
336,292,100322,2,0,P|272:260|248:196,1,120.000004577637
452,112,100643,2,0,B|480:156|480:156|428:248,1,120.000004577637
244,324,100964,6,0,P|228:248|200:220,1,120.000004577637
12,140,101285,1,0,0:0:0:0:
180,256,101445,1,0,0:0:0:0:
32,228,101606,1,0,0:0:0:0:
180,88,101766,1,0,0:0:0:0:
88,328,101927,1,0,0:0:0:0:
72,96,102087,1,0,0:0:0:0:
208,228,102247,6,0,P|296:240|344:288,1,120.000004577637
484,356,102568,2,0,P|488:276|444:208,1,120.000004577637
360,108,102889,1,0,0:0:0:0:
289,295,103049,1,0,0:0:0:0:
268,138,103210,1,0,0:0:0:0:
93,267,103370,1,0,0:0:0:0:
188,192,103531,5,0,0:0:0:0:
20,80,103691,1,0,0:0:0:0:
216,288,103852,1,0,0:0:0:0:
36,196,104012,1,0,0:0:0:0:
192,64,104173,2,0,P|228:144|292:144,1,120.000004577637
288,52,104493,2,0,P|344:96|352:156,1,120.000004577637
356,312,104814,5,0,0:0:0:0:
196,184,104975,1,0,0:0:0:0:
232,300,105135,1,0,0:0:0:0:
328,120,105296,1,0,0:0:0:0:
168,80,105456,2,0,B|120:40|120:40|60:92,1,120.000004577637
104,268,105777,1,0,0:0:0:0:
104,268,105857,1,0,0:0:0:0:
104,268,105937,1,0,0:0:0:0:
300,104,106098,5,0,0:0:0:0:
224,288,106258,1,0,0:0:0:0:
404,192,106419,2,0,B|372:172|396:124|396:124|368:136|336:120,1,120.000004577637
160,64,106739,1,0,0:0:0:0:
316,180,106900,1,0,0:0:0:0:
184,264,107060,1,0,0:0:0:0:
292,56,107221,1,0,0:0:0:0:
64,52,107381,6,0,B|56:112|56:112|124:144,1,120.000004577637
320,72,107702,1,0,0:0:0:0:
256,264,107862,1,0,0:0:0:0:
188,84,108023,2,0,P|140:152|160:192,1,120.000004577637
336,296,108344,2,0,B|408:284|408:284|424:180,1,120.000004577637
388,20,108665,5,0,0:0:0:0:
240,156,108825,1,0,0:0:0:0:
320,32,108985,1,0,0:0:0:0:
344,240,109146,1,0,0:0:0:0:
136,124,109306,2,0,P|84:192|76:240,1,120.000004577637
76,224,109547,1,0,0:0:0:0:
76,224,109627,1,0,0:0:0:0:
240,120,109788,1,0,0:0:0:0:
484,148,109948,5,0,0:0:0:0:
348,268,110108,1,0,0:0:0:0:
315,163,110269,1,0,0:0:0:0:
488,272,110429,1,0,0:0:0:0:
396,104,110590,2,0,B|344:56|344:56|292:124,1,120.000004577637
224,260,110911,1,0,0:0:0:0:
224,260,110991,1,0,0:0:0:0:
224,260,111071,1,0,0:0:0:0:
92,120,111231,6,0,P|192:136|248:96,1,120.000004577637
392,80,111552,1,0,0:0:0:0:
316,208,111713,1,0,0:0:0:0:
258,225,111793,1,0,0:0:0:0:
199,216,111873,1,0,0:0:0:0:
56,88,112034,1,0,0:0:0:0:
208,20,112194,2,0,P|288:44|356:88,1,120.000004577637
508,140,112515,6,0,B|524:200|524:200|452:260,1,120.000004577637
320,364,112836,1,0,0:0:0:0:
280,140,112996,1,0,0:0:0:0:
220,336,113157,1,0,0:0:0:0:
180,96,113317,1,0,0:0:0:0:
128,336,113477,1,0,0:0:0:0:
192,200,113638,1,0,0:0:0:0:
332,52,113798,6,0,B|388:92|388:92|384:168,1,120.000004577637
380,348,114119,1,0,0:0:0:0:
264,108,114280,1,0,0:0:0:0:
200,288,114440,1,0,0:0:0:0:
392,104,114600,1,0,0:0:0:0:
312,264,114761,1,0,0:0:0:0:
172,120,114921,1,0,0:0:0:0:
348,48,115082,6,0,P|328:148|376:180,1,120.000004577637
476,300,115403,1,0,0:0:0:0:
260,172,115563,1,0,0:0:0:0:
360,336,115723,1,0,0:0:0:0:
168,240,115884,1,0,0:0:0:0:
348,220,116044,2,0,B|360:156|360:156|320:116,1,120.000004577637
180,24,116365,5,0,0:0:0:0:
236,184,116526,1,0,0:0:0:0:
96,88,116686,2,0,P|96:172|116:208,1,120.000004577637
248,304,117007,1,0,0:0:0:0:
212,140,117167,1,0,0:0:0:0:
360,220,117328,2,0,B|388:160|388:160|340:120,1,120.000004577637
152,56,117649,6,0,B|92:96|92:96|136:184,1,120.000004577637
260,280,117969,1,0,0:0:0:0:
260,280,118050,1,0,0:0:0:0:
260,280,118130,1,0,0:0:0:0:
420,124,118290,1,0,0:0:0:0:
368,284,118451,1,0,0:0:0:0:
476,64,118611,1,0,0:0:0:0:
464,308,118772,1,0,0:0:0:0:
340,144,118932,5,0,0:0:0:0:
284,336,119092,1,0,0:0:0:0:
260,184,119253,2,0,B|220:144|220:144|140:216,1,120.000004577637
144,336,119574,1,0,0:0:0:0:
240,80,119734,1,0,0:0:0:0:
232,252,119895,1,0,0:0:0:0:
152,32,120055,1,0,0:0:0:0:
216,184,120215,6,0,P|272:144|320:164,1,120.000004577637
444,240,120536,1,0,0:0:0:0:
336,328,120697,1,0,0:0:0:0:
400,128,120857,2,0,B|372:68|372:68|308:72,1,120.000004577637
112,72,121178,1,0,0:0:0:0:
212,248,121338,1,0,0:0:0:0:
28,196,121499,6,0,P|100:148|176:148,1,120.000004577637
336,144,121820,1,0,0:0:0:0:
232,296,121980,1,0,0:0:0:0:
116,96,122140,1,0,0:0:0:0:
200,220,122301,1,0,0:0:0:0:
144,24,122461,1,0,0:0:0:0:
60,256,122622,1,0,0:0:0:0:
212,132,122782,6,0,B|232:68|232:68|256:96|292:100,1,120.000004577637
456,192,123103,1,0,0:0:0:0:
324,332,123263,1,0,0:0:0:0:
388,100,123424,1,0,0:0:0:0:
416,300,123584,1,0,0:0:0:0:
308,140,123745,2,0,B|256:112|256:112|196:152,1,120.000004577637
164,256,124066,6,0,B|232:256|232:256|276:212,1,120.000004577637
372,60,124386,1,0,0:0:0:0:
328,268,124547,1,0,0:0:0:0:
252,80,124707,2,0,P|160:88|124:120,1,120.000004577637
128,232,125028,1,0,0:0:0:0:
169,274,125108,1,0,0:0:0:0:
226,288,125188,1,0,0:0:0:0:
456,296,125349,5,0,0:0:0:0:
304,160,125509,1,0,0:0:0:0:
360,344,125670,1,0,0:0:0:0:
392,92,125830,1,0,0:0:0:0:
256,336,125991,1,0,0:0:0:0:
408,220,126151,1,0,0:0:0:0:
256,104,126312,2,0,P|180:120|156:160,1,120.000004577637
172,284,126632,6,0,P|252:260|264:216,1,120.000004577637
284,28,126953,2,0,P|192:44|164:100,1,120.000004577637
48,216,127274,1,0,0:0:0:0:
232,124,127435,1,0,0:0:0:0:
312,312,127595,1,0,0:0:0:0:
200,196,127755,1,0,0:0:0:0:
388,152,127916,6,0,B|344:92|344:92|280:92,1,120.000004577637
116,156,128237,1,0,0:0:0:0:
216,96,128397,1,0,0:0:0:0:
92,264,128558,1,0,0:0:0:0:
124,76,128718,1,0,0:0:0:0:
208,236,128878,1,0,0:0:0:0:
168,16,129039,1,0,0:0:0:0:
280,124,129199,6,0,B|344:168|344:168|336:248,1,120.000004577637
344,344,129520,1,0,0:0:0:0:
208,156,129681,1,0,0:0:0:0:
236,320,129841,1,0,0:0:0:0:
324,120,130001,1,0,0:0:0:0:
180,216,130162,2,0,P|132:172|168:104,1,120.000004577637
320,24,130483,6,0,B|244:68|244:68|284:128,1,120.000004577637
404,256,130804,1,0,0:0:0:0:
144,140,130964,1,0,0:0:0:0:
276,348,131124,1,0,0:0:0:0:
292,160,131285,1,0,0:0:0:0:
168,320,131445,2,0,P|104:276|80:228,1,120.000004577637
128,88,131766,6,0,P|176:36|236:40,1,120.000004577637
388,104,132087,2,0,B|440:144|440:144|380:208,1,120.000004577637
308,260,132408,1,0,0:0:0:0:
464,172,132568,1,0,0:0:0:0:
272,320,132729,1,0,0:0:0:0:
456,268,132889,1,0,0:0:0:0:
356,92,133050,6,0,P|292:72|224:112,1,120.000004577637
112,244,133370,1,0,0:0:0:0:
308,184,133531,1,0,0:0:0:0:
252,24,133691,1,0,0:0:0:0:
212,260,133852,1,0,0:0:0:0:
196,80,134012,1,0,0:0:0:0:
316,280,134173,1,0,0:0:0:0:
140,164,134333,6,0,P|108:216|144:264,1,120.000004577637
292,248,134654,2,0,B|324:216|244:160|292:92,1,120.000004577637
336,20,134975,1,0,0:0:0:0:
404,224,135135,1,0,0:0:0:0:
304,96,135296,1,0,0:0:0:0:
452,320,135456,1,0,0:0:0:0:
224,104,135616,6,0,P|192:152|204:188,1,80
240,316,135937,1,0,0:0:0:0:
292,152,136098,1,0,0:0:0:0:
204,256,136258,2,0,P|242:247|279:260,1,80
404,332,136579,1,0,0:0:0:0:
348,200,136739,1,0,0:0:0:0:
272,80,136900,6,0,P|236:116|176:144,1,80
80,76,137221,2,0,P|40:128|40:168,1,80
20,284,137542,2,0,P|92:252|100:224,1,80
176,140,137862,1,0,0:0:0:0:
236,272,138023,1,0,0:0:0:0:
256,68,138183,6,0,P|328:104|336:112,1,80
416,216,138504,2,0,P|352:232|332:220,1,80
228,148,138825,1,0,0:0:0:0:
356,284,138985,1,0,0:0:0:0:
280,100,139146,2,0,P|204:80|180:88,1,80
44,168,139467,6,0,P|64:208|108:228,1,80
236,252,139788,1,0,0:0:0:0:
116,108,139948,1,0,0:0:0:0:
152,316,140108,1,0,0:0:0:0:
232,100,140269,1,0,0:0:0:0:
100,40,140429,2,0,P|56:80|52:136,1,80
84,240,140750,6,0,P|148:256|180:232,1,80
232,100,141071,2,0,P|284:132|300:160,1,80
320,288,141392,1,0,0:0:0:0:
172,120,141552,1,0,0:0:0:0:
216,256,141713,1,0,0:0:0:0:
112,48,141873,1,0,0:0:0:0:
284,80,142034,6,0,P|316:108|328:156,1,80
312,284,142354,1,0,0:0:0:0:
232,164,142515,1,0,0:0:0:0:
156,44,142675,2,0,P|120:104|128:128,1,80
136,252,142996,2,0,P|184:236|212:256,1,80
348,272,143317,6,0,P|376:208|368:164,1,80
300,76,143638,2,0,P|232:104|204:84,1,80
96,56,143959,1,0,0:0:0:0:
176,256,144119,1,0,0:0:0:0:
248,36,144280,1,0,0:0:0:0:
128,160,144440,1,0,0:0:0:0:
292,144,144600,6,0,B|312:121|324:112|324:112|335:119|360:128,1,80
496,156,144921,1,0,0:0:0:0:
416,324,145082,1,0,0:0:0:0:
360,116,145242,1,0,0:0:0:0:
444,232,145403,1,0,0:0:0:0:
300,252,145563,2,0,P|288:196|272:164,1,80
212,48,145884,6,0,B|196:72|160:72|144:92,1,80
20,164,146205,1,0,0:0:0:0:
192,136,146365,1,0,0:0:0:0:
140,264,146526,2,0,P|224:272|244:256,1,80
324,112,146846,1,0,0:0:0:0:
184,212,147007,1,0,0:0:0:0:
108,92,147167,6,0,P|164:88|192:52,1,80
280,100,147488,2,0,P|296:144|284:184,1,80
260,316,147809,2,0,B|212:296|184:312|172:264,1,80
80,188,148130,1,0,0:0:0:0:
260,244,148290,1,0,0:0:0:0:
28,236,148451,6,0,P|24:148|36:132,1,80
84,32,148772,1,0,0:0:0:0:
120,264,148932,1,0,0:0:0:0:
32,136,149092,1,0,0:0:0:0:
216,76,149253,1,0,0:0:0:0:
112,200,149413,2,0,P|180:240|180:264,1,80
296,316,149734,6,0,P|296:244|320:228,1,80
392,212,150055,2,0,P|424:168|404:124,1,80
316,48,150376,1,0,0:0:0:0:
352,280,150536,1,0,0:0:0:0:
316,140,150697,2,0,P|276:148|240:132,1,80
144,68,151018,6,0,P|144:128|104:160,1,80
240,240,151338,2,0,P|264:188|288:172,1,80
412,120,151659,2,0,P|412:176|396:192,1,80
296,292,151980,1,0,0:0:0:0:
356,144,152141,1,0,0:0:0:0:
228,212,152301,6,0,P|204:168|156:164,1,80
44,100,152622,2,0,P|112:80|144:84,1,80
264,116,152943,1,0,0:0:0:0:
164,228,153103,1,0,0:0:0:0:
196,84,153263,2,0,P|256:44|280:44,1,80
372,88,153584,6,0,P|348:128|360:168,1,80
432,316,153905,1,0,0:0:0:0:
304,160,154066,1,0,0:0:0:0:
356,292,154226,1,0,0:0:0:0:
388,76,154386,1,0,0:0:0:0:
244,84,154547,2,0,P|200:124|168:120,1,80
40,132,154868,6,0,P|52:204|40:216,1,80
44,348,155189,2,0,P|108:344|140:312,1,80
192,212,155509,1,0,0:0:0:0:
72,284,155670,1,0,0:0:0:0:
208,104,155830,1,0,0:0:0:0:
272,284,155991,1,0,0:0:0:0:
132,184,156151,6,0,B|156:168|160:144|160:144|168:164|220:192,1,95.9999970703126
336,272,156472,1,0,0:0:0:0:
236,92,156632,1,0,0:0:0:0:
280,356,156793,1,0,0:0:0:0:
192,208,156953,1,0,0:0:0:0:
360,164,157114,2,0,P|340:104|312:88,1,95.9999970703126
144,52,157435,6,0,P|140:104|104:152,1,95.9999970703126
32,232,157755,2,0,P|84:292|136:304,1,95.9999970703126
224,180,158076,1,0,0:0:0:0:
152,336,158237,1,0,0:0:0:0:
316,168,158397,1,0,0:0:0:0:
104,196,158558,1,0,0:0:0:0:
252,276,158718,6,0,P|304:260|348:284,1,95.9999970703126
424,180,159039,2,0,P|368:192|316:176,1,95.9999970703126
168,124,159360,1,0,0:0:0:0:
296,328,159520,1,0,0:0:0:0:
336,160,159681,2,0,P|304:108|260:100,1,95.9999970703126
100,96,160001,5,0,0:0:0:0:
272,164,160162,1,0,0:0:0:0:
176,20,160322,1,0,0:0:0:0:
184,244,160483,1,0,0:0:0:0:
240,80,160643,2,0,P|316:64|352:80,1,95.9999970703126
496,128,160964,2,0,P|424:188|424:196,1,95.9999970703126
340,332,161285,6,0,P|284:280|256:280,1,95.9999970703126
100,232,161606,1,0,0:0:0:0:
244,84,161766,1,0,0:0:0:0:
228,212,161927,1,0,0:0:0:0:
104,60,162087,1,0,0:0:0:0:
56,176,162247,2,0,P|124:168|152:184,1,95.9999970703126
304,252,162568,6,0,P|256:280|220:260,1,95.9999970703126
84,160,162889,1,0,0:0:0:0:
244,96,163050,1,0,0:0:0:0:
208,316,163210,1,0,0:0:0:0:
316,132,163370,1,0,0:0:0:0:
156,200,163531,2,0,P|152:128|120:104,1,95.9999970703126
40,16,163852,6,0,P|24:64|36:108,1,95.9999970703126
116,260,164173,1,0,0:0:0:0:
168,120,164333,1,0,0:0:0:0:
156,336,164493,1,0,0:0:0:0:
108,168,164654,1,0,0:0:0:0:
240,212,164814,2,0,P|288:216|320:168,1,95.9999970703126
376,20,165135,6,0,P|412:96|428:112,1,95.9999970703126
388,276,165456,2,0,P|352:220|336:156,1,95.9999970703126
304,24,165777,1,0,0:0:0:0:
256,228,165937,1,0,0:0:0:0:
200,72,166098,1,0,0:0:0:0:
368,200,166258,1,0,0:0:0:0:
224,160,166419,6,0,P|164:140|124:164,1,95.9999970703126
36,296,166739,2,0,P|24:224|32:188,1,95.9999970703126
92,40,167060,1,0,0:0:0:0:
196,184,167221,1,0,0:0:0:0:
216,92,167381,2,0,P|256:128|272:188,1,95.9999970703126
220,284,167702,6,0,P|168:256|120:272,1,95.9999970703126
88,168,168023,2,0,P|136:136|136:80,1,95.9999970703126
248,76,168344,2,0,P|300:108|328:176,1,95.9999970703126
308,308,168665,2,0,P|232:244|224:228,1,95.9999970703126
156,96,168985,5,0,0:0:0:0:
212,328,169146,1,0,0:0:0:0:
92,196,169306,1,0,0:0:0:0:
268,240,169467,1,0,0:0:0:0:
84,84,169627,1,0,0:0:0:0:
132,260,169788,1,0,0:0:0:0:
200,112,169948,2,0,P|252:76|280:84,1,95.9999970703126
392,144,170269,6,0,P|372:192|392:256,1,95.9999970703126
360,336,170590,2,0,P|280:344|264:328,1,95.9999970703126
172,196,170911,1,0,0:0:0:0:
316,284,171071,1,0,0:0:0:0:
112,152,171231,1,0,0:0:0:0:
192,332,171392,1,0,0:0:0:0:
212,136,171552,6,0,P|224:88|264:68,1,95.9999970703126
436,64,171873,2,0,P|392:112|360:128,1,95.9999970703126
272,272,172194,2,0,P|212:264|176:296,1,95.9999970703126
40,188,172515,2,0,P|64:124|88:112,1,95.9999970703126
212,44,172836,5,0,0:0:0:0:
160,228,172996,1,0,0:0:0:0:
140,56,173157,2,0,P|192:112|216:116,1,95.9999970703126
368,136,173477,2,0,P|344:196|316:208,1,95.9999970703126
144,168,173798,2,0,P|132:232|176:272,1,95.9999970703126
312,316,174119,5,0,0:0:0:0:
200,120,174280,1,0,0:0:0:0:
232,272,174440,1,0,0:0:0:0:
300,56,174600,1,0,0:0:0:0:
388,212,174761,1,0,0:0:0:0:
96,84,174921,1,0,0:0:0:0:
368,108,175082,1,0,0:0:0:0:
168,200,175242,1,0,0:0:0:0:
268,316,175403,6,0,P|312:324|316:324,1,47.9999985351563
132,268,175563,2,0,L|76:300,1,47.9999985351563
236,176,175723,2,0,L|308:192,1,47.9999985351563
124,148,175883,2,0,L|84:176,1,47.9999985351563
100,108,176044,5,0,0:0:0:0:
79,66,176124,1,0,0:0:0:0:
102,26,176204,1,0,0:0:0:0:
148,40,176285,1,0,0:0:0:0:
189,62,176365,1,0,0:0:0:0:
236,59,176445,1,0,0:0:0:0:
274,30,176525,1,0,0:0:0:0:
384,152,176686,6,0,P|344:216|352:236,1,95.9999970703126
196,292,177007,2,0,P|104:312|96:308,2,95.9999970703126
300,168,177488,1,0,0:0:0:0:
140,248,177649,1,0,0:0:0:0:
356,264,177809,1,0,0:0:0:0:
224,168,177969,6,0,P|200:108|164:104,1,95.9999970703126
12,84,178290,2,0,P|28:156|48:172,1,95.9999970703126
200,220,178611,1,0,0:0:0:0:
180,56,178772,1,0,0:0:0:0:
200,220,178932,2,0,P|256:192|264:152,1,95.9999970703126
324,8,179253,6,0,P|332:76|356:104,1,95.9999970703126
428,240,179574,2,0,P|356:200|324:196,1,95.9999970703126
168,144,179895,1,0,0:0:0:0:
352,272,180055,1,0,0:0:0:0:
236,164,180215,2,0,P|224:104|192:80,1,95.9999970703126
44,32,180536,5,0,0:0:0:0:
112,268,180697,1,0,0:0:0:0:
112,108,180857,1,0,0:0:0:0:
40,320,181018,1,0,0:0:0:0:
336,148,181820,6,0,P|376:200|384:232,2,95.9999970703126
216,40,182301,1,0,0:0:0:0:
256,192,182461,1,0,0:0:0:0:
288,72,182622,1,0,0:0:0:0:
128,100,182782,2,0,P|124:152|144:196,1,95.9999970703126
276,284,183103,6,0,P|280:212|308:192,1,95.9999970703126
384,64,183424,1,0,0:0:0:0:
336,256,183584,1,0,0:0:0:0:
276,104,183745,2,0,P|208:108|192:88,1,95.9999970703126
40,152,184066,2,0,P|72:216|76:252,1,95.9999970703126
236,260,184386,6,0,P|300:256|328:232,1,95.9999970703126
412,100,184707,1,0,0:0:0:0:
268,192,184868,1,0,0:0:0:0:
456,304,185028,1,0,0:0:0:0:
324,32,185189,1,0,0:0:0:0:
364,192,185349,2,0,P|340:272|316:280,1,95.9999970703126
172,256,185670,6,0,P|156:196|132:160,1,95.9999970703126
56,28,185991,2,0,P|132:72|148:64,1,95.9999970703126
292,48,186312,2,0,P|288:96|256:152,1,95.9999970703126
148,248,186632,1,0,0:0:0:0:
188,88,186793,1,0,0:0:0:0:
408,56,186953,6,0,B|468:216|468:216|340:284,1,272.000005187988
152,320,187435,1,0,0:0:0:0:
320,368,187595,1,0,0:0:0:0:
184,152,187755,1,0,0:0:0:0:
228,344,187916,1,0,0:0:0:0:
336,156,188076,1,0,0:0:0:0:
168,72,188237,6,0,B|104:104|104:104|116:156,1,120.000004577637
196,308,188558,1,0,0:0:0:0:
244,148,188718,1,0,0:0:0:0:
424,52,188878,2,0,P|424:120|392:176,1,120.000004577637
401,165,189119,1,0,0:0:0:0:
401,165,189199,1,0,0:0:0:0:
240,44,189360,1,0,0:0:0:0:
224,248,189520,6,0,P|236:168|196:120,1,120.000004577637
40,40,189841,1,0,0:0:0:0:
164,200,190001,1,0,0:0:0:0:
12,144,190162,1,0,0:0:0:0:
256,72,190322,1,0,0:0:0:0:
100,176,190483,2,0,P|112:248|168:268,1,120.000004577637
240,144,190804,6,0,P|352:108|380:136,1,120.000004577637
480,152,191124,1,0,0:0:0:0:
320,280,191285,1,0,0:0:0:0:
392,168,191445,1,0,0:0:0:0:
180,248,191606,1,0,0:0:0:0:
360,340,191766,1,0,0:0:0:0:
188,156,191927,1,0,0:0:0:0:
328,48,192087,6,0,P|376:112|376:160,1,120.000004577637
377,149,192328,1,0,0:0:0:0:
377,149,192408,1,0,0:0:0:0:
264,356,192568,1,0,0:0:0:0:
136,120,192729,1,0,0:0:0:0:
240,284,192889,1,0,0:0:0:0:
228,52,193050,1,0,0:0:0:0:
56,200,193210,1,0,0:0:0:0:
168,296,193370,6,0,P|196:224|232:212,1,120.000004577637
372,144,193691,1,0,0:0:0:0:
240,284,193852,1,0,0:0:0:0:
200,84,194012,2,0,P|152:156|140:204,1,120.000004577637
104,364,194333,1,0,0:0:0:0:
228,204,194493,1,0,0:0:0:0:
452,152,194654,6,0,P|408:84|360:72,1,120.000004577637
240,92,194975,1,0,0:0:0:0:
208,142,195055,1,0,0:0:0:0:
202,201,195135,1,0,0:0:0:0:
200,376,195296,1,0,0:0:0:0:
292,164,195456,1,0,0:0:0:0:
92,308,195616,1,0,0:0:0:0:
304,272,195777,1,0,0:0:0:0:
104,196,195937,6,0,P|136:136|192:108,1,120.000004577637
388,56,196258,1,0,0:0:0:0:
396,252,196419,1,0,0:0:0:0:
328,108,196579,1,0,0:0:0:0:
472,320,196739,1,0,0:0:0:0:
280,284,196900,1,0,0:0:0:0:
452,108,197060,1,0,0:0:0:0:
248,180,197221,6,0,P|192:228|144:216,1,120.000004577637
24,96,197542,1,0,0:0:0:0:
184,156,197702,1,0,0:0:0:0:
68,256,197862,1,0,0:0:0:0:
148,56,198023,1,0,0:0:0:0:
208,232,198183,2,0,P|292:192|336:212,1,120.000004577637
488,304,198504,5,0,0:0:0:0:
276,268,198665,1,0,0:0:0:0:
428,132,198825,2,0,P|328:72|280:84,1,120.000004577637
160,100,199146,1,0,0:0:0:0:
236,264,199306,1,0,0:0:0:0:
228,40,199467,1,0,0:0:0:0:
88,208,199627,1,0,0:0:0:0:
236,120,199788,6,0,P|320:172|328:208,1,120.000004577637
432,296,200108,2,0,P|432:196|440:172,1,120.000004577637
484,32,200429,1,0,0:0:0:0:
256,196,200590,1,0,0:0:0:0:
332,60,200750,2,0,P|372:144|396:168,1,120.000004577637
496,284,201071,5,0,0:0:0:0:
332,204,201231,1,0,0:0:0:0:
432,372,201392,1,0,0:0:0:0:
416,140,201552,1,0,0:0:0:0:
276,244,201713,2,0,P|192:240|168:200,1,120.000004577637
72,40,202034,1,0,0:0:0:0:
236,184,202194,1,0,0:0:0:0:
72,156,202354,6,0,P|132:88|200:72,1,120.000004577637
360,72,202675,1,0,0:0:0:0:
360,72,202755,1,0,0:0:0:0:
360,72,202836,1,0,0:0:0:0:
188,224,202996,1,0,0:0:0:0:
400,136,203157,1,0,0:0:0:0:
292,264,203317,1,0,0:0:0:0:
296,40,203477,1,0,0:0:0:0:
392,216,203638,6,0,P|372:308|328:328,1,120.000004577637
156,356,203959,1,0,0:0:0:0:
56,192,204119,1,0,0:0:0:0:
292,352,204280,1,0,0:0:0:0:
0,144,204440,1,0,0:0:0:0:
184,60,204600,2,0,B|228:32|228:32|232:100|232:100|260:84,1,120.000004577637
300,264,204921,6,0,B|280:312|280:312|232:296,1,95.9999970703126
52,272,205242,1,0,0:0:0:0:
212,216,205403,1,0,0:0:0:0:
24,156,205563,1,0,0:0:0:0:
172,296,205723,1,0,0:0:0:0:
96,60,205884,1,0,0:0:0:0:
288,196,206044,1,0,0:0:0:0:
120,160,206205,6,0,P|156:112|232:104,1,95.9999970703126
352,80,206526,2,0,P|396:124|380:184,1,95.9999970703126
196,308,206846,1,0,0:0:0:0:
324,148,207007,1,0,0:0:0:0:
328,276,207167,1,0,0:0:0:0:
176,104,207328,1,0,0:0:0:0:
320,76,207488,6,0,P|388:108|396:164,1,120.000004577637
392,244,207809,1,0,0:0:0:0:
356,290,207889,1,0,0:0:0:0:
299,306,207969,1,0,0:0:0:0:
172,332,208130,1,0,0:0:0:0:
300,96,208290,1,0,0:0:0:0:
288,300,208451,1,0,0:0:0:0:
144,156,208611,1,0,0:0:0:0:
376,96,208772,6,0,B|356:156|356:156|332:148|284:168,1,120.000004577637
140,284,209092,1,0,0:0:0:0:
240,104,209253,1,0,0:0:0:0:
372,260,209413,2,0,B|392:224|420:216|420:216|392:192|396:156,1,120.000004577637
408,28,209734,1,0,0:0:0:0:
260,216,209895,1,0,0:0:0:0:
416,136,210055,6,0,P|360:92|296:80,1,120.000004577637
108,68,210376,1,0,0:0:0:0:
168,296,210536,1,0,0:0:0:0:
312,56,210697,1,0,0:0:0:0:
244,248,210857,1,0,0:0:0:0:
208,100,211018,1,0,0:0:0:0:
368,296,211178,1,0,0:0:0:0:
192,224,211338,6,0,B|132:176|132:176|164:144,1,120.000004577637
316,8,211659,1,0,0:0:0:0:
296,212,211820,1,0,0:0:0:0:
256,92,211980,1,0,0:0:0:0:
440,220,212140,1,0,0:0:0:0:
224,212,212301,2,0,P|272:148|352:152,1,120.000004577637
488,144,212622,6,0,P|392:216|388:252,1,120.000004577637
394,208,212862,1,0,0:0:0:0:
394,208,212943,1,0,0:0:0:0:
172,336,213103,1,0,0:0:0:0:
316,216,213263,1,0,0:0:0:0:
152,140,213424,1,0,0:0:0:0:
344,76,213584,2,0,B|400:104|400:104|368:164,1,120.000004577637
276,264,213905,6,0,P|236:216|248:160,1,120.000004577637
200,40,214226,2,0,P|144:104|96:124,1,120.000004577637
112,248,214547,2,0,P|168:300|220:308,1,120.000004577637
412,288,214868,1,0,0:0:0:0:
188,232,215028,1,0,0:0:0:0:
336,124,215189,6,0,P|284:84|204:80,1,120.000004577637
36,136,215509,1,0,0:0:0:0:
256,152,215670,1,0,0:0:0:0:
140,232,215830,2,0,B|184:284|184:284|188:260|240:264,1,120.000004577637
384,276,216151,1,0,0:0:0:0:
268,80,216312,1,0,0:0:0:0:
236,188,216472,6,0,B|180:156|180:156|176:200|144:192,1,120.000004577637
0,192,216793,1,0,0:0:0:0:
160,56,216953,1,0,0:0:0:0:
72,296,217114,1,0,0:0:0:0:
88,120,217274,1,0,0:0:0:0:
176,248,217435,2,0,B|192:240|216:204|216:204|208:236|256:252,1,120.000004577637
452,248,217755,5,0,0:0:0:0:
284,176,217916,1,0,0:0:0:0:
484,140,218076,2,0,P|408:92|328:76,1,120.000004577637
224,92,218397,1,0,0:0:0:0:
244,244,218558,1,0,0:0:0:0:
80,80,218718,1,0,0:0:0:0:
144,324,218878,1,0,0:0:0:0:
156,132,219039,6,0,P|228:176|284:152,1,120.000004577637
368,52,219360,2,0,P|408:136|392:168,1,120.000004577637
304,336,219681,1,0,0:0:0:0:
340,120,219841,1,0,0:0:0:0:
188,268,220001,2,0,B|148:228|148:228|180:200|180:200|172:176|220:160,1,120.000004577637
280,72,220322,6,0,P|408:92|412:108,1,120.000004577637
448,196,220643,2,0,P|392:272|360:276,1,120.000004577637
168,276,220964,1,0,0:0:0:0:
328,200,221124,1,0,0:0:0:0:
260,360,221285,1,0,0:0:0:0:
256,112,221445,1,0,0:0:0:0:
104,64,221606,6,0,P|84:132|112:176,1,120.000004577637
106,171,221846,1,0,0:0:0:0:
106,171,221927,1,0,0:0:0:0:
244,324,222087,1,0,0:0:0:0:
408,220,222247,1,0,0:0:0:0:
228,152,222408,1,0,0:0:0:0:
316,312,222568,1,0,0:0:0:0:
360,76,222729,1,0,0:0:0:0:
232,248,222889,6,0,P|160:232|148:180,1,120.000004577637
212,40,223210,2,0,P|284:104|316:116,1,120.000004577637
496,136,223531,1,0,0:0:0:0:
372,280,223691,1,0,0:0:0:0:
380,52,223852,1,0,0:0:0:0:
480,308,224012,1,0,0:0:0:0:
296,160,224173,5,0,0:0:0:0:
148,280,224333,1,0,0:0:0:0:
104,136,224493,2,0,P|184:128|228:80,1,120.000004577637
404,68,224814,2,0,P|392:176|428:224,1,120.000004577637
496,344,225135,1,0,0:0:0:0:
316,204,225296,1,0,0:0:0:0:
248,68,225456,6,0,P|220:132|184:176,1,95.9999970703126
140,324,225777,1,0,0:0:0:0:
256,192,225937,1,0,0:0:0:0:
252,308,226098,1,0,0:0:0:0:
132,80,226258,1,0,0:0:0:0:
176,260,226419,1,0,0:0:0:0:
328,72,226579,1,0,0:0:0:0:
320,224,226739,6,0,B|308:288|308:288|240:288,1,95.9999970703126
76,248,227060,1,0,0:0:0:0:
224,68,227221,1,0,0:0:0:0:
208,232,227381,1,0,0:0:0:0:
84,68,227542,1,0,0:0:0:0:
332,168,227702,1,0,0:0:0:0:
156,288,227862,1,0,0:0:0:0:
192,96,228023,6,0,P|268:72|276:72,2,80
60,180,228504,1,0,0:0:0:0:
60,180,228664,1,0,0:0:0:0:
240,256,228825,1,0,0:0:0:0:
240,256,228985,1,0,0:0:0:0:
180,140,229146,1,0,0:0:0:0:
296,88,229306,6,0,P|275:53|245:27,2,80
336,212,229788,1,0,0:0:0:0:
232,288,229948,2,0,P|192:320|144:344,2,80
280,168,230429,1,0,0:0:0:0:
128,228,230590,1,0,0:0:0:0:
