osu file format v14

[General]
AudioFilename: audio.mp3
AudioLeadIn: 0
PreviewTime: 88454
Countdown: 0
SampleSet: Normal
StackLeniency: 0.7
Mode: 1
LetterboxInBreaks: 0
WidescreenStoryboard: 0

[Editor]
Bookmarks: 96941,116335
DistanceSpacing: 0.8
BeatDivisor: 4
GridSize: 4
TimelineZoom: 1.7

[Metadata]
Title:Facade
TitleUnicode:Facade
Artist:VINXIS
ArtistUnicode:VINXIS
Creator:Nifty
Version:Futsuu
Source:osu!
Tags:featured artist fa drum circle vocals drum and bass dnb
BeatmapID:1920414
BeatmapSetID:918446

[Difficulty]
HPDrainRate:6
CircleSize:4
OverallDifficulty:4
ApproachRate:10
SliderMultiplier:1.4
SliderTickRate:1

[Events]
//Background and Video events
0,0,"spoopy.jpg",0,80
//Break Periods
2,79876,88772
//Storyboard Layer 0 (Background)
//Storyboard Layer 1 (Fail)
//Storyboard Layer 2 (Pass)
//Storyboard Layer 3 (Foreground)
//Storyboard Sound Samples

[TimingPoints]
1192,303.030303030303,4,1,0,70,1,0
1192,-100,4,1,0,70,0,0
79969,-100,4,1,0,5,0,0
89136,-100,4,1,0,40,0,0
89666,-100,4,1,0,70,0,0
128464,-100,4,1,0,70,0,1
147858,-100,4,1,0,70,0,0

[HitObjects]
274,157,2404,5,0,0:0:0:0:
273,158,2858,1,0,0:0:0:0:
261,160,7252,1,0,0:0:0:0:
261,160,7707,1,0,0:0:0:0:
270,134,10888,1,0,0:0:0:0:
270,134,11343,1,0,0:0:0:0:
267,135,11798,1,8,0:0:0:0:
266,125,12101,1,0,0:0:0:0:
268,124,12555,1,0,0:0:0:0:
268,124,16949,1,0,0:0:0:0:
268,124,17404,1,0,0:0:0:0:
268,124,20585,1,0,0:0:0:0:
268,124,21040,1,0,0:0:0:0:
268,124,21495,1,8,0:0:0:0:
268,124,21798,1,0,0:0:0:0:
268,124,22252,1,0,0:0:0:0:
268,124,26646,1,0,0:0:0:0:
268,124,27101,1,0,0:0:0:0:
267,125,30282,1,0,0:0:0:0:
268,126,30888,1,8,0:0:0:0:
268,126,31040,1,8,0:0:0:0:
268,126,31191,1,8,0:0:0:0:
268,126,31495,1,0,0:0:0:0:
268,126,31949,1,0,0:0:0:0:
264,130,35737,1,0,0:0:0:0:
264,130,36040,1,0,0:0:0:0:
264,130,36343,1,0,0:0:0:0:
264,130,36798,1,0,0:0:0:0:
261,147,39979,1,0,0:0:0:0:
272,139,40585,1,8,0:0:0:0:
272,139,40737,1,8,0:0:0:0:
272,139,40888,1,8,0:0:0:0:
272,139,41192,1,0,0:0:0:0:
264,137,41646,1,0,0:0:0:0:
266,120,45434,1,8,0:0:0:0:
266,120,45585,1,8,0:0:0:0:
266,120,45737,1,8,0:0:0:0:
265,120,46040,1,0,0:0:0:0:
264,120,46495,1,0,0:0:0:0:
264,121,49676,1,0,0:0:0:0:
269,118,50282,1,8,0:0:0:0:
269,118,50434,1,8,0:0:0:0:
276,111,50585,1,8,0:0:0:0:
268,119,50888,1,0,0:0:0:0:
272,124,51343,1,0,0:0:0:0:
271,114,55131,1,8,0:0:0:0:
271,114,55282,1,8,0:0:0:0:
271,114,55434,1,8,0:0:0:0:
271,114,55737,1,0,0:0:0:0:
271,114,56191,1,0,0:0:0:0:
264,117,59373,1,0,0:0:0:0:
264,117,59979,1,8,0:0:0:0:
264,117,60131,1,8,0:0:0:0:
264,117,60282,1,8,0:0:0:0:
264,121,60585,1,0,0:0:0:0:
261,124,61040,1,0,0:0:0:0:
257,123,61798,1,0,0:0:0:0:
257,123,62252,1,0,0:0:0:0:
255,126,63010,1,0,0:0:0:0:
255,126,63464,1,0,0:0:0:0:
255,126,64222,1,0,0:0:0:0:
255,126,64828,1,8,0:0:0:0:
255,126,64979,1,8,0:0:0:0:
255,126,65131,1,0,0:0:0:0:
256,127,65434,1,0,0:0:0:0:
256,127,65888,1,0,0:0:0:0:
255,121,66646,1,0,0:0:0:0:
255,121,67101,1,0,0:0:0:0:
256,120,67858,1,0,0:0:0:0:
256,120,68313,1,0,0:0:0:0:
256,120,69070,1,0,0:0:0:0:
253,119,69676,1,8,0:0:0:0:
253,119,69828,1,8,0:0:0:0:
253,119,69979,1,8,0:0:0:0:
253,119,70282,1,0,0:0:0:0:
252,120,70737,1,0,0:0:0:0:
253,128,71495,1,0,0:0:0:0:
253,129,71949,1,0,0:0:0:0:
253,125,72707,1,0,0:0:0:0:
253,125,73161,1,0,0:0:0:0:
253,125,73919,1,0,0:0:0:0:
262,112,74525,1,0,0:0:0:0:
262,112,74676,1,8,0:0:0:0:
262,112,74828,1,0,0:0:0:0:
261,112,75131,1,0,0:0:0:0:
261,112,75585,1,0,0:0:0:0:
259,114,76343,1,0,0:0:0:0:
259,111,76798,1,0,0:0:0:0:
258,113,77555,1,0,0:0:0:0:
258,113,78010,1,0,0:0:0:0:
258,113,78767,1,0,0:0:0:0:
258,113,79373,1,8,0:0:0:0:
258,113,79525,1,8,0:0:0:0:
258,113,79676,1,0,0:0:0:0:
265,93,89222,5,8,0:0:0:0:
265,93,89373,5,8,0:0:0:0:
270,86,89676,1,0,0:0:0:0:
270,86,89979,1,8,0:0:0:0:
270,86,90131,1,0,0:0:0:0:
277,80,90434,1,8,0:0:0:0:
277,80,90585,1,8,0:0:0:0:
282,83,91646,1,8,0:0:0:0:
278,76,91798,1,8,0:0:0:0:
278,76,92101,1,0,0:0:0:0:
278,76,92404,1,8,0:0:0:0:
278,76,92555,1,0,0:0:0:0:
282,67,92858,1,0,0:0:0:0:
282,67,93010,1,8,0:0:0:0:
293,64,94070,1,0,0:0:0:0:
293,64,94222,1,8,0:0:0:0:
298,69,94525,1,0,0:0:0:0:
298,69,94828,1,8,0:0:0:0:
287,65,94979,1,0,0:0:0:0:
284,63,95282,1,0,0:0:0:0:
284,63,95434,1,8,0:0:0:0:
281,70,96949,1,0,0:0:0:0:
281,70,97252,1,8,0:0:0:0:
281,70,97404,1,0,0:0:0:0:
294,67,97707,1,0,0:0:0:0:
294,67,97858,1,8,0:0:0:0:
282,64,98161,1,8,0:0:0:0:
283,68,98313,1,8,0:0:0:0:
282,64,98464,1,0,0:0:0:0:
282,64,98767,1,8,0:0:0:0:
295,64,99373,1,0,0:0:0:0:
295,64,99676,1,8,0:0:0:0:
295,64,99828,1,0,0:0:0:0:
294,66,100282,1,8,0:0:0:0:
294,66,100434,1,0,0:0:0:0:
294,66,100585,1,8,0:0:0:0:
287,63,100888,1,8,0:0:0:0:
292,62,101495,1,8,0:0:0:0:
292,62,101798,1,0,0:0:0:0:
292,62,102101,1,8,0:0:0:0:
292,62,102252,1,0,0:0:0:0:
290,58,102707,1,8,0:0:0:0:
290,58,102858,1,0,0:0:0:0:
290,58,103010,1,0,0:0:0:0:
286,61,103313,1,8,0:0:0:0:
290,51,103919,1,8,0:0:0:0:
290,51,104222,1,0,0:0:0:0:
290,51,104525,1,8,0:0:0:0:
290,51,104676,1,0,0:0:0:0:
291,53,105131,1,8,0:0:0:0:
291,53,105282,1,8,0:0:0:0:
291,53,105434,1,0,0:0:0:0:
289,53,105737,1,8,0:0:0:0:
292,52,106343,1,8,0:0:0:0:
290,49,106646,1,0,0:0:0:0:
289,48,106949,1,8,0:0:0:0:
290,49,107101,1,0,0:0:0:0:
286,47,107555,1,8,0:0:0:0:
286,47,107707,1,0,0:0:0:0:
286,47,107858,1,8,0:0:0:0:
290,46,108161,1,0,0:0:0:0:
290,46,108464,1,8,0:0:0:0:
285,49,109070,1,0,0:0:0:0:
285,49,109373,1,8,0:0:0:0:
285,49,109525,1,0,0:0:0:0:
284,58,109979,1,8,0:0:0:0:
284,58,110131,1,0,0:0:0:0:
284,58,110282,1,8,0:0:0:0:
288,47,110585,1,8,0:0:0:0:
286,48,111191,1,8,0:0:0:0:
286,48,111495,1,0,0:0:0:0:
282,67,111798,1,8,0:0:0:0:
289,55,111949,1,0,0:0:0:0:
281,61,112404,1,8,0:0:0:0:
281,61,112555,1,0,0:0:0:0:
282,62,113616,1,8,0:0:0:0:
282,62,113919,1,0,0:0:0:0:
282,62,114222,1,8,0:0:0:0:
282,62,114373,1,0,0:0:0:0:
273,60,114828,1,8,0:0:0:0:
280,64,114979,1,0,0:0:0:0:
280,64,115131,1,0,0:0:0:0:
280,63,115434,1,8,0:0:0:0:
279,62,116040,1,8,0:0:0:0:
281,70,116343,1,0,0:0:0:0:
281,70,116646,1,8,0:0:0:0:
281,70,116798,1,0,0:0:0:0:
294,67,117252,1,8,0:0:0:0:
282,64,117404,1,0,0:0:0:0:
282,64,117555,1,8,0:0:0:0:
282,64,118161,1,8,0:0:0:0:
290,57,118464,1,0,0:0:0:0:
290,57,118616,1,0,0:0:0:0:
295,64,118767,1,8,0:0:0:0:
295,64,119070,1,8,0:0:0:0:
295,64,119222,1,0,0:0:0:0:
269,74,119676,1,0,0:0:0:0:
294,66,119828,1,0,0:0:0:0:
294,66,119979,1,8,0:0:0:0:
287,63,120282,1,8,0:0:0:0:
292,62,120888,1,8,0:0:0:0:
292,62,121191,1,0,0:0:0:0:
292,62,121495,1,8,0:0:0:0:
292,62,121646,1,0,0:0:0:0:
290,58,122101,1,8,0:0:0:0:
290,58,122252,1,0,0:0:0:0:
290,58,122404,1,0,0:0:0:0:
289,61,122707,1,8,0:0:0:0:
290,51,123313,1,8,0:0:0:0:
290,51,123616,1,0,0:0:0:0:
290,51,123919,1,8,0:0:0:0:
290,51,124070,1,0,0:0:0:0:
291,53,124525,1,8,0:0:0:0:
291,53,124676,1,8,0:0:0:0:
291,53,124828,1,0,0:0:0:0:
289,53,125131,1,8,0:0:0:0:
292,52,125737,1,8,0:0:0:0:
290,49,126040,1,0,0:0:0:0:
289,48,126343,1,8,0:0:0:0:
290,49,126495,1,0,0:0:0:0:
286,47,126949,1,8,0:0:0:0:
286,47,127252,1,8,0:0:0:0:
286,41,127404,1,8,0:0:0:0:
290,46,127555,1,0,0:0:0:0:
290,46,127858,1,0,0:0:0:0:
290,46,128010,1,0,0:0:0:0:
290,46,128161,1,8,0:0:0:0:
285,49,128464,1,8,0:0:0:0:
285,52,128767,1,0,0:0:0:0:
285,52,129070,1,8,0:0:0:0:
285,52,129222,1,8,0:0:0:0:
285,52,129373,1,0,0:0:0:0:
285,52,129676,1,8,0:0:0:0:
286,65,130131,1,0,0:0:0:0:
285,52,130585,1,8,0:0:0:0:
285,52,130888,1,0,0:0:0:0:
285,52,131192,1,8,0:0:0:0:
285,52,131343,1,8,0:0:0:0:
285,52,131495,1,0,0:0:0:0:
281,46,132101,1,8,0:0:0:0:
278,38,132404,1,0,0:0:0:0:
255,34,132707,1,0,0:0:0:0:
277,34,133010,1,8,0:0:0:0:
277,34,133161,1,8,0:0:0:0:
277,34,133313,1,0,0:0:0:0:
278,47,133919,1,8,0:0:0:0:
279,41,134222,1,0,0:0:0:0:
272,56,134373,1,0,0:0:0:0:
274,36,134525,1,8,0:0:0:0:
272,36,134979,1,8,0:0:0:0:
272,36,135434,5,8,0:0:0:0:
272,34,135737,1,0,0:0:0:0:
272,34,136040,1,8,0:0:0:0:
272,34,136343,1,0,0:0:0:0:
266,30,136646,1,8,0:0:0:0:
266,30,136798,1,0,0:0:0:0:
266,30,136949,1,0,0:0:0:0:
266,30,137252,1,8,0:0:0:0:
261,33,137555,1,0,0:0:0:0:
261,33,137707,1,0,0:0:0:0:
261,33,137858,1,8,0:0:0:0:
261,33,138161,1,8,0:0:0:0:
262,59,138464,1,0,0:0:0:0:
259,53,138767,1,8,0:0:0:0:
259,53,139373,1,8,0:0:0:0:
255,47,139828,1,0,0:0:0:0:
255,47,140282,1,8,0:0:0:0:
264,48,140585,1,0,0:0:0:0:
255,47,140888,1,8,0:0:0:0:
255,47,141040,1,8,0:0:0:0:
255,47,141192,1,0,0:0:0:0:
255,47,141495,1,8,0:0:0:0:
249,47,141798,1,0,0:0:0:0:
249,47,141949,1,0,0:0:0:0:
251,43,142101,1,8,0:0:0:0:
249,47,142404,1,0,0:0:0:0:
249,47,142707,1,8,0:0:0:0:
249,47,143010,1,0,0:0:0:0:
249,47,143616,1,0,0:0:0:0:
249,41,143919,1,8,0:0:0:0:
249,41,144070,1,0,0:0:0:0:
249,41,144222,1,8,0:0:0:0:
249,41,144676,1,8,0:0:0:0:
249,41,145131,1,8,0:0:0:0:
249,41,145434,1,0,0:0:0:0:
243,42,145737,1,8,0:0:0:0:
249,46,145888,1,8,0:0:0:0:
250,51,146040,1,0,0:0:0:0:
243,42,146343,1,8,0:0:0:0:
243,42,146646,1,0,0:0:0:0:
242,36,147101,1,0,0:0:0:0:
234,46,147555,1,8,0:0:0:0:
238,30,147858,1,0,0:0:0:0:
241,42,148313,1,0,0:0:0:0:
241,41,148767,1,0,0:0:0:0:
239,45,152707,1,0,0:0:0:0:
239,45,153161,1,0,0:0:0:0:
239,45,153616,1,0,0:0:0:0:
226,35,157252,1,8,0:0:0:0:
226,37,157404,1,8,0:0:0:0:
227,74,157555,1,0,0:0:0:0:
227,74,158010,1,0,0:0:0:0:
227,74,158464,1,0,0:0:0:0:
242,116,162404,1,0,0:0:0:0:
242,116,162858,1,0,0:0:0:0:
242,116,163313,1,0,0:0:0:0:
249,110,166798,1,8,0:0:0:0:
255,101,166949,1,8,0:0:0:0:
256,102,167101,1,8,0:0:0:0:
