osu file format v14

[General]
AudioFilename: audio.mp3
AudioLeadIn: 0
PreviewTime: 87243
Countdown: 1
SampleSet: None
StackLeniency: 0.7
Mode: 0
LetterboxInBreaks: 0
WidescreenStoryboard: 0

[Editor]
DistanceSpacing: 0.8
BeatDivisor: 4
GridSize: 8
TimelineZoom: 2.2

[Metadata]
Title:Facade
TitleUnicode:Facade
Artist:VINXIS
ArtistUnicode:VINXIS
Creator:Daykeyboard
Version:Prayer
Source:
Tags:d n b drum and & bass drumstep edm dance music electronic hybrid orchestral
BeatmapID:2220298
BeatmapSetID:1060439

[Difficulty]
HPDrainRate:6
CircleSize:4.5
OverallDifficulty:9
ApproachRate:9.5
SliderMultiplier:1
SliderTickRate:1

[Events]
//Background and Video events
0,0,"bg.jpg",0,0
Video,-2105,"listen to vinxis.mp4" F,0,-2105,-1105,0,1 F,0,-2105,-1105,0,1 F,0,-2105,-1105,0,1 F,0,-2105,-1105,0,1 F,0,-2105,-1105,0,1 F,0,-2105,-1105,0,1 F,0,-2105,-1105,0,1 F,0,-2105,-1105,0,1 F,0,-2105,-1105,0,1 F,0,-2105,-1105,0,1 F,0,-2105,-1105,0,1 F,0,174728,175728,1,0 F,0,174728,175728,1,0 F,0,174728,175728,1,0 F,0,174728,175728,1,0 F,0,174728,175728,1,0 F,0,174728,175728,1,0 F,0,174728,175728,1,0 F,0,174728,175728,1,0 F,0,174728,175728,1,0 F,0,174728,175728,1,0 F,0,174728,175728,1,0
//Break Periods
2,103276,107324
2,150170,168536
//Storyboard Layer 0 (Background)
//Storyboard Layer 1 (Fail)
//Storyboard Layer 2 (Pass)
//Storyboard Layer 3 (Foreground)
//Storyboard Layer 4 (Overlay)
//Storyboard Sound Samples

[TimingPoints]
-29,303.030303030303,4,1,0,100,1,0
4213,-133.333333333333,4,1,0,60,0,0
7243,-100,4,1,0,60,0,0
9061,-133.333333333333,4,1,0,60,0,0
10880,-100,4,1,0,60,0,0
13910,-133.333333333333,4,1,0,60,0,0
16940,-100,4,1,0,60,0,0
18758,-133.333333333333,4,1,0,60,0,0
20577,-100,4,1,0,60,0,0
21789,-200,4,1,0,60,0,0
30274,-100,4,1,0,60,0,0
33304,-133.333333333333,4,1,0,60,0,0
35728,-100,4,1,0,60,0,0
38152,-133.333333333333,4,1,0,60,0,0
39971,-100,4,1,0,60,0,0
40880,-133.333333333333,4,1,0,60,0,0
49667,-100,4,1,0,60,0,0
50577,-133.333333333333,4,1,0,60,0,0
59364,-100,4,1,0,60,0,0
60274,-100,4,1,0,60,0,0
63910,-133.333333333333,4,1,0,60,0,0
64213,-100,4,1,0,60,0,0
68758,-133.333333333333,4,1,0,60,0,0
69061,-100,4,1,0,60,0,0
71183,-133.333333333333,4,1,0,60,0,0
71486,-100,4,1,0,60,0,0
73607,-133.333333333333,4,1,0,60,0,0
73910,-100,4,1,0,60,0,0
79971,-133.333333333333,4,1,0,60,0,0
88455,-50,4,1,0,60,0,0
88531,-50,4,1,0,5,0,0
88607,-100,4,1,0,60,0,0
88758,-100,4,1,0,5,0,0
88834,-100,4,1,0,60,0,0
89137,-100,4,1,0,5,0,0
89213,-100,4,1,0,60,0,0
89667,-50,4,1,0,100,0,0
90880,-50,4,1,0,60,0,0
90955,-50,4,1,0,5,0,0
91637,-50,4,1,0,100,0,0
93380,-50,4,1,0,5,0,0
95728,-133.333333333333,4,1,0,60,0,0
96940,-50,4,1,0,60,0,0
98228,-50,4,1,0,5,0,0
98758,-66.6666666666667,4,1,0,100,0,0
98834,-66.6666666666667,4,1,0,5,0,0
98910,-66.6666666666667,4,1,0,100,0,0
98986,-66.6666666666667,4,1,0,5,0,0
99364,-50,4,1,0,100,0,0
108455,-66.6666666666667,4,1,0,100,0,0
108531,-66.6666666666667,4,1,0,5,0,0
108607,-66.6666666666667,4,1,0,100,0,0
108683,-66.6666666666667,4,1,0,5,0,0
109061,-50,4,1,0,100,0,0
118152,-66.6666666666667,4,1,0,100,0,0
118228,-66.6666666666667,4,1,0,5,0,0
118304,-66.6666666666667,4,1,0,100,0,0
118380,-66.6666666666667,4,1,0,5,0,0
118758,-50,4,1,0,100,0,0
127849,-66.6666666666667,4,1,0,100,0,0
127925,-66.6666666666667,4,1,0,5,0,0
128001,-66.6666666666667,4,1,0,100,0,0
128077,-66.6666666666667,4,1,0,5,0,0
128455,-40,4,1,0,100,0,1
129667,-50,4,1,0,100,0,1
129743,-50,4,1,0,5,0,1
129819,-40,4,1,0,100,0,1
132698,-66.6666666666667,4,1,0,100,0,1
132774,-66.6666666666667,4,1,0,5,0,1
132850,-66.6666666666667,4,1,0,100,0,1
132926,-66.6666666666667,4,1,0,5,0,1
133304,-40,4,1,0,100,0,1
136940,-50,4,1,0,100,0,1
137016,-50,4,1,0,5,0,1
137092,-40,4,1,0,100,0,1
137546,-66.6666666666667,4,1,0,100,0,1
137622,-66.6666666666667,4,1,0,5,0,1
137698,-66.6666666666667,4,1,0,100,0,1
137774,-66.6666666666667,4,1,0,5,0,1
138152,-40,4,1,0,100,0,1
139364,-50,4,1,0,100,0,1
139440,-50,4,1,0,5,0,1
139516,-40,4,1,0,100,0,1
141789,-50,4,1,0,100,0,1
141865,-50,4,1,0,5,0,1
141941,-40,4,1,0,100,0,1
142395,-66.6666666666667,4,1,0,100,0,1
142471,-66.6666666666667,4,1,0,5,0,1
142547,-66.6666666666667,4,1,0,100,0,1
142623,-66.6666666666667,4,1,0,5,0,1
143001,-40,4,1,0,100,0,1
146637,-50,4,1,0,100,0,1
146713,-50,4,1,0,5,0,1
146789,-66.6666666666667,4,1,0,100,0,1
146940,-66.6666666666667,4,1,0,5,0,1
147016,-66.6666666666667,4,1,0,100,0,1
147167,-66.6666666666667,4,1,0,5,0,1
147243,-66.6666666666667,4,1,0,100,0,1
147319,-66.6666666666667,4,1,0,5,0,1
147395,-66.6666666666667,4,1,0,100,0,1
147471,-66.6666666666667,4,1,0,5,0,1
147849,-200,4,2,0,60,0,0

[HitObjects]
110,253,2395,6,0,B|156:249|156:249|161:252|161:252|211:248,1,100
268,299,2849,2,0,B|271:322|271:322|273:327|273:327|277:349,2,50
355,268,3304,2,0,B|352:291|352:291|350:296|350:296|346:318,2,50
472,247,4213,6,0,L|358:271,1,112.500004291535
307,191,4819,1,0,0:0:0:0:
307,191,5122,6,0,L|296:239,2,37.5000014305115
223,159,5577,2,0,L|234:207,2,37.5000014305115
133,168,6031,2,0,L|164:205,1,37.5000014305115
157,88,6637,5,0,0:0:0:0:
133,168,6940,2,0,L|164:205,1,37.5000014305115
110,253,7243,6,0,B|156:249|156:249|161:252|161:252|211:248,1,100
268,299,7698,2,0,B|271:322|271:322|273:327|273:327|277:349,2,50
355,268,8152,2,0,B|352:291|352:291|350:296|350:296|346:318,2,50
258,209,9061,6,0,L|357:269,1,112.500004291535
398,194,9669,1,0,0:0:0:0:
398,194,9971,6,0,L|435:167,2,37.5000014305115
335,138,10425,2,0,L|297:111,2,37.5000014305115
416,93,10880,6,0,B|438:97|438:97|444:96|444:96|466:99,1,50
355,37,11183,2,0,B|332:41|332:41|326:40|326:40|304:43,1,50
222,60,11486,1,0,0:0:0:0:
219,135,11637,1,0,0:0:0:0:
223,52,11789,2,0,B|200:56|200:56|194:55|194:55|172:58,1,50
92,32,12093,6,0,B|89:80|89:80|92:85|92:85|88:131,1,100
139,195,12546,2,0,B|162:199|162:199|168:198|168:198|190:201,2,50
111,269,13001,2,0,B|88:273|88:273|82:272|82:272|60:275,2,50
111,269,13910,6,0,L|223:279,1,112.500004291535
334,263,14516,1,0,0:0:0:0:
334,263,14819,2,0,L|296:257,2,37.5000014305115
404,222,15274,2,0,L|448:228,2,37.5000014305115
341,167,15728,2,0,L|303:164,1,37.5000014305115
421,127,16334,5,0,0:0:0:0:
341,167,16637,2,0,L|303:164,1,37.5000014305115
228,222,16940,6,0,B|224:176|224:176|227:171|227:171|223:121,1,100
311,41,17395,2,0,B|308:64|308:64|306:69|306:69|302:91,2,50
385,84,17849,2,0,B|388:107|388:107|390:112|390:112|394:134,2,50
272,73,18758,6,0,L|384:83,1,112.500004291535
465,128,19364,1,0,0:0:0:0:
465,128,19667,2,0,L|467:90,2,37.5000014305115
400,183,20122,2,0,L|398:221,2,37.5000014305115
379,95,20578,6,0,B|356:99|356:99|350:99|350:99|328:103,1,50
328,179,20881,2,0,B|305:174|305:174|300:171|300:171|278:165,1,50
262,88,21183,1,0,0:0:0:0:
211,143,21334,1,0,0:0:0:0:
264,82,21486,2,0,B|241:77|241:77|236:74|236:74|214:68,1,50
95,73,21789,6,0,B|186:110|186:208|186:208|187:307|278:344,1,350
309,278,24215,2,0,P|258:228|287:163,1,150
415,140,25427,6,0,L|471:130,1,50
391,212,26033,2,0,L|335:202,1,50
285,163,26637,6,0,B|302:142|328:135|328:135|191:113|191:113|201:151|196:193|145:206|110:167|135:133,1,350
77,100,29061,2,0,B|93:76|121:64|142:68|142:68|158:53|181:41|214:51,1,150
318,110,30274,6,0,B|319:130|319:130|321:135|321:135|322:159,1,50
406,91,30577,2,0,B|405:67|405:67|402:62|402:62|401:41,1,50
331,165,30880,1,0,0:0:0:0:
337,229,31031,1,0,0:0:0:0:
343,293,31183,2,0,B|344:313|344:313|346:318|346:318|347:342,1,50
239,286,31486,6,0,B|235:240|235:240|238:235|238:235|234:185,1,100
159,209,31940,2,0,B|157:229|157:229|155:234|155:234|154:258,2,50
80,211,32395,2,0,B|81:231|81:231|83:236|83:236|84:260,2,50
80,211,33304,6,0,L|192:221,1,112.500004291535
275,245,33910,1,0,0:0:0:0:
275,245,34213,2,0,L|246:269,2,37.5000014305115
324,299,34667,2,0,L|311:334,2,37.5000014305115
393,321,35122,2,0,L|399:358,1,37.5000014305115
399,203,35728,6,0,B|383:216|383:216|377:218|377:218|360:234,1,50
306,291,36031,2,0,B|292:275|292:275|290:269|290:269|274:252,1,50
218,198,36334,2,0,B|233:184|233:184|239:182|239:182|256:166,1,50
311,110,36637,6,0,B|324:125|324:125|326:131|326:131|342:148,2,50
409,130,37092,2,0,B|408:150|408:150|407:156|407:156|408:179,2,50
471,208,37546,2,0,B|457:223|457:223|452:227|452:227|438:245,1,50
358,197,38152,6,0,L|470:207,1,112.500004291535
481,134,38758,1,0,0:0:0:0:
481,134,39061,2,0,L|438:134,2,37.5000014305115
412,65,39516,2,0,L|379:83,2,37.5000014305115
277,99,39971,6,0,B|275:119|275:119|273:124|273:124|272:148,1,50
189,80,40274,2,0,B|189:56|189:56|192:51|192:51|193:30,1,50
264,154,40577,1,0,0:0:0:0:
258,218,40728,1,0,0:0:0:0:
252,282,40880,6,0,B|247:331,1,37.5000014305115
185,260,41183,2,0,B|178:297|196:323|196:323|118:329|92:274|92:274|111:258|119:235,1,225.000008583069
159,189,42243,1,0,0:0:0:0:
159,189,42546,2,0,L|120:194,1,37.5000014305115
262,196,43001,2,0,L|223:201,1,37.5000014305115
201,117,43304,5,0,0:0:0:0:
201,117,43607,2,0,B|247:119|262:73|262:73|224:45|159:46|116:78,1,225.000008583069
132,145,44819,2,0,L|125:68,1,75.0000028610231
54,150,45425,1,0,0:0:0:0:
60,214,45576,1,0,0:0:0:0:
66,278,45728,2,0,L|70:327,1,37.5000014305115
142,320,46031,6,0,B|170:302|177:277|177:277|192:302|220:311,2,112.500004291535
112,258,47092,1,0,0:0:0:0:
112,258,47395,2,0,L|121:216,1,37.5000014305115
192,253,47849,2,0,L|201:211,1,37.5000014305115
277,183,48152,5,0,0:0:0:0:
277,183,48455,2,0,B|290:195|297:217|297:217|307:161|307:161|306:157|306:157|314:98|314:98|316:94|316:94|325:27,1,225.000008583069
162,105,49667,6,0,B|163:125|163:125|165:130|165:130|166:154,1,50
250,86,49970,2,0,B|249:62|249:62|246:57|246:57|245:36,1,50
175,160,50273,1,0,0:0:0:0:
181,224,50424,1,0,0:0:0:0:
187,288,50576,6,0,B|192:342,1,50
249,323,50880,2,0,B|264:285|249:257|249:257|325:293|414:261,1,225.000008583069
417,330,51940,1,0,0:0:0:0:
417,330,52243,2,0,L|454:324,1,37.5000014305115
314,340,52698,2,0,L|351:334,1,37.5000014305115
249,323,53001,5,0,0:0:0:0:
249,323,53304,2,0,B|236:293|191:295|191:295|169:232|200:200|226:185|270:194,1,225.000008583069
341,187,54516,2,0,L|334:110,1,75.0000028610231
263,192,55122,1,0,0:0:0:0:
269,256,55273,1,0,0:0:0:0:
275,320,55425,2,0,L|279:369,1,37.5000014305115
212,349,55728,6,0,B|198:315|215:288|215:288|176:283|147:330|147:330|127:292|137:247,1,225.000008583069
195,207,56789,1,0,0:0:0:0:
195,207,57092,2,0,L|190:165,1,37.5000014305115
274,207,57546,2,0,L|269:165,1,37.5000014305115
257,65,57849,6,0,B|258:89|241:109|241:109|276:99|314:118,1,112.500004291535
360,45,58455,2,0,L|319:48,1,37.5000014305115
242,109,58758,2,0,B|235:122|211:130|211:130|187:123|184:109,1,75.0000028610231
96,128,59364,6,0,B|97:148|97:148|99:153|99:153|100:177,1,50
184,109,59667,2,0,B|183:85|183:85|180:80|180:80|179:59,1,50
109,183,59970,1,0,0:0:0:0:
115,247,60121,1,0,0:0:0:0:
121,311,60274,6,0,B|126:365,1,50
198,326,60577,2,0,L|203:271,1,50
175,216,60880,2,0,B|222:200|252:220|269:249|270:279|270:279|303:261|344:287,1,200
298,341,61637,1,0,0:0:0:0:
341,290,61789,6,0,B|337:244|337:244|340:239|340:239|336:189,1,100
405,206,62243,2,0,B|409:252|409:252|406:257|406:257|410:307,1,100
343,358,62698,2,0,P|325:356|296:339,1,50
203,260,63001,6,0,B|199:214|199:214|202:209|202:209|198:159,1,100
267,176,63455,2,0,B|271:222|271:222|268:227|268:227|272:277,1,100
235,365,63910,2,0,L|230:323,1,37.5000014305115
134,245,64213,6,0,B|130:199|130:199|133:194|133:194|129:144,1,100
210,76,64667,1,0,0:0:0:0:
219,82,64819,1,0,0:0:0:0:
213,146,64970,1,0,0:0:0:0:
207,210,65122,2,0,B|206:230|206:230|204:235|204:235|203:259,1,50
265,311,65425,6,0,P|284:282|312:277,1,50
363,319,65728,2,0,B|356:288|316:268|316:268|347:194|314:124,1,200
316,147,66486,1,0,0:0:0:0:
180,83,66637,6,0,B|226:79|226:79|231:82|231:82|281:78,1,100
411,83,67092,1,0,0:0:0:0:
421,87,67243,2,0,B|415:121|415:121|425:158|425:158,1,50
352,208,67546,2,0,B|357:173|357:173|348:137|348:137,1,50
270,148,67849,6,0,B|222:151|222:151|217:148|217:148|171:152,1,100
162,221,68304,2,0,B|208:217|208:217|213:220|213:220|261:217,1,100
352,208,68758,2,0,L|394:203,1,37.5000014305115
482,75,69061,6,0,B|481:95|481:95|479:100|479:100|478:124,1,50
394,56,69364,2,0,B|395:32|395:32|398:27|398:27|399:6,1,50
469,130,69667,1,0,0:0:0:0:
463,194,69818,1,0,0:0:0:0:
457,258,69971,2,0,B|452:312,1,50
251,285,70274,6,0,B|204:289|204:289|199:286|199:286|153:290,1,100
162,221,70728,2,0,B|208:217|208:217|213:220|213:220|261:217,1,100
389,203,71183,2,0,L|352:208,1,37.5000014305115
252,285,71486,6,0,B|204:288|204:288|199:285|199:285|153:289,1,100
144,358,71941,2,0,B|190:354|190:354|195:357|195:357|242:353,1,100
333,343,72395,2,0,L|326:290,1,50
261,216,72697,6,0,B|213:219|213:219|208:216|208:216|162:220,1,100
153,289,73152,2,0,B|199:285|199:285|204:288|204:288|251:284,1,100
389,203,73607,2,0,L|352:208,1,37.5000014305115
261,216,73910,6,0,B|213:219|213:219|208:216|208:216|162:220,1,100
91,262,74516,1,0,0:0:0:0:
85,198,74667,1,0,0:0:0:0:
79,134,74820,2,0,B|74:80,1,50
180,83,75122,6,0,B|226:79|226:79|231:82|231:82|281:78,1,100
270,148,75577,2,0,B|222:151|222:151|217:148|217:148|171:152,1,100
171,152,76334,6,0,B|217:148|217:148|222:151|222:151|270:148,1,100
261,217,76789,2,0,B|213:220|213:220|208:217|208:217|162:221,1,100
162,221,77546,6,0,B|208:217|208:217|213:220|213:220|261:217,1,100
251,284,78001,2,0,B|204:288|204:288|199:285|199:285|153:289,1,100
153,289,78758,6,0,B|199:285|199:285|204:288|204:288|251:284,1,100
412,268,79213,1,0,0:0:0:0:
421,262,79364,1,0,0:0:0:0:
427,198,79515,1,0,0:0:0:0:
433,134,79668,2,0,B|438:80,1,50
480,32,79971,5,0,0:0:0:0:
455,33,80122,1,0,0:0:0:0:
430,34,80274,1,0,0:0:0:0:
405,35,80425,1,0,0:0:0:0:
380,36,80577,2,0,L|344:54,3,37.5000014305115
268,82,81183,5,0,0:0:0:0:
269,107,81334,1,0,0:0:0:0:
270,132,81486,1,0,0:0:0:0:
271,157,81637,1,0,0:0:0:0:
272,182,81789,2,0,L|290:217,3,37.5000014305115
318,294,82395,5,0,0:0:0:0:
343,293,82546,1,0,0:0:0:0:
368,292,82698,1,0,0:0:0:0:
393,291,82849,1,0,0:0:0:0:
418,290,83001,2,0,L|453:271,3,37.5000014305115
389,211,83607,5,0,0:0:0:0:
364,212,83758,1,0,0:0:0:0:
339,213,83910,1,0,0:0:0:0:
314,214,84061,1,0,0:0:0:0:
289,215,84213,2,0,L|253:233,3,37.5000014305115
182,350,84819,5,0,0:0:0:0:
183,325,84970,1,0,0:0:0:0:
184,300,85122,1,0,0:0:0:0:
185,275,85273,1,0,0:0:0:0:
186,250,85425,2,0,L|204:214,3,37.5000014305115
232,138,86031,5,0,0:0:0:0:
257,139,86183,1,0,0:0:0:0:
282,140,86335,1,0,0:0:0:0:
307,141,86486,1,0,0:0:0:0:
332,142,86638,2,0,L|367:160,3,37.5000014305115
444,188,87244,5,0,0:0:0:0:
443,213,87396,1,0,0:0:0:0:
442,238,87548,1,0,0:0:0:0:
441,263,87699,1,0,0:0:0:0:
440,288,87851,2,0,L|421:323,3,37.5000014305115
232,336,88455,6,0,B|255:347|255:347|278:336,1,50
348,307,88607,1,0,0:0:0:0:
350,299,88683,2,0,L|358:251,1,25
318,208,88834,1,0,0:0:0:0:
316,200,88910,1,0,0:0:0:0:
314,192,88986,1,0,0:0:0:0:
312,184,89062,2,0,L|304:136,1,25
234,173,89213,5,0,0:0:0:0:
232,197,89288,1,0,0:0:0:0:
230,222,89364,1,0,0:0:0:0:
229,247,89440,1,0,0:0:0:0:
227,272,89516,1,0,0:0:0:0:
225,297,89591,1,0,0:0:0:0:
232,336,89667,5,0,0:0:0:0:
276,336,90880,6,0,B|255:347|255:347|232:336,1,50
232,336,93304,6,0,B|255:347|255:347|276:336,1,50
193,226,95728,5,0,0:0:0:0:
194,251,95880,1,0,0:0:0:0:
219,250,96032,1,0,0:0:0:0:
218,225,96183,1,0,0:0:0:0:
206,238,96334,2,0,L|204:200,3,37.5000014305115
276,336,98152,6,0,B|255:347|255:347|232:336,1,50
69,111,98758,6,0,B|65:73,1,37.5000014305115
237,94,98910,2,0,B|240:131,1,37.5000014305115
405,78,99061,1,0,0:0:0:0:
403,63,99136,1,0,0:0:0:0:
402,49,99212,1,0,0:0:0:0:
401,35,99288,1,0,0:0:0:0:
399,21,99364,5,0,0:0:0:0:
232,336,100577,6,0,B|255:347|255:347|276:336,1,50
276,336,103001,6,0,B|255:347|255:347|232:336,1,50
232,336,107849,6,0,B|255:347|255:347|276:336,1,50
69,111,108455,6,0,B|65:73,1,37.5000014305115
237,94,108607,2,0,B|240:131,1,37.5000014305115
405,78,108758,1,0,0:0:0:0:
403,63,108833,1,0,0:0:0:0:
402,49,108909,1,0,0:0:0:0:
401,35,108985,1,0,0:0:0:0:
399,21,109061,5,0,0:0:0:0:
276,336,110274,6,0,B|255:347|255:347|232:336,1,50
232,336,112698,6,0,B|255:347|255:347|276:336,1,50
276,336,117546,6,0,B|255:347|255:347|232:336,1,50
69,111,118152,6,0,B|65:73,1,37.5000014305115
237,94,118304,2,0,B|240:131,1,37.5000014305115
405,78,118455,1,0,0:0:0:0:
403,63,118530,1,0,0:0:0:0:
402,49,118606,1,0,0:0:0:0:
401,35,118682,1,0,0:0:0:0:
399,21,118758,5,0,0:0:0:0:
232,336,119970,6,0,B|255:347|255:347|276:336,1,50
276,336,122395,6,0,B|255:347|255:347|232:336,1,50
232,336,127243,6,0,B|255:347|255:347|276:336,1,50
69,111,127849,6,0,B|65:73,1,37.5000014305115
237,94,128001,2,0,B|240:131,1,37.5000014305115
405,78,128152,1,0,0:0:0:0:
403,63,128227,1,0,0:0:0:0:
402,49,128303,1,0,0:0:0:0:
401,35,128379,1,0,0:0:0:0:
399,21,128455,5,0,0:0:0:0:
276,336,129667,6,0,B|255:347|255:347|232:336,1,50
69,111,132698,6,0,B|65:73,1,37.5000014305115
237,94,132850,2,0,B|240:131,1,37.5000014305115
405,78,133001,1,0,0:0:0:0:
403,63,133152,1,0,0:0:0:0:
232,336,136940,6,0,B|255:347|255:347|276:336,1,50
69,111,137546,6,0,B|65:73,1,37.5000014305115
237,94,137698,2,0,B|240:131,1,37.5000014305115
405,78,137850,1,0,0:0:0:0:
395,44,137925,1,0,0:0:0:0:
423,22,138001,1,0,0:0:0:0:
453,40,138077,1,0,0:0:0:0:
447,75,138153,5,0,0:0:0:0:
276,336,139364,6,0,B|255:347|255:347|232:336,1,50
232,336,141789,6,0,B|255:347|255:347|276:336,1,50
69,111,142395,6,0,B|65:73,1,37.5000014305115
237,94,142547,2,0,B|240:131,1,37.5000014305115
405,78,142698,1,0,0:0:0:0:
403,63,142849,1,0,0:0:0:0:
276,336,146637,6,0,B|255:347|255:347|232:336,1,50
135,281,146789,1,0,0:0:0:0:
143,283,146864,2,0,L|191:291,1,37.5000014305115
37,225,147016,1,0,0:0:0:0:
45,227,147091,2,0,L|93:235,1,37.5000014305115
69,111,147243,6,0,B|65:73,1,37.5000014305115
237,94,147395,2,0,B|240:131,1,37.5000014305115
405,78,147547,1,0,0:0:0:0:
390,30,147622,1,0,0:0:0:0:
429,0,147698,1,0,0:0:0:0:
470,24,147774,1,0,0:0:0:0:
462,73,147849,6,0,B|371:110|371:208|371:208|370:307|279:344,1,350
444,188,169061,5,0,0:0:0:0:
443,213,169213,1,0,0:0:0:0:
442,238,169365,1,0,0:0:0:0:
441,263,169516,1,0,0:0:0:0:
