osu file format v14

[General]
AudioFilename: audio.mp3
AudioLeadIn: 0
PreviewTime: 84821
Countdown: 0
SampleSet: None
StackLeniency: 0.2
Mode: 0
LetterboxInBreaks: 0
WidescreenStoryboard: 0

[Editor]
Bookmarks: 30275,39972,89669,128457,167245
DistanceSpacing: 1.1
BeatDivisor: 4
GridSize: 4
TimelineZoom: 1.9

[Metadata]
Title:Facade
TitleUnicode:Facade
Artist:VINXIS
ArtistUnicode:VINXIS
Creator:Cami
Version:Endless
Source:
Tags:fa featured artist osu!
BeatmapID:1951909
BeatmapSetID:934967

[Difficulty]
HPDrainRate:6
CircleSize:4.2
OverallDifficulty:8
ApproachRate:9.3
SliderMultiplier:1.41
SliderTickRate:1

[Events]
//Background and Video events
0,0,"1222222224.jpg",0,0
//Break Periods
2,80172,87827
//Storyboard Layer 0 (Background)
//Storyboard Layer 1 (Fail)
//Storyboard Layer 2 (Pass)
//Storyboard Layer 3 (Foreground)
//Storyboard Sound Samples

[TimingPoints]
2397,303.030303030303,4,2,1,50,1,0
4215,-200,4,2,1,50,0,0
30881,-100,4,2,1,50,0,0
31487,-200,4,2,1,50,0,0
36033,-133.333333333333,4,2,1,50,0,0
36336,-100,4,2,1,50,0,0
36790,-200,4,2,1,50,0,0
40578,-100,4,2,1,50,0,0
41184,-200,4,2,1,50,0,0
50275,-133.333333333333,4,2,1,50,0,0
50881,-200,4,2,1,50,0,0
59972,-100,4,2,1,50,0,0
60578,-200,4,2,1,50,0,0
64972,-133.333333333333,4,2,1,50,0,0
65124,-100,4,2,1,50,0,0
65427,-200,4,2,1,50,0,0
69821,-133.333333333333,4,2,1,50,0,0
69972,-100,4,2,1,50,0,0
70275,-200,4,2,1,50,0,0
79366,-133.333333333333,4,2,1,50,0,0
89669,-83.3333333333333,4,2,1,70,0,1
90881,-83.3333333333333,4,2,1,50,0,0
92093,-83.3333333333333,4,2,1,70,0,1
93306,-166.666666666667,4,2,1,50,0,0
94518,-83.3333333333333,4,2,1,70,0,1
95730,-83.3333333333333,4,2,1,50,0,0
96942,-83.3333333333333,4,2,1,70,0,1
98154,-83.3333333333333,4,2,1,50,0,0
99366,-83.3333333333333,4,2,1,70,0,1
100578,-83.3333333333333,4,2,1,50,0,0
101790,-83.3333333333333,4,2,1,70,0,1
103003,-83.3333333333333,4,2,1,50,0,0
104215,-83.3333333333333,4,2,1,70,0,1
105427,-83.3333333333333,4,2,1,50,0,0
106639,-83.3333333333333,4,2,1,70,0,1
107851,-83.3333333333333,4,2,1,50,0,0
109063,-83.3333333333333,4,2,1,70,0,1
110275,-83.3333333333333,4,2,1,50,0,0
111487,-83.3333333333333,4,2,1,70,0,1
112700,-166.666666666667,4,2,1,50,0,0
113912,-83.3333333333333,4,2,1,70,0,1
115124,-83.3333333333333,4,2,1,50,0,0
116336,-83.3333333333333,4,2,1,70,0,1
117548,-166.666666666667,4,2,1,50,0,0
118154,-83.3333333333334,4,2,1,50,0,0
118760,-83.3333333333333,4,2,1,70,0,1
119972,-83.3333333333333,4,2,1,50,0,0
121184,-83.3333333333333,4,2,1,70,0,1
122397,-83.3333333333333,4,2,1,50,0,0
123609,-83.3333333333333,4,2,1,70,0,1
124821,-83.3333333333333,4,2,1,50,0,0
126033,-83.3333333333333,4,2,1,70,0,1
127245,-83.3333333333333,4,2,1,50,0,0
128457,-78.4313725490196,4,2,1,78,0,1
132700,-72.7272727272727,4,2,1,78,0,1
133306,-78.4313725490196,4,2,1,78,0,1
145124,-93.0232558139535,4,2,1,78,0,1
145427,-78.4313725490196,4,2,1,78,0,1
147851,-200,4,2,1,50,0,0
169669,-200,4,2,1,5,0,0

[Colours]
Combo1 : 103,104,126
Combo2 : 157,157,157
Combo3 : 119,190,193
Combo4 : 71,91,124
Combo5 : 205,166,213
Combo6 : 29,71,216

[HitObjects]
205,256,2397,6,0,L|275:267,1,70.5,8|0,0:1|0:0,0:0:0:0:
160,193,2700,1,2,0:0:0:0:
200,334,2851,1,8,0:1:0:0:
200,334,3154,1,2,0:0:0:0:
200,334,3609,1,2,0:0:0:0:
328,154,4215,6,0,B|336:206|336:206|364:237|364:237|371:295,1,141,2|2,0:0|0:0,0:0:0:0:
411,166,5124,1,2,0:0:0:0:
411,166,5578,1,2,0:0:0:0:
411,166,6033,1,2,0:0:0:0:
457,33,6639,6,0,L|465:104,1,70.5,2|2,0:0|0:0,0:0:0:0:
465,104,7093,1,2,0:0:0:0:
294,87,7245,5,8,0:1:0:0:
328,154,7548,1,2,0:0:0:0:
334,20,7700,1,8,0:1:0:0:
334,20,8003,1,2,0:0:0:0:
334,20,8457,1,2,0:0:0:0:
129,104,9063,22,0,B|180:110|180:110|208:147|208:147|261:154,1,141,2|2,0:0|0:0,0:0:0:0:
134,184,9972,1,2,0:0:0:0:
134,184,10427,1,2,0:0:0:0:
257,74,10881,1,8,0:1:0:0:
210,227,11184,1,8,0:0:0:0:
129,104,11336,1,8,0:1:0:0:
138,268,11639,1,8,0:0:0:0:
134,184,11790,1,2,0:0:0:0:
143,354,12093,6,0,L|217:337,1,70.5,8|2,0:1|0:0,0:0:0:0:
71,318,12548,2,0,L|2:302,1,70.5,8|2,0:1|0:0,0:0:0:0:
2,302,13306,1,2,0:0:0:0:
144,133,13912,6,0,B|151:185|151:185|131:217|131:217|138:270,1,141,2|2,0:0|0:0,0:0:0:0:
65,166,14821,1,2,0:0:0:0:
65,166,15275,1,2,0:0:0:0:
65,166,15730,1,2,0:0:0:0:
215,238,16336,6,0,L|288:230,1,70.5,2|2,0:0|0:0,0:0:0:0:
285,230,16790,1,2,0:0:0:0:
363,104,16942,5,8,0:1:0:0:
329,171,17245,1,2,0:0:0:0:
323,37,17397,1,8,0:1:0:0:
323,37,17700,1,2,0:0:0:0:
323,37,18154,1,2,0:0:0:0:
31,25,18760,22,0,B|83:31|83:31|105:63|105:63|168:68,1,141,2|2,0:0|0:0,0:0:0:0:
37,105,19669,1,2,0:0:0:0:
37,105,20124,1,2,0:0:0:0:
240,72,20578,1,8,0:1:0:0:
117,141,20881,1,8,0:3:0:0:
117,141,21033,1,0,1:0:0:0:
202,149,21336,1,8,0:3:0:0:
154,66,21487,1,2,0:0:0:0:
168,267,21790,6,0,L|177:346,1,70.5,8|2,0:1|0:0,0:0:0:0:
259,230,22245,2,0,L|250:309,1,70.5,8|2,0:1|0:0,0:0:0:0:
251,300,23003,1,2,0:0:0:0:
507,368,23609,6,0,B|454:364|454:364|431:388|431:388|365:380,1,141,2|2,0:0|0:0,0:0:0:0:
324,325,24518,1,2,0:0:0:0:
324,325,24972,1,2,0:0:0:0:
324,325,25427,1,2,0:0:0:0:
414,238,26033,6,0,L|404:318,1,70.5,2|2,0:0|0:0,0:0:0:0:
405,307,26487,1,2,0:0:0:0:
357,172,26639,5,8,0:1:0:0:
482,189,26942,1,2,0:0:0:0:
331,252,27093,1,8,0:1:0:0:
482,189,27396,1,2,0:0:0:0:
482,189,27851,1,2,0:0:0:0:
275,58,28457,22,0,B|283:113|283:113|265:142|265:142|275:202,1,141,2|2,0:0|0:0,0:0:0:0:
201,96,29366,1,2,0:0:0:0:
201,96,29821,1,2,0:0:0:0:
331,252,30275,1,8,0:1:0:0:
193,179,30578,1,8,0:3:0:0:
356,160,30730,1,0,1:0:0:0:
253,274,30881,70,0,B|256:299|283:325,1,35.25,2|0,0:1|0:0,0:0:0:0:
175,257,31033,2,0,B|167:280|180:315,1,35.25,10|0,0:1|0:0,0:0:0:0:
193,179,31184,2,0,P|140:185|101:230,1,105.75,2|0,0:1|0:0,0:0:0:0:
92,302,31487,22,0,L|15:289,1,70.5,8|2,0:1|0:0,0:0:0:0:
119,378,31942,2,0,L|196:365,1,70.5,8|2,0:1|0:0,0:0:0:0:
188,366,32700,1,2,0:0:0:0:
336,253,33306,6,0,B|390:259|390:259|421:240|421:240|487:250,1,141,2|2,0:0|0:0,0:0:0:0:
507,319,34215,1,2,0:0:0:0:
507,319,34669,1,2,0:0:0:0:
507,319,35124,1,2,0:0:0:0:
504,138,35730,6,0,L|510:183,1,35.25,8|0,0:1|0:0,0:0:0:0:
442,42,36033,2,0,L|433:95,1,52.8750020170213,8|0,0:1|0:0,0:0:0:0:
318,14,36336,2,0,L|361:151,1,141,8|2,0:1|0:0,0:0:0:0:
271,214,36790,2,0,L|280:145,1,70.5,8|2,0:1|0:0,0:0:0:0:
280,145,37548,1,2,0:0:0:0:
52,47,38154,6,0,B|106:58|106:58|137:42|137:42|196:53,1,141,2|2,0:0|0:0,0:0:0:0:
201,126,39063,1,2,0:0:0:0:
201,126,39518,1,2,0:0:0:0:
118,7,39972,1,8,0:1:0:0:
187,51,40275,1,8,0:3:0:0:
106,150,40427,1,0,1:0:0:0:
221,206,40578,6,0,L|255:195,1,35.25,2|0,0:1|0:0,0:0:0:0:
118,237,40730,2,0,L|151:248,1,35.25,10|0,0:1|0:0,0:0:0:0:
25,183,40881,1,2,0:1:0:0:
24,200,40956,1,0,0:0:0:0:
24,218,41032,1,0,0:0:0:0:
24,235,41108,1,0,0:0:0:0:
24,253,41184,6,0,B|36:290|36:290|71:319,1,70.5,8|0,0:1|0:0,0:0:0:0:
130,348,41639,2,0,B|168:356|168:356|210:340,1,70.5,8|0,0:1|0:0,0:0:0:0:
246,283,42093,1,2,0:0:0:0:
246,283,43306,1,2,0:0:0:0:
432,231,43609,6,0,B|380:218|380:218|349:232|349:232|296:221,1,141,2|0,0:0|0:0,0:0:0:0:
296,221,45427,6,0,L|299:194,1,17.625,2|0,0:1|0:0,0:0:0:0:
262,134,45578,2,0,L|260:116,1,17.625,2|0,0:1|0:0,0:0:0:0:
204,64,45730,2,0,L|192:12,1,52.875,2|0,0:1|0:0,0:0:0:0:
114,28,46033,6,0,B|116:65|116:65|88:106,1,70.5,8|0,0:1|0:0,0:0:0:0:
38,144,46487,2,0,B|36:181|36:181|64:222,1,70.5,8|0,0:1|0:0,0:0:0:0:
115,259,46942,1,2,0:0:0:0:
115,259,48154,1,2,0:0:0:0:
240,290,48457,6,0,B|173:306|173:306|109:273|109:273|40:287,1,211.5,2|0,0:0|0:0,0:0:0:0:
9,363,49669,21,8,0:1:0:0:
54,208,49972,1,8,0:0:0:0:
39,287,50124,1,8,0:1:0:0:
115,259,50275,70,0,L|161:255,1,26.4375010085106,2|0,0:1|0:0,0:0:0:0:
207,193,50427,2,0,L|161:189,1,26.4375010085106,2|0,1:0|0:0,0:0:0:0:
115,127,50578,2,0,L|161:123,1,26.4375010085106,2|0,0:1|0:0,0:0:0:0:
197,65,50881,6,0,B|232:74|232:74|268:106,1,70.5,8|0,0:1|0:0,0:0:0:0:
283,169,51336,2,0,B|318:160|318:160|354:128,1,70.5,8|0,0:1|0:0,0:0:0:0:
373,67,53003,1,2,0:0:0:0:
421,152,53306,6,0,B|412:97|412:97|373:67,2,105.75,2|2|0,0:0|0:0|0:0,0:0:0:0:
347,176,55124,6,0,L|344:203,1,17.625,2|0,0:1|0:0,0:0:0:0:
381,263,55275,2,0,L|383:281,1,17.625,2|0,0:1|0:0,0:0:0:0:
439,333,55427,2,0,L|451:385,1,52.875,2|0,0:1|0:0,0:0:0:0:
363,354,55730,6,0,L|292:323,1,70.5,8|0,0:1|0:0,0:0:0:0:
240,275,56184,2,0,L|169:306,1,70.5,8|0,0:1|0:0,0:0:0:0:
101,339,57548,5,2,0:3:0:0:
101,339,57851,2,0,B|69:321|69:321|27:315,1,70.5,2|0,0:3|0:0,0:0:0:0:
34,242,58457,2,0,B|67:237|67:237|99:219,2,70.5,2|2|2,0:3|0:3|0:3,0:0:0:0:
139,152,59366,21,8,0:1:0:0:
139,152,59518,1,0,0:0:0:0:
149,278,59669,1,8,0:3:0:0:
149,278,59821,1,0,1:0:0:0:
216,168,59972,70,0,L|224:126,1,35.25,2|0,0:1|0:0,0:0:0:0:
303,208,60124,2,0,L|295:166,1,35.25,2|0,0:1|0:0,0:0:0:0:
401,216,60275,2,0,L|360:116,1,105.75,2|0,0:1|0:0,0:0:0:0:
339,43,60578,6,0,B|374:40|374:40|406:55,1,70.5,8|0,0:1|0:0,0:0:0:0:
443,123,61033,2,0,B|477:126|477:126|509:111,1,70.5,8|0,0:1|0:0,0:0:0:0:
360,118,61790,6,0,B|325:114|325:114|293:129,1,70.5,8|0,0:1|0:0,0:0:0:0:
256,197,62245,2,0,B|221:200|221:200|189:185,1,70.5,8|0,0:1|0:0,0:0:0:0:
340,192,63003,6,0,B|374:188|374:188|406:203,1,70.5,8|0,0:1|0:0,0:0:0:0:
444,271,63458,2,0,B|478:274|478:274|510:259,1,70.5,8|0,0:1|0:0,0:0:0:0:
360,266,64215,6,0,B|325:262|325:262|293:277,1,70.5,8|0,0:1|0:0,0:0:0:0:
256,345,64669,1,8,0:1:0:0:
193,298,64821,22,0,L|195:272,1,17.625,2|0,0:1|0:0,0:0:0:0:
123,330,64972,2,0,L|113:295,1,26.4375010085106,2|0,0:1|0:0,0:0:0:0:
0,303,65124,2,0,L|68:384,1,105.75,10|0,0:1|0:0,0:0:0:0:
61,245,65427,22,0,B|93:227|93:227|137:225,1,70.5,8|0,0:1|0:0,0:0:0:0:
184,176,65881,2,0,B|216:194|216:194|260:196,1,70.5,8|0,0:1|0:0,0:0:0:0:
310,132,66639,6,0,B|278:114|278:114|234:112,1,70.5,8|0,0:1|0:0,0:0:0:0:
187,63,67093,2,0,B|155:81|155:81|111:83,1,70.5,8|0,0:1|0:0,0:0:0:0:
51,45,67548,1,2,0:3:0:0:
82,180,67851,6,0,B|114:162|114:162|158:160,1,70.5,8|2,0:1|0:3,0:0:0:0:
205,111,68305,2,0,B|237:129|237:129|281:131,1,70.5,8|0,0:1|0:0,0:0:0:0:
378,265,69063,6,0,B|380:232|380:232|398:200,1,70.5,8|4,0:1|0:3,0:0:0:0:
348,142,69518,1,8,0:1:0:0:
291,212,69669,6,0,L|308:208,1,17.625,2|0,0:1|0:0,0:0:0:0:
224,254,69821,2,0,L|254:286,1,26.4375010085106,2|0,0:1|0:0,0:0:0:0:
155,206,69972,2,0,L|137:257,1,35.25,2|0,0:1|0:0,0:0:0:0:
139,319,70275,6,0,B|103:312|103:312|69:275,1,70.5,8|0,0:1|0:0,0:0:0:0:
73,208,70730,2,0,B|37:215|37:215|3:252,1,70.5,8|0,0:1|0:0,0:0:0:0:
155,206,71487,6,0,B|191:199|191:199|225:162,1,70.5,8|0,0:1|0:0,0:0:0:0:
221,95,71942,2,0,B|257:102|257:102|291:139,1,70.5,8|0,0:1|0:0,0:0:0:0:
85,98,72700,6,0,B|107:122|107:122|143:129,1,70.5,8|0,0:1|0:0,0:0:0:0:
151,50,73155,2,0,B|173:25|173:25|209:18,1,70.5,8|0,0:1|0:0,0:0:0:0:
279,126,73912,6,0,B|257:102|257:102|221:95,1,70.5,8|0,0:1|0:0,0:0:0:0:
143,129,74518,22,0,L|161:148,1,17.625,10|0,0:1|0:0,0:0:0:0:
134,217,74669,2,0,L|163:221,1,17.625,2|0,0:1|0:0,0:0:0:0:
165,297,74821,2,0,L|222:270,1,52.875,10|0,0:1|0:0,0:0:0:0:
279,238,75124,6,0,B|315:236|315:236|351:257,1,70.5,8|0,0:1|0:0,0:0:0:0:
400,310,75578,2,0,B|436:312|436:312|472:291,1,70.5,8|0,0:1|0:0,0:0:0:0:
426,161,76336,22,0,L|420:232,1,70.5,8|0,0:1|0:0,0:0:0:0:
400,310,76790,2,0,L|406:380,1,70.5,8|0,0:1|0:0,0:0:0:0:
283,278,77548,6,0,B|318:278|318:278|344:253,1,70.5,8|0,0:1|0:0,0:0:0:0:
420,232,78003,2,0,B|454:232|454:232|480:257,1,70.5,8|0,0:1|0:0,0:0:0:0:
362,179,78760,6,0,L|370:135,1,35.25,8|0,0:1|0:0,0:0:0:0:
380,69,79063,1,8,0:3:0:0:
288,138,79215,1,8,0:1:0:0:
243,45,79366,6,0,L|230:91,1,26.4375010085106,2|0,0:1|0:0,0:0:0:0:
206,174,79518,2,0,L|198:148,1,26.4375010085106,10|0,0:1|0:0,0:0:0:0:
131,49,79669,1,2,0:1:0:0:
128,61,79744,1,0,0:0:0:0:
126,74,79820,1,0,0:0:0:0:
123,87,79896,1,0,0:0:0:0:
121,100,79972,5,2,0:0:0:0:
174,189,88381,5,0,0:0:0:0:
186,184,88457,1,2,0:0:0:0:
263,159,88609,1,2,0:0:0:0:
277,153,88836,2,0,L|309:141,1,26.4375010085106,2|0,0:0|0:0,0:0:0:0:
342,127,89063,2,0,L|318:137,1,26.4375010085106,2|0,0:0|0:0,0:0:0:0:
315,47,89215,1,0,3:0:0:0:
353,41,89290,1,0,3:0:0:0:
389,56,89366,1,0,3:0:0:0:
419,82,89441,1,0,3:0:0:0:
432,119,89517,1,0,1:0:0:0:
427,158,89593,1,0,3:0:0:0:
404,189,89669,6,0,L|307:226,1,84.599997418213,10|0,1:0|0:0,0:0:0:0:
265,268,89897,1,0,3:0:0:0:
273,287,89972,2,0,B|278:310|278:310|273:341,1,42.2999987091065,2|0,3:2|3:0,0:0:0:0:
83,306,90124,6,0,L|141:309,1,42.2999987091065,10|0,1:0|3:0,0:0:0:0:
198,313,90427,1,2,0:0:0:0:
97,214,90578,5,10,0:1:0:0:
76,217,90653,1,0,3:0:0:0:
55,221,90729,1,0,3:0:0:0:
34,225,90805,1,0,3:0:0:0:
12,229,91639,5,0,0:0:0:0:
34,225,91790,1,0,0:0:0:0:
117,212,91942,1,8,0:1:0:0:
314,183,92093,6,0,L|223:197,1,84.599997418213,10|0,1:0|0:0,0:0:0:0:
168,150,92321,1,0,3:0:0:0:
163,134,92397,2,0,L|217:125,1,42.2999987091065,8|0,3:2|0:0,0:0:0:0:
247,282,92548,6,0,L|205:288,1,42.2999987091065,10|0,1:1|0:0,0:0:0:0:
133,302,92851,1,2,3:2:0:0:
112,306,92927,1,0,3:0:0:0:
91,311,93003,2,0,P|62:341|53:381,1,84.599997418213,8|0,0:3|3:0,0:0:0:0:
125,378,93230,1,0,3:0:0:0:
145,374,93306,6,0,L|280:352,1,126.899996127319,2|0,0:0|0:0,0:0:0:0:
347,334,93912,1,2,0:0:0:0:
367,331,94063,1,0,0:0:0:0:
462,310,94215,1,2,0:0:0:0:
367,331,94366,1,0,1:0:0:0:
231,172,94518,6,0,L|290:186,1,42.2999987091065,10|0,1:0|0:0,0:0:0:0:
386,252,94669,1,0,3:0:0:0:
390,231,94745,1,0,3:0:0:0:
395,210,94821,2,0,L|336:196,1,42.2999987091065,8|0,3:0|3:0,0:0:0:0:
216,249,94972,6,0,L|258:259,1,42.2999987091065,10|0,1:0|3:0,0:0:0:0:
141,229,95275,1,2,3:2:0:0:
120,223,95351,1,0,3:0:0:0:
99,218,95427,5,10,1:0:0:0:
62,198,95502,1,0,3:0:0:0:
40,162,95578,1,0,3:0:0:0:
40,120,95654,1,0,3:0:0:0:
72,87,96942,6,0,L|124:96,1,42.2999987091065,10|0,1:1|0:0,0:0:0:0:
233,116,97093,1,0,3:0:0:0:
213,112,97169,1,0,3:0:0:0:
193,108,97245,2,0,L|184:167,1,42.2999987091065,8|0,3:2|3:0,0:0:0:0:
205,27,97397,1,0,1:0:0:0:
205,27,97700,1,2,0:0:0:0:
225,25,97775,1,0,3:0:0:0:
246,24,97851,2,0,L|298:20,1,42.2999987091065,8|0,3:2|3:0,0:0:0:0:
400,80,98003,1,0,3:0:0:0:
379,78,98078,1,0,3:0:0:0:
357,76,98154,6,0,B|315:109|315:109|341:225,1,169.199994836426,2|8,1:2|0:3,0:0:0:0:
377,323,98609,1,0,1:0:0:0:
227,264,98760,6,0,L|244:197,1,42.2999987091065,2|0,3:1|3:0,0:0:0:0:
168,360,98912,1,2,1:0:0:0:
157,341,98987,1,0,3:0:0:0:
145,322,99063,5,2,3:1:0:0:
102,317,99139,1,0,3:0:0:0:
67,292,99215,1,0,3:0:0:0:
48,254,99290,1,8,3:0:0:0:
52,211,99366,6,0,L|128:201,1,42.2999987091065,10|0,1:0|0:0,0:0:0:0:
191,67,99518,1,0,3:0:0:0:
187,87,99593,1,0,3:0:0:0:
184,108,99669,2,0,L|260:118,1,42.2999987091065,10|0,1:2|0:0,0:0:0:0:
421,135,99821,6,0,L|379:129,1,42.2999987091065,10|0,1:0|0:0,0:0:0:0:
301,121,100124,1,2,0:0:0:0:
229,234,100275,1,10,1:0:0:0:
267,250,100350,1,0,3:0:0:0:
309,253,100426,1,0,3:0:0:0:
350,243,100502,1,0,3:0:0:0:
386,221,100578,5,2,1:0:0:0:
445,378,100881,1,8,0:0:0:0:
416,300,101033,1,0,1:0:0:0:
357,143,101336,1,8,0:1:0:0:
386,221,101488,1,8,0:0:0:0:
416,300,101639,1,0,1:0:0:0:
214,226,101790,6,0,L|241:109,1,84.599997418213,10|0,1:0|0:0,0:0:0:0:
251,70,102018,1,0,3:0:0:0:
256,49,102093,2,0,L|317:62,1,42.2999987091065,8|0,3:2|3:0,0:0:0:0:
137,163,102245,5,10,1:0:0:0:
157,158,102321,1,0,3:0:0:0:
233,143,102548,1,2,1:2:0:0:
94,84,102700,1,8,3:0:0:0:
62,111,102775,1,0,3:0:0:0:
44,149,102851,1,0,3:0:0:0:
46,191,102927,1,0,3:0:0:0:
65,228,103003,6,0,B|125:242|125:242|150:276|150:276|236:287,1,169.199994836426,2|8,1:2|0:3,0:0:0:0:
291,288,103457,1,0,1:0:0:0:
367,293,103609,2,0,L|310:291,1,42.2999987091065,2|0,0:0|0:0,0:0:0:0:
291,288,103760,1,2,1:3:0:0:
296,210,103912,1,2,3:1:0:0:
296,210,104063,1,0,1:0:0:0:
38,349,104215,6,0,L|141:337,1,84.599997418213,10|0,1:0|0:0,0:0:0:0:
198,328,104442,1,0,3:0:0:0:
219,326,104518,2,0,L|214:281,1,42.2999987091065,10|0,3:2|0:0,0:0:0:0:
186,92,104669,6,0,L|191:137,1,42.2999987091065,10|0,1:0|0:0,0:0:0:0:
202,209,104972,1,2,3:2:0:0:
353,328,105124,5,10,1:0:0:0:
357,285,105199,1,0,3:0:0:0:
362,243,105275,1,0,3:2:0:0:
367,201,105351,1,0,3:0:0:0:
372,159,105427,5,2,1:0:0:0:
372,159,105730,1,8,0:0:0:0:
302,132,105881,1,0,1:0:0:0:
166,139,106184,1,8,1:1:0:0:
236,166,106335,1,8,0:3:0:0:
89,27,106639,6,0,L|96:112,1,84.599997418213,10|0,1:0|0:0,0:0:0:0:
107,187,106866,1,0,3:0:0:0:
110,207,106942,2,0,L|50:216,1,42.2999987091065,10|0,3:2|0:0,0:0:0:0:
233,302,107093,5,10,1:0:0:0:
211,299,107169,1,0,3:0:0:0:
133,291,107397,1,2,3:2:0:0:
7,376,107548,5,10,1:0:0:0:
23,337,107623,1,0,3:0:0:0:
52,307,107699,1,0,3:0:0:0:
90,291,107775,1,0,3:0:0:0:
132,290,107851,5,2,1:0:0:0:
211,299,108003,1,2,0:0:0:0:
290,308,108154,1,8,0:3:0:0:
211,299,108306,1,2,1:0:0:0:
362,275,108457,6,0,L|368:316,1,42.2999987091065,2|0,1:0|0:0,0:0:0:0:
398,150,108609,1,2,3:1:0:0:
414,189,108684,1,0,3:0:0:0:
430,228,108760,5,2,3:1:0:0:
474,200,108835,1,0,3:0:0:0:
496,153,108911,1,2,1:2:0:0:
489,101,108987,1,2,3:2:0:0:
456,61,109063,6,0,L|399:54,1,42.2999987091065,10|0,1:0|0:0,0:0:0:0:
269,83,109215,1,0,3:0:0:0:
275,103,109290,1,0,3:0:0:0:
281,123,109366,2,0,L|348:107,1,42.2999987091065,10|0,3:2|0:0,0:0:0:0:
123,34,109518,6,0,L|81:24,1,42.2999987091065,10|0,1:0|0:0,0:0:0:0:
195,59,109821,1,2,0:0:0:0:
51,236,109972,5,10,1:0:0:0:
43,194,110047,1,0,3:0:0:0:
35,152,110123,1,0,3:0:0:0:
27,111,110199,1,0,3:0:0:0:
19,69,110275,5,2,1:2:0:0:
81,24,110578,1,8,0:0:0:0:
19,69,110730,1,0,1:0:0:0:
143,69,111033,1,8,0:1:0:0:
81,24,111185,1,8,0:3:0:0:
19,69,111336,1,0,1:0:0:0:
191,240,111487,6,0,L|205:114,1,126.899996127319,10|0,1:0|3:0,0:0:0:0:
269,69,111790,2,0,L|327:64,1,42.2999987091065,2|0,3:2|3:0,0:0:0:0:
120,283,111942,6,0,L|62:278,1,42.2999987091065,10|0,1:0|0:0,0:0:0:0:
1,270,112245,1,2,3:2:0:0:
6,249,112321,1,0,3:0:0:0:
11,228,112397,6,0,L|21:174,1,42.2999987091065,10|0,1:0|3:0,0:0:0:0:
72,128,112548,2,0,L|62:74,1,42.2999987091065,2|0,3:2|3:0,0:0:0:0:
48,3,112700,6,0,L|72:128,1,126.899996127319,2|0,0:0|0:0,0:0:0:0:
92,200,113306,1,2,0:0:0:0:
92,200,113457,5,0,3:0:0:0:
92,200,113609,1,2,0:0:0:0:
162,180,113760,1,0,1:0:0:0:
332,288,113912,6,0,L|230:276,1,84.599997418213,10|0,1:0|0:0,0:0:0:0:
171,265,114139,1,0,3:0:0:0:
149,262,114215,2,0,L|156:317,1,42.2999987091065,8|0,3:2|0:0,0:0:0:0:
261,179,114366,5,10,1:0:0:0:
259,200,114442,1,0,3:0:0:0:
247,278,114669,1,2,0:0:0:0:
194,89,114821,5,10,1:0:0:0:
231,69,114896,1,0,3:0:0:0:
272,65,114972,1,0,3:0:0:0:
313,77,115048,1,0,3:0:0:0:
345,104,115124,5,2,1:2:0:0:
384,171,115427,1,8,0:0:0:0:
422,237,115578,1,0,1:0:0:0:
416,367,115881,1,8,0:1:0:0:
378,301,116032,1,8,0:2:0:0:
108,353,116336,6,0,L|203:336,1,84.599997418213,10|0,1:0|0:0,0:0:0:0:
265,324,116563,1,0,3:0:0:0:
285,320,116639,1,8,3:2:0:0:
304,282,116715,1,0,3:0:0:0:
299,240,116790,6,0,L|280:174,1,42.2999987091065,10|0,1:0|0:0,0:0:0:0:
260,128,117093,1,2,0:0:0:0:
389,17,117245,6,0,L|347:13,1,42.2999987091065,10|0,1:0|3:0,0:0:0:0:
268,46,117397,2,0,L|225:50,1,42.2999987091065,2|0,3:2|3:0,0:0:0:0:
143,65,117548,6,0,B|167:110|167:110|154:190,1,126.899996127319,2|0,0:0|0:0,0:0:0:0:
112,357,118154,6,0,L|98:304,1,42.2999987091065,2|0,0:1|0:0,0:0:0:0:
62,190,118306,1,2,3:1:0:0:
59,210,118381,1,0,3:2:0:0:
56,231,118457,5,2,3:1:0:0:
36,194,118532,1,0,3:2:0:0:
25,155,118608,1,0,1:2:0:0:
32,113,118684,1,0,3:2:0:0:
39,72,118760,6,0,L|147:56,1,84.599997418213,10|0,1:0|0:0,0:0:0:0:
191,91,118987,1,0,3:0:0:0:
199,71,119063,2,0,L|278:81,1,42.2999987091065,10|0,3:2|0:0,0:0:0:0:
438,105,119215,6,0,L|396:99,1,42.2999987091065,10|0,1:0|0:0,0:0:0:0:
316,88,119518,1,2,0:0:0:0:
175,185,119669,5,10,1:0:0:0:
217,181,119744,1,0,3:0:0:0:
259,177,119820,1,0,3:0:0:0:
301,174,119896,1,0,3:0:0:0:
343,170,119972,5,2,1:2:0:0:
335,247,120275,1,8,0:0:0:0:
343,170,120427,1,0,1:0:0:0:
327,324,120730,1,8,0:1:0:0:
335,247,120882,1,8,0:3:0:0:
343,170,121033,1,0,1:0:0:0:
164,378,121184,6,0,L|143:265,1,84.599997418213,10|0,1:0|0:0,0:0:0:0:
85,249,121412,1,0,3:0:0:0:
64,253,121487,2,0,L|76:322,1,42.2999987091065,10|0,3:2|3:0,0:0:0:0:
31,108,121639,5,10,1:0:0:0:
27,87,121715,1,0,3:0:0:0:
44,181,121942,1,2,3:2:0:0:
100,58,122093,5,10,1:0:0:0:
132,31,122169,1,0,3:0:0:0:
173,21,122244,1,0,3:0:0:0:
214,29,122320,1,0,3:0:0:0:
245,53,122397,6,0,P|174:92|99:58,1,169.199994836426,2|8,1:2|0:3,0:0:0:0:
27,87,122851,1,0,1:0:0:0:
25,166,123003,1,2,0:0:0:0:
98,195,123154,1,2,1:0:0:0:
25,166,123305,1,2,3:2:0:0:
27,87,123457,1,0,1:0:0:0:
157,312,123609,6,0,L|180:196,1,84.599997418213,10|0,1:0|0:0,0:0:0:0:
193,152,123836,1,0,0:0:0:0:
199,131,123912,2,0,L|277:143,1,42.2999987091065,10|0,3:2|0:0,0:0:0:0:
433,164,124063,6,0,L|391:157,1,42.2999987091065,10|0,1:0|0:0,0:0:0:0:
316,148,124366,1,2,3:2:0:0:
320,127,124442,1,0,3:0:0:0:
324,106,124518,6,0,L|330:64,1,42.2999987091065,10|0,1:0|0:0,0:0:0:0:
304,229,124670,2,0,L|297:271,1,42.2999987091065,0|0,3:0|3:0,0:0:0:0:
285,348,124821,5,2,1:2:0:0:
285,348,125124,1,8,0:0:0:0:
362,360,125275,1,0,1:0:0:0:
208,336,125578,1,8,0:1:0:0:
285,348,125729,1,8,0:3:0:0:
498,195,126033,6,0,L|395:206,1,84.599997418213,10|0,1:0|0:0,0:0:0:0:
341,179,126260,1,0,3:0:0:0:
334,199,126336,2,0,L|269:183,1,42.2999987091065,8|0,3:2|0:0,0:0:0:0:
470,116,126487,6,0,L|512:112,1,42.2999987091065,10|0,1:0|0:0,0:0:0:0:
394,123,126790,1,2,3:2:0:0:
388,102,126866,1,0,3:0:0:0:
383,81,126942,5,10,1:0:0:0:
346,101,127017,1,0,3:0:0:0:
304,108,127093,1,0,3:0:0:0:
263,100,127169,1,0,3:0:0:0:
227,78,127245,5,2,1:2:0:0:
159,105,127548,1,8,0:0:0:0:
227,78,127700,1,0,1:0:0:0:
83,133,127851,6,0,L|78:184,1,42.2999987091065,2|0,0:1|0:0,0:0:0:0:
172,270,128003,1,2,3:1:0:0:
169,248,128078,1,0,3:0:0:0:
167,227,128154,5,2,3:1:0:0:
116,239,128229,1,0,3:0:0:0:
88,281,128305,1,2,1:2:0:0:
96,332,128381,1,2,3:2:0:0:
137,364,128457,6,0,P|196:369|258:287,1,134.831248199809,14|0,1:1|0:0,0:0:0:0:
274,250,128760,1,10,3:2:0:0:
286,234,128836,1,0,3:0:0:0:
303,225,128912,2,0,P|264:229|237:260,1,44.9437493999362,0|0,1:2|0:0,0:0:0:0:
308,141,129063,2,0,B|357:143|375:184|364:179|388:218|452:200,1,134.831248199809,2|0,0:0|0:0,0:0:0:0:
488,124,129366,2,0,L|424:131,1,44.9437493999362,10|0,1:0|0:0,0:0:0:0:
371,49,129518,1,0,3:0:0:0:
393,51,129593,1,0,3:0:0:0:
415,53,129669,6,0,L|305:43,1,89.8874987998724,2|0,1:2|0:0,0:0:0:0:
220,156,129972,5,8,0:0:0:0:
145,129,130124,1,2,1:2:0:0:
145,129,130275,1,0,0:0:0:0:
62,300,130427,5,0,1:0:0:0:
137,273,130578,1,10,0:2:0:0:
62,300,130730,1,2,1:2:0:0:
58,130,130881,6,0,L|74:219,1,89.8874987998724,2|0,1:2|0:0,0:0:0:0:
41,52,131184,1,0,3:0:0:0:
37,32,131260,1,0,3:0:0:0:
33,12,131336,1,10,1:0:0:0:
58,130,131487,1,2,3:2:0:0:
34,12,131639,1,2,3:2:0:0:
161,41,131790,5,10,1:0:0:0:
157,63,131865,1,0,3:0:0:0:
153,85,131941,1,0,3:0:0:0:
149,107,132017,1,0,3:0:0:0:
145,129,132093,6,0,B|138:177|138:177|154:210|154:210|136:285,1,134.831248199809,2|0,1:2|0:0,0:0:0:0:
118,329,132396,1,8,0:0:0:0:
69,273,132548,1,2,1:2:0:0:
242,308,132700,6,0,L|185:314,1,48.468750462234,2|0,0:1|0:0,0:0:0:0:
198,200,132851,2,0,L|255:206,1,48.468750462234,2|0,1:1|0:0,0:0:0:0:
352,259,133003,2,0,L|304:259,1,48.468750462234,2|0,0:1|0:0,0:0:0:0:
426,259,133154,1,0,1:0:0:0:
322,15,133306,6,0,L|334:120,1,89.8874987998724,10|0,1:0|0:0,0:0:0:0:
343,181,133533,1,0,3:0:0:0:
362,179,133609,2,0,L|428:167,1,44.9437493999362,10|0,3:2|0:0,0:0:0:0:
476,33,133760,2,0,L|431:24,1,44.9437493999362,0|0,1:2|0:0,0:0:0:0:
437,101,133912,1,2,0:0:0:0:
322,15,134063,1,0,3:0:0:0:
299,19,134138,1,0,3:0:0:0:
277,23,134215,5,2,1:2:0:0:
245,53,134290,1,0,3:2:0:0:
224,93,134366,1,2,3:2:0:0:
218,137,134442,1,0,3:2:0:0:
227,179,134518,6,0,B|217:136|217:136|225:93,1,89.8874987998724,2|0,1:2|0:0,0:0:0:0:
302,160,134821,1,8,3:2:0:0:
80,223,134972,5,2,1:2:0:0:
80,223,135124,1,2,0:0:0:0:
154,202,135275,1,8,3:3:0:0:
154,201,135427,2,0,B|160:246|160:246|149:289,1,89.8874987998724,2|0,3:2|0:0,0:0:0:0:
465,327,135730,6,0,L|367:310,1,89.8874987998724,10|0,1:0|0:0,0:0:0:0:
304,296,135957,1,0,3:0:0:0:
303,315,136033,2,0,L|241:325,1,44.9437493999362,8|0,3:0|0:0,0:0:0:0:
113,281,136184,5,2,1:2:0:0:
131,285,136260,1,0,3:0:0:0:
149,289,136336,1,2,3:2:0:0:
189,364,136487,2,0,L|127:374,1,44.9437493999362,0|0,3:0|3:0,0:0:0:0:
66,188,136639,5,2,1:2:0:0:
110,195,136714,1,0,3:0:0:0:
154,202,136790,1,0,3:0:0:0:
199,209,136866,1,0,3:0:0:0:
243,216,136942,5,2,1:2:0:0:
224,203,137018,1,0,3:0:0:0:
211,185,137093,1,0,3:0:0:0:
278,153,137245,1,8,0:0:0:0:
284,284,137396,1,2,1:2:0:0:
346,99,137548,6,0,L|366:158,1,44.9437493999362,2|0,0:1|0:0,0:0:0:0:
351,262,137700,1,2,1:0:0:0:
345,238,137775,1,0,3:0:0:0:
341,217,137851,5,2,3:1:0:0:
319,255,137926,1,0,3:2:0:0:
284,284,138002,1,0,1:2:0:0:
241,295,138078,1,0,3:2:0:0:
198,288,138154,6,0,P|170:274|133:267,1,44.9437493999362,2|0,1:0|0:0,0:0:0:0:
80,166,138306,1,0,3:0:0:0:
91,150,138381,1,0,3:0:0:0:
102,134,138457,2,0,P|130:120|167:113,1,44.9437493999362,10|0,0:0|0:0,0:0:0:0:
207,206,138609,1,0,1:2:0:0:
191,194,138684,1,0,3:0:0:0:
171,190,138760,1,2,3:2:0:0:
116,289,138912,1,2,3:2:0:0:
136,285,138988,1,0,3:0:0:0:
156,270,139063,5,2,1:0:0:0:
116,289,139138,1,0,3:0:0:0:
103,330,139214,1,0,3:0:0:0:
124,369,139290,1,0,3:0:0:0:
167,379,139366,6,0,L|256:360,1,89.8874987998724,2|0,1:0|0:0,0:0:0:0:
417,204,139669,5,10,3:2:0:0:
342,181,139821,1,2,1:2:0:0:
342,181,139972,1,0,0:0:0:0:
508,44,140124,5,2,3:2:0:0:
433,67,140276,1,10,1:2:0:0:
508,44,140427,1,2,1:2:0:0:
353,92,140578,6,0,B|341:196,1,89.8874987998724,2|0,1:0|0:0,0:0:0:0:
325,259,140806,1,0,3:0:0:0:
306,254,140881,2,0,L|247:243,1,44.9437493999362,10|0,3:2|0:0,0:0:0:0:
59,137,141033,6,0,L|103:145,1,44.9437493999362,10|0,1:0|0:0,0:0:0:0:
214,95,141184,1,2,0:0:0:0:
183,226,141336,1,0,3:0:0:0:
179,245,141412,1,0,3:0:0:0:
173,270,141487,5,2,1:2:0:0:
183,226,141562,1,0,3:0:0:0:
193,183,141638,1,0,3:0:0:0:
203,138,141714,1,0,3:0:0:0:
214,95,141790,6,0,B|169:98|169:98|137:66|137:66|86:68,1,134.831248199809,2|0,1:0|0:0,0:0:0:0:
15,74,142093,1,8,0:0:0:0:
59,137,142245,1,2,1:2:0:0:
199,19,142396,6,0,L|271:14,1,44.9437493999362,2|0,0:1|0:0,0:0:0:0:
339,102,142548,2,0,L|294:98,1,44.9437493999362,2|0,1:0|0:0,0:0:0:0:
199,185,142700,2,0,L|243:181,1,44.9437493999362,2|0,0:1|0:0,0:0:0:0:
125,198,142851,1,0,1:2:0:0:
377,356,143003,6,0,L|270:344,1,89.8874987998724,2|0,1:0|0:0,0:0:0:0:
212,334,143230,1,0,0:0:0:0:
192,331,143306,2,0,L|206:393,1,44.9437493999362,8|0,0:0|0:0,0:0:0:0:
176,257,143457,1,0,1:0:0:0:
176,257,143609,1,2,0:0:0:0:
67,301,143760,1,2,3:2:0:0:
89,304,143835,1,0,3:0:0:0:
111,307,143912,5,2,1:0:0:0:
83,271,143987,1,0,3:0:0:0:
68,229,144063,1,2,3:2:0:0:
67,185,144139,1,0,3:0:0:0:
82,141,144215,6,0,B|102:102|102:102|103:58,1,89.8874987998724,2|0,1:0|0:0,0:0:0:0:
377,191,144518,5,8,3:2:0:0:
303,207,144669,1,2,1:2:0:0:
377,191,144821,1,2,0:0:0:0:
303,207,144972,1,8,0:1:0:0:
303,207,145124,2,0,L|402:186,1,75.7875011564255,2|0,0:0|0:0,0:0:0:0:
88,14,145427,6,0,L|199:30,1,89.8874987998724,10|0,1:0|0:0,0:0:0:0:
253,41,145654,1,0,3:0:0:0:
272,43,145730,2,0,L|259:101,1,44.9437493999362,8|0,3:2|0:0,0:0:0:0:
213,200,145881,2,0,L|203:156,1,44.9437493999362,2|0,1:2|0:0,0:0:0:0:
237,274,146033,1,2,0:0:0:0:
121,238,146184,1,0,3:0:0:0:
125,216,146259,1,0,3:0:0:0:
130,194,146336,5,2,1:0:0:0:
98,224,146411,1,0,3:0:0:0:
83,266,146487,1,0,3:0:0:0:
89,311,146563,1,0,3:0:0:0:
114,347,146639,6,0,P|138:359|157:360,1,44.9437493999362,2|0,3:2|3:0,0:0:0:0:
234,353,146790,1,0,3:0:0:0:
425,298,146942,5,8,0:0:0:0:
350,275,147093,1,2,1:2:0:0:
488,124,147245,6,0,L|498:169,1,44.9437493999362,2|0,0:1|0:0,0:0:0:0:
411,221,147396,1,2,3:1:0:0:
415,198,147471,1,0,3:0:0:0:
420,176,147548,5,2,3:1:0:0:
379,157,147623,1,0,3:0:0:0:
335,153,147699,1,2,1:0:0:0:
292,166,147775,1,0,3:0:0:0:
267,261,147851,6,0,L|256:192,1,70.5,10|2,1:0|0:0,0:0:0:0:
176,313,148306,2,0,L|188:244,1,70.5,8|2,1:0|0:0,0:0:0:0:
108,369,148760,2,0,L|96:299,1,70.5,8|2,1:0|0:0,0:0:0:0:
145,40,149669,6,0,B|140:96|140:96|160:127|160:127|155:186,1,141,2|2,0:0|0:0,0:0:0:0:
96,224,150578,1,2,0:0:0:0:
96,224,151033,1,2,0:0:0:0:
96,224,151487,1,2,0:0:0:0:
221,73,152093,6,0,L|298:83,1,70.5,2|2,0:0|0:0,0:0:0:0:
290,82,152548,1,2,0:0:0:0:
380,0,152700,6,0,L|372:79,1,70.5,8|2,1:0|0:0,0:0:0:0:
398,190,153154,2,0,L|333:143,1,70.5,8|2,1:0|0:0,0:0:0:0:
225,110,153609,2,0,L|297:77,1,70.5,8|2,1:0|0:0,0:0:0:0:
492,331,154518,6,0,B|436:325|436:325|412:300|412:300|355:293,1,141,2|2,0:0|0:0,0:0:0:0:
300,341,155427,1,2,0:0:0:0:
300,341,155730,1,2,0:0:0:0:
236,296,156033,1,2,0:0:0:0:
236,296,156184,1,2,0:0:0:0:
236,296,156336,5,2,0:3:0:0:
166,329,156790,5,2,0:3:0:0:
96,362,157245,5,2,3:3:0:0:
90,345,157320,1,0,3:0:0:0:
85,328,157396,1,0,1:0:0:0:
80,311,157472,1,0,3:0:0:0:
74,294,157548,6,0,L|80:215,1,70.5,8|2,1:0|0:0,0:0:0:0:
149,131,158003,2,0,L|154:202,1,70.5,8|2,1:0|0:0,0:0:0:0:
75,103,158457,2,0,L|79:32,1,70.5,8|2,1:0|0:0,0:0:0:0:
367,17,159366,6,0,B|417:33|417:33|454:19|454:19|509:31,1,141,2|2,0:0|0:0,0:0:0:0:
462,96,160275,1,2,0:0:0:0:
462,96,160730,1,2,0:0:0:0:
462,96,161184,1,2,0:0:0:0:
427,228,161790,6,0,L|411:153,1,70.5,2|2,0:0|0:0,0:0:0:0:
412,159,162245,1,2,0:0:0:0:
368,292,162396,6,0,L|330:225,1,70.5,8|2,1:0|0:0,0:0:0:0:
215,237,162851,2,0,L|272:277,1,70.5,8|2,1:0|0:0,0:0:0:0:
312,365,163306,2,0,L|242:352,1,70.5,8|2,1:0|0:0,0:0:0:0:
25,77,164215,6,0,B|84:73|84:73|105:49|105:49|171:44,1,141,2|2,0:0|0:0,0:0:0:0:
223,81,165124,1,2,0:0:0:0:
223,81,165427,1,2,0:0:0:0:
290,43,165730,1,2,0:0:0:0:
290,43,165881,1,2,0:0:0:0:
290,43,166033,5,2,0:3:0:0:
357,81,166487,5,2,0:3:0:0:
424,119,166942,5,2,3:0:0:0:
426,136,167017,1,0,3:0:0:0:
429,153,167093,1,0,1:0:0:0:
431,171,167169,1,0,3:0:0:0:
434,188,167245,5,2,0:0:0:0:
395,255,167548,1,2,0:0:0:0:
395,255,168003,1,2,0:0:0:0:
395,255,168457,1,2,0:0:0:0:
395,255,168912,1,2,0:0:0:0:
205,172,169063,6,0,B|256:174|256:174|282:200|282:200|335:201,1,141,2|0,0:0|0:0,0:0:0:0:
