osu file format v14

[General]
AudioFilename: audio.mp3
AudioLeadIn: 0
PreviewTime: 32152
Countdown: 0
SampleSet: Normal
StackLeniency: 0.7
Mode: 0
LetterboxInBreaks: 0
WidescreenStoryboard: 1

[Editor]
DistanceSpacing: 1.3
BeatDivisor: 2
GridSize: 16
TimelineZoom: 1.5

[Metadata]
Title:Applause
TitleUnicode:Applause
Artist:VINXIS
ArtistUnicode:VINXIS
Creator:WaffleEater
Version:Normal
Source:
Tags:VINXIS Applause WaffleEater Electronic Melodic
BeatmapID:1762705
BeatmapSetID:833394

[Difficulty]
HPDrainRate:4
CircleSize:2.8
OverallDifficulty:3
ApproachRate:4.5
SliderMultiplier:1.4
SliderTickRate:1

[Events]
//Background and Video events
0,0,"Sfondo Applause.jpg",0,0
//Break Periods
//Storyboard Layer 0 (Background)
//Storyboard Layer 1 (Fail)
//Storyboard Layer 2 (Pass)
//Storyboard Layer 3 (Foreground)
//Storyboard Sound Samples

[TimingPoints]
152,500,4,1,0,100,1,0
32152,-100,4,1,0,100,0,1
40152,-100,4,1,0,100,0,0
48152,-100,4,1,0,100,0,1
64152,-100,4,1,0,100,0,0

[Colours]
Combo1 : 192,192,192
Combo2 : 255,255,0
Combo3 : 0,128,255
Combo4 : 0,0,160

[HitObjects]
64,64,152,5,0,0:0:0:0:
105,145,402,1,0,0:0:0:0:
173,207,652,2,0,P|206:227|250:231,1,70
327,225,1152,1,0,0:0:0:0:
397,162,1402,1,0,0:0:0:0:
365,76,1652,2,0,P|346:45|288:65,1,70
226,62,2152,6,0,L|226:146,2,70
144,32,2902,1,0,0:0:0:0:
64,62,3152,2,0,P|60:99|76:147,1,70
111,213,3652,2,0,P|131:247|164:273,1,70
229,317,4152,5,0,0:0:0:0:
319,305,4402,1,0,0:0:0:0:
354,221,4652,2,0,P|364:176|349:142,1,70
308,78,5152,2,0,P|272:66|231:77,1,70
152,92,5652,1,0,0:0:0:0:
95,163,5902,1,0,0:0:0:0:
96,253,6152,6,0,P|50:246|29:227,2,70
185,234,6902,1,0,0:0:0:0:
274,251,7152,2,0,P|320:244|341:225,1,70
392,160,7652,1,0,0:0:0:0:
342,83,7902,1,0,0:0:0:0:
251,87,8152,6,0,P|264:135|304:167,2,70
160,64,8902,1,0,0:0:0:0:
70,86,9152,2,0,P|83:134|123:166,1,70
160,215,9652,1,0,0:0:0:0:
248,237,9902,1,0,0:0:0:0:
336,212,10152,6,0,P|322:178|290:157,2,70
363,299,10902,1,0,0:0:0:0:
435,242,11152,2,0,P|457:212|459:174,1,70
455,89,11652,1,0,0:0:0:0:
373,46,11902,1,0,0:0:0:0:
318,119,12152,6,0,P|290:94|283:45,2,70
402,155,12902,1,0,0:0:0:0:
430,242,13152,2,0,P|425:284|381:304,1,70
316,325,13652,1,0,0:0:0:0:
226,306,13902,1,0,0:0:0:0:
185,223,14152,5,0,0:0:0:0:
418,81,14902,2,0,B|459:94|455:134,1,70
145,339,16152,5,0,0:0:0:0:
75,280,16402,2,0,P|66:244|76:211,1,70
121,135,16902,1,0,0:0:0:0:
204,97,17152,1,0,0:0:0:0:
204,97,17402,1,0,0:0:0:0:
287,132,17652,2,0,P|296:160|291:199,1,70
283,290,18152,6,0,P|244:280|218:255,2,70
374,295,18902,1,0,0:0:0:0:
391,205,19152,2,0,P|396:171|379:130,1,70
329,65,19652,1,0,0:0:0:0:
239,50,19902,1,0,0:0:0:0:
189,126,20152,6,0,P|159:97|147:63,2,70
267,172,20902,1,0,0:0:0:0:
325,241,21152,2,0,P|355:270|367:304,1,70
276,314,21652,1,0,0:0:0:0:
185,303,21902,2,0,P|146:279|132:246,1,70
