osu file format v14

[General]
AudioFilename: audio.mp3
AudioLeadIn: 0
PreviewTime: 32152
Countdown: 1
SampleSet: Normal
StackLeniency: 0.4
Mode: 0
LetterboxInBreaks: 0
WidescreenStoryboard: 1

[Editor]
Bookmarks: 55152,57652
DistanceSpacing: 1.2
BeatDivisor: 1
GridSize: 8
TimelineZoom: 1.3

[Metadata]
Title:Applause
TitleUnicode:Applause
Artist:VINXIS
ArtistUnicode:VINXIS
Creator:WaffleEater
Version:Hyper
Source:
Tags:VINXIS Applause WaffleEater Electronic Melodic
BeatmapID:1746413
BeatmapSetID:833394

[Difficulty]
HPDrainRate:5
CircleSize:3.9
OverallDifficulty:6
ApproachRate:7.7
SliderMultiplier:1.4
SliderTickRate:1

[Events]
//Background and Video events
0,0,"Sfondo Applause.jpg",0,0
//Break Periods
//Storyboard Layer 0 (Background)
//Storyboard Layer 1 (Fail)
//Storyboard Layer 2 (Pass)
//Storyboard Layer 3 (Foreground)
//Storyboard Sound Samples

[TimingPoints]
152,500,4,1,0,100,1,0
17652,-400,4,1,0,100,0,0
17902,-100,4,1,0,100,0,0
21652,-400,4,1,0,100,0,0
21902,-100,4,1,0,100,0,0
25652,-400,4,1,0,100,0,0
25902,-100,4,1,0,100,0,0
29652,-400,4,1,0,100,0,0
29902,-100,4,1,0,100,0,0
32152,-100,4,1,0,100,0,1
32902,-400,4,1,0,100,0,1
33152,-100,4,1,0,100,0,1
36152,-100,4,1,0,100,0,1
36902,-294.117647058824,4,1,0,100,0,1
37152,-100,4,1,0,100,0,1
40152,-100,4,1,0,100,0,0
40902,-400,4,1,0,100,0,0
41152,-100,4,1,0,100,0,0
44902,-400,4,1,0,100,0,0
45152,-100,4,1,0,100,0,0
48152,-100,4,1,0,100,0,1
49652,-400,4,1,0,100,0,1
49902,-100,4,1,0,100,0,1
53652,-400,4,1,0,100,0,1
53902,-100,4,1,0,100,0,1
57652,-400,4,1,0,100,0,1
57902,-100,4,1,0,100,0,1
64152,-100,4,1,0,100,0,0

[Colours]
Combo1 : 192,192,192
Combo2 : 255,255,0
Combo3 : 0,128,255
Combo4 : 0,0,160

[HitObjects]
80,64,152,5,0,0:0:0:0:
80,204,402,1,0,0:0:0:0:
201,134,652,1,0,0:0:0:0:
319,209,902,1,0,0:0:0:0:
314,74,1152,1,0,0:0:0:0:
435,146,1402,1,0,0:0:0:0:
435,286,1652,2,0,P|416:325|390:330,1,70
217,330,2152,5,0,0:0:0:0:
111,238,2402,1,0,0:0:0:0:
111,98,2652,1,0,0:0:0:0:
220,10,2902,1,0,0:0:0:0:
360,10,3152,2,0,P|398:36|398:71,1,70
401,197,3652,1,0,0:0:0:0:
342,324,3902,1,0,0:0:0:0:
243,179,4152,6,0,P|218:157|182:168,1,70
72,249,4652,1,0,0:0:0:0:
181,336,4902,1,0,0:0:0:0:
229,204,5152,1,0,0:0:0:0:
96,317,5402,1,0,0:0:0:0:
100,177,5652,2,0,P|138:163|171:176,1,70
331,226,6152,5,0,0:0:0:0:
373,92,6402,1,0,0:0:0:0:
258,172,6652,1,0,0:0:0:0:
397,175,6902,1,0,0:0:0:0:
283,93,7152,1,0,0:0:0:0:
178,205,7402,1,0,0:0:0:0:
58,277,7652,2,0,P|64:313|92:324,1,70
268,324,8152,5,0,0:0:0:0:
361,219,8402,1,0,0:0:0:0:
221,219,8652,1,0,0:0:0:0:
111,131,8902,1,0,0:0:0:0:
111,271,9152,2,0,P|87:293|69:268,1,70
69,128,9652,1,0,0:0:0:0:
203,88,9902,1,0,0:0:0:0:
376,64,10152,6,0,P|418:78|422:108,1,70
423,239,10652,1,0,0:0:0:0:
304,313,10902,1,0,0:0:0:0:
164,319,11152,1,0,0:0:0:0:
338,314,11402,1,0,0:0:0:0:
286,181,11652,2,0,P|250:171|206:189,1,70
60,253,12152,5,0,0:0:0:0:
92,116,12402,1,0,0:0:0:0:
221,63,12652,1,0,0:0:0:0:
356,97,12902,1,0,0:0:0:0:
241,177,13152,1,0,0:0:0:0:
366,239,13402,1,0,0:0:0:0:
255,324,13652,2,0,P|219:328|180:300,1,70
61,193,14152,5,0,0:0:0:0:
441,193,14902,1,0,0:0:0:0:
441,193,15152,1,0,0:0:0:0:
48,336,16152,5,0,0:0:0:0:
144,234,16402,2,0,P|164:221|185:221,1,35
216,215,16652,1,0,0:0:0:0:
290,210,16902,2,0,P|270:197|249:197,1,35
216,192,17152,1,0,0:0:0:0:
78,164,17402,1,0,0:0:0:0:
105,149,17527,1,0,0:0:0:0:
132,133,17652,2,0,L|146:124,1,17.5
306,52,18152,5,0,0:0:0:0:
384,168,18402,2,0,P|390:186|386:211,1,35
385,244,18652,1,0,0:0:0:0:
276,244,18902,2,0,P|271:224|272:207,1,35
273,167,19152,1,0,0:0:0:0:
190,68,19402,2,0,P|169:62|146:73,1,35
118,82,19652,1,0,0:0:0:0:
31,191,19902,1,0,0:0:0:0:
165,325,20152,5,0,0:0:0:0:
287,294,20402,2,0,P|310:282|315:261,1,35
335,239,20652,1,0,0:0:0:0:
272,220,20902,2,0,P|267:239|275:263,1,35
287,294,21152,1,0,0:0:0:0:
326,164,21402,1,0,0:0:0:0:
347,140,21527,1,0,0:0:0:0:
355,106,21652,2,0,P|356:96|356:89,1,17.5
200,32,22152,5,0,0:0:0:0:
107,113,22402,2,0,B|95:129|95:129|110:147,1,35
133,171,22652,1,0,0:0:0:0:
211,293,22902,2,0,P|226:308|247:311,1,35
280,318,23152,1,0,0:0:0:0:
395,206,23402,2,0,P|402:185|400:161,1,35
398,130,23652,1,0,0:0:0:0:
386,88,23777,2,0,P|379:74|359:62,1,35
184,32,24152,5,0,0:0:0:0:
118,131,24402,2,0,P|114:153|117:177,1,35
120,207,24652,1,0,0:0:0:0:
118,132,24902,2,0,P|138:129|158:133,1,35
193,140,25152,1,0,0:0:0:0:
120,207,25402,1,0,0:0:0:0:
120,235,25527,1,0,0:0:0:0:
120,262,25652,2,0,P|122:275|128:282,1,17.5
280,352,26152,5,0,0:0:0:0:
356,238,26402,2,0,P|366:220|367:198,1,35
374,164,26652,1,0,0:0:0:0:
272,57,26902,2,0,P|254:53|235:57,1,35
196,65,27152,1,0,0:0:0:0:
58,170,27402,2,0,P|64:194|79:210,1,35
95,235,27652,1,0,0:0:0:0:
174,317,27902,2,0,P|194:308|205:295,1,35
250,235,28152,5,0,0:0:0:0:
197,95,28402,2,0,P|176:98|159:113,1,35
133,133,28652,1,0,0:0:0:0:
197,95,28902,2,0,P|218:98|235:113,1,35
265,128,29152,1,0,0:0:0:0:
201,203,29402,1,0,0:0:0:0:
202,234,29527,1,0,0:0:0:0:
203,265,29652,2,0,L|204:297,1,17.5
24,320,30152,5,0,0:0:0:0:
96,234,30402,2,0,P|110:220|131:214,1,35
163,200,30652,1,0,0:0:0:0:
285,154,30902,2,0,P|306:140|311:127,1,35
323,91,31152,1,0,0:0:0:0:
448,187,31402,2,0,B|449:209|449:209|432:221,1,35
399,233,31652,1,0,0:0:0:0:
358,244,31777,2,0,B|337:248|337:248|321:233,1,35
127,277,32152,5,0,0:0:0:0:
156,125,32402,2,0,P|166:107|183:93,1,35
208,70,32652,1,0,0:0:0:0:
397,55,32902,2,0,L|378:57,1,17.5
488,224,33402,2,0,P|484:246|468:264,1,35
450,289,33652,1,0,0:0:0:0:
283,335,33902,2,0,P|264:340|235:331,1,35
151,293,34152,5,0,0:0:0:0:
160,107,34402,2,0,L|158:142,1,35
163,86,34652,1,0,0:0:0:0:
184,87,34902,2,0,L|222:88,1,35
163,86,35152,1,0,0:0:0:0:
162,64,35402,2,0,L|162:28,1,35
163,86,35652,1,0,0:0:0:0:
34,89,35902,1,0,0:0:0:0:
102,257,36152,5,0,0:0:0:0:
248,225,36402,2,0,P|268:213|277:195,1,35
293,166,36652,1,0,0:0:0:0:
347,45,36902,2,0,L|322:49,1,23.8000001452637
147,88,37402,2,0,P|131:98|126:118,1,35
122,154,37652,1,0,0:0:0:0:
119,274,37902,2,0,B|129:292|129:292|146:295,1,35
253,301,38152,5,0,0:0:0:0:
385,136,38402,2,0,L|425:135,1,35,0|0,2:0|2:0,2:0:0:0:
367,135,38652,1,0,0:0:0:0:
345,121,38902,2,0,L|313:97,1,35
367,135,39152,1,0,0:0:0:0:
345,151,39402,2,0,L|313:175,1,35
367,135,39652,1,0,0:0:0:0:
201,137,39902,1,0,0:0:0:0:
76,298,40152,5,0,0:0:0:0:
240,290,40402,2,0,P|260:281|276:265,1,35
299,242,40652,1,0,0:0:0:0:
285,77,40902,2,0,B|264:78,1,17.5
92,91,41402,2,0,B|72:102|72:102|68:117,1,35
57,154,41652,1,0,0:0:0:0:
166,47,41902,1,0,0:0:0:0:
364,79,42152,5,0,0:0:0:0:
399,240,42402,2,0,P|398:263|379:280,1,35
368,307,42652,1,0,0:0:0:0:
183,316,42902,2,0,P|205:322|233:316,1,35
368,307,43152,1,0,0:0:0:0:
398,239,43402,2,0,P|403:220|403:201,1,35
404,162,43652,1,0,0:0:0:0:
233,35,43902,1,0,0:0:0:0:
63,79,44152,5,0,0:0:0:0:
261,122,44402,2,0,P|282:133|287:151,1,35
307,179,44652,1,0,0:0:0:0:
301,293,44902,2,0,L|287:308,1,17.5
217,355,45402,2,0,P|197:349|197:328,1,35
189,294,45652,1,0,0:0:0:0:
336,224,45902,1,0,0:0:0:0:
204,109,46152,5,0,0:0:0:0:
97,214,46402,2,0,P|85:230|84:253,1,35
83,286,46652,1,0,0:0:0:0:
171,334,46902,2,0,P|191:339|215:335,1,35
246,329,47152,1,0,0:0:0:0:
249,187,47402,2,0,P|231:180|203:182,1,35
173,180,47652,1,0,0:0:0:0:
79,168,47902,2,0,P|89:146|106:131,1,35
183,29,48152,5,0,0:0:0:0:
294,116,48402,2,0,P|308:137|307:159,1,35
316,187,48652,1,0,0:0:0:0:
311,323,48902,2,0,P|288:334|260:334,1,35
236,338,49152,1,0,0:0:0:0:
127,332,49402,2,0,B|110:321|110:321|130:313,1,35
199,278,49652,2,0,L|216:269,1,17.5
337,201,50152,5,0,0:0:0:0:
469,246,50402,1,0,0:0:0:0:
373,348,50652,1,0,0:0:0:0:
240,301,50902,1,0,0:0:0:0:
204,165,51152,1,0,0:0:0:0:
109,61,51402,1,0,0:0:0:0:
55,190,51652,1,0,0:0:0:0:
116,43,51902,1,0,0:0:0:0:
325,45,52152,5,0,0:0:0:0:
402,161,52402,1,0,0:0:0:0:
349,290,52652,1,0,0:0:0:0:
209,290,52902,1,0,0:0:0:0:
258,158,53152,1,0,0:0:0:0:
140,81,53402,1,0,0:0:0:0:
258,158,53652,2,0,L|276:170,1,17.5
72,312,54152,5,0,0:0:0:0:
192,241,54402,1,0,0:0:0:0:
331,240,54652,1,0,0:0:0:0:
251,354,54902,1,0,0:0:0:0:
331,224,55152,1,0,0:0:0:0:
192,223,55402,1,0,0:0:0:0:
72,152,55652,1,0,0:0:0:0:
74,291,55902,1,0,0:0:0:0:
214,135,56152,5,0,0:0:0:0:
316,39,56402,1,0,0:0:0:0:
214,135,56652,1,0,0:0:0:0:
118,237,56902,1,0,0:0:0:0:
233,154,57152,1,0,0:0:0:0:
316,39,57402,1,0,0:0:0:0:
193,113,57652,2,0,L|177:127,1,17.5
39,271,58152,5,0,0:0:0:0:
173,310,58402,1,0,0:0:0:0:
339,310,58652,1,0,0:0:0:0:
473,271,58902,1,0,0:0:0:0:
298,186,59152,1,0,0:0:0:0:
192,131,59402,1,0,0:0:0:0:
299,80,59652,1,0,0:0:0:0:
192,26,59902,1,0,0:0:0:0:
50,129,60152,5,0,0:0:0:0:
151,225,60402,1,0,0:0:0:0:
282,271,60652,1,0,0:0:0:0:
151,225,60902,1,0,0:0:0:0:
127,86,61152,1,0,0:0:0:0:
263,53,61402,1,0,0:0:0:0:
163,151,61652,1,0,0:0:0:0:
267,244,61902,1,0,0:0:0:0:
410,115,62152,5,0,0:0:0:0:
263,53,62402,1,0,0:0:0:0:
299,188,62652,1,0,0:0:0:0:
160,170,62902,1,0,0:0:0:0:
68,302,63152,1,0,0:0:0:0:
216,240,63402,1,0,0:0:0:0:
102,125,63652,1,0,0:0:0:0:
330,60,63902,1,0,0:0:0:0:
423,262,64152,5,0,0:0:0:0:
