osu file format v14

[General]
AudioFilename: audio.mp3
AudioLeadIn: 0
PreviewTime: 32152
Countdown: 0
SampleSet: Normal
StackLeniency: 0.7
Mode: 0
LetterboxInBreaks: 0
WidescreenStoryboard: 0

[Editor]
DistanceSpacing: 1.2
BeatDivisor: 4
GridSize: 8
TimelineZoom: 1.5

[Metadata]
Title:Applause
TitleUnicode:Applause
Artist:VINXIS
ArtistUnicode:VINXIS
Creator:WaffleEater
Version:Clap!
Source:
Tags:VINXIS Applause WaffleEater Electronic Melodic
BeatmapID:1745751
BeatmapSetID:833394

[Difficulty]
HPDrainRate:7
CircleSize:4.3
OverallDifficulty:8.5
ApproachRate:9.4
SliderMultiplier:1.4
SliderTickRate:1

[Events]
//Background and Video events
0,0,"Sfondo Applause.jpg",0,0
//Break Periods
//Storyboard Layer 0 (Background)
//Storyboard Layer 1 (Fail)
//Storyboard Layer 2 (Pass)
//Storyboard Layer 3 (Foreground)
//Storyboard Sound Samples

[TimingPoints]
152,500,4,1,0,100,1,0
32152,-100,4,1,0,100,0,1
40152,-100,4,1,0,100,0,0
48152,-100,4,1,0,100,0,1
64152,-100,4,1,0,100,0,0

[Colours]
Combo1 : 192,192,192
Combo2 : 255,255,0
Combo3 : 0,128,255
Combo4 : 0,0,160

[HitObjects]
80,64,152,5,0,0:0:0:0:
240,133,402,1,0,0:0:0:0:
103,242,652,1,0,0:0:0:0:
159,76,902,1,0,0:0:0:0:
213,242,1152,1,0,0:0:0:0:
45,191,1402,1,0,0:0:0:0:
212,139,1652,1,0,0:0:0:0:
62,48,1902,1,0,0:0:0:0:
120,285,2152,5,0,0:0:0:0:
268,193,2402,1,0,0:0:0:0:
289,366,2652,1,0,0:0:0:0:
378,215,2902,1,0,0:0:0:0:
203,216,3152,1,0,0:0:0:0:
98,356,3402,1,0,0:0:0:0:
258,286,3652,1,0,0:0:0:0:
320,122,3902,1,0,0:0:0:0:
90,35,4152,5,0,0:0:0:0:
55,206,4402,1,0,0:0:0:0:
205,117,4652,1,0,0:0:0:0:
156,285,4902,1,0,0:0:0:0:
294,178,5152,1,0,0:0:0:0:
256,348,5402,1,0,0:0:0:0:
174,193,5652,1,0,0:0:0:0:
51,67,5902,1,0,0:0:0:0:
256,16,6152,5,0,0:0:0:0:
287,177,6402,1,0,0:0:0:0:
112,187,6652,1,0,0:0:0:0:
234,311,6902,1,0,0:0:0:0:
392,235,7152,1,0,0:0:0:0:
302,84,7402,1,0,0:0:0:0:
127,95,7652,1,0,0:0:0:0:
80,263,7902,1,0,0:0:0:0:
324,249,8152,5,0,0:0:0:0:
157,196,8402,1,0,0:0:0:0:
239,350,8652,1,0,0:0:0:0:
404,293,8902,1,0,0:0:0:0:
293,157,9152,1,0,0:0:0:0:
175,287,9402,1,0,0:0:0:0:
301,147,9652,1,0,0:0:0:0:
120,126,9902,1,0,0:0:0:0:
330,58,10152,5,0,0:0:0:0:
391,233,10402,1,0,0:0:0:0:
233,155,10652,1,0,0:0:0:0:
407,143,10902,1,0,0:0:0:0:
280,264,11152,1,0,0:0:0:0:
105,249,11402,1,0,0:0:0:0:
270,191,11652,1,0,0:0:0:0:
400,307,11902,1,0,0:0:0:0:
225,320,12152,5,0,0:0:0:0:
146,163,12402,1,0,0:0:0:0:
312,110,12652,1,0,0:0:0:0:
192,237,12902,1,0,0:0:0:0:
217,63,13152,1,0,0:0:0:0:
45,98,13402,1,0,0:0:0:0:
60,272,13652,1,0,0:0:0:0:
226,327,13902,1,0,0:0:0:0:
363,218,14152,5,0,0:0:0:0:
219,117,14402,1,0,0:0:0:0:
89,234,14652,1,0,0:0:0:0:
235,226,14902,5,0,0:0:0:0:
250,363,15152,1,0,0:0:0:0:
399,271,15402,1,0,0:0:0:0:
389,96,15652,1,0,0:0:0:0:
214,97,15902,1,0,0:0:0:0:
79,301,16152,5,0,0:0:0:0:
284,256,16402,1,0,0:0:0:0:
316,224,16527,1,0,0:0:0:0:
334,182,16652,1,0,0:0:0:0:
157,68,16902,1,0,0:0:0:0:
84,264,17152,1,0,0:0:0:0:
289,219,17402,1,0,0:0:0:0:
430,63,17652,2,0,L|413:85,4,17.5
391,270,18152,5,0,0:0:0:0:
181,256,18402,1,0,0:0:0:0:
147,225,18527,1,0,0:0:0:0:
128,183,18652,1,0,0:0:0:0:
267,76,18902,1,0,0:0:0:0:
324,241,19152,1,0,0:0:0:0:
205,112,19402,1,0,0:0:0:0:
159,280,19652,1,0,0:0:0:0:
292,166,19902,1,0,0:0:0:0:
419,332,20152,5,0,0:0:0:0:
220,264,20402,2,0,P|202:258|187:243,1,35
132,158,20652,1,0,0:0:0:0:
312,48,20902,2,0,P|331:40|352:48,1,35
448,62,21152,1,0,0:0:0:0:
376,259,21402,2,0,P|366:274|350:288,1,35
269,349,21652,2,0,L|284:339,4,17.5
111,209,22152,5,0,0:0:0:0:
205,61,22402,2,0,P|223:56|247:64,1,35
322,89,22652,1,0,0:0:0:0:
310,277,22902,2,0,P|306:297|288:305,1,35
205,337,23152,1,0,0:0:0:0:
58,217,23402,2,0,P|52:200|61:179,1,35
86,82,23652,1,0,0:0:0:0:
169,196,23777,2,0,P|163:177|150:164,1,35
308,354,24152,5,0,0:0:0:0:
109,285,24402,2,0,P|87:275|81:261,1,35
59,163,24652,1,0,0:0:0:0:
230,42,24902,2,0,P|250:37|274:45,1,35
367,61,25152,1,0,0:0:0:0:
415,265,25402,2,0,P|423:283|414:307,1,35
321,334,25652,2,0,B|311:337|311:337|309:348,4,17.5
115,292,26152,5,0,0:0:0:0:
224,155,26402,2,0,P|236:138|253:133,1,35
334,112,26652,1,0,0:0:0:0:
357,320,26902,2,0,P|356:341|338:356,1,35
65,136,27152,1,0,0:0:0:0:
61,243,27402,2,0,B|45:231|45:231|62:221,1,35
153,178,27652,1,0,0:0:0:0:
350,248,27902,1,0,0:0:0:0:
251,62,28152,5,0,0:0:0:0:
436,158,28402,2,0,P|455:172|449:196,1,35
487,283,28652,1,0,0:0:0:0:
282,332,28902,2,0,P|262:336|244:328,1,35
161,271,29152,1,0,0:0:0:0:
67,82,29402,2,0,B|58:62|80:53,1,35
180,25,29652,2,0,L|210:27,4,17.5
359,133,30152,5,0,0:0:0:0:
292,294,30402,2,0,P|284:312|261:320,1,35
184,335,30652,1,0,0:0:0:0:
59,211,30902,2,0,P|47:197|49:173,1,35
53,93,31152,1,0,0:0:0:0:
223,52,31402,2,0,B|246:47|258:64,1,35
371,130,31652,5,0,0:0:0:0:
263,267,31902,1,0,0:0:0:0:
96,138,32152,5,0,0:0:0:0:
281,40,32402,2,0,P|298:31|316:36,1,35
412,72,32652,1,0,0:0:0:0:
308,254,32902,2,0,L|294:279,3,17.5
319,231,33152,1,0,0:0:0:0:
103,300,33402,1,0,0:0:0:0:
247,147,33652,1,0,0:0:0:0:
58,55,33902,1,0,0:0:0:0:
267,44,34152,5,0,0:0:0:0:
394,212,34402,2,0,P|398:230|386:251,1,35
341,338,34652,1,0,0:0:0:0:
141,272,34902,2,0,P|148:250|165:233,1,35
221,159,35152,1,0,0:0:0:0:
405,57,35402,1,0,0:0:0:0:
386,266,35652,1,0,0:0:0:0:
176,261,35902,1,0,0:0:0:0:
261,69,36152,5,0,0:0:0:0:
456,122,36402,2,0,P|475:136|471:160,1,35
480,248,36652,1,0,0:0:0:0:
313,314,36902,2,0,L|295:318,3,17.5
337,310,37152,1,0,0:0:0:0:
293,210,37402,2,0,P|287:190|270:177,1,35
196,112,37652,1,0,0:0:0:0:
73,282,37902,1,0,0:0:0:0:
282,296,38152,5,0,0:0:0:0:
142,138,38402,1,0,0:0:0:0:
50,326,38652,1,0,0:0:0:0:
255,180,38902,1,0,0:0:0:0:
296,312,39152,5,0,0:0:0:0:
120,112,39402,1,0,0:0:0:0:
382,57,39652,1,0,0:0:0:0:
150,266,39902,1,0,0:0:0:0:
355,220,40152,5,0,0:0:0:0:
214,115,40402,2,0,P|198:112|188:127,1,35
147,205,40652,1,0,0:0:0:0:
287,309,40902,2,0,L|311:324,3,17.5
266,294,41152,1,0,0:0:0:0:
351,150,41402,1,0,0:0:0:0:
226,272,41652,1,0,0:0:0:0:
106,143,41902,1,0,0:0:0:0:
63,334,42152,5,0,0:0:0:0:
272,333,42402,2,0,P|289:331|302:314,1,35
344,222,42652,1,0,0:0:0:0:
175,270,42902,1,0,0:0:0:0:
221,100,43152,1,0,0:0:0:0:
426,65,43402,1,0,0:0:0:0:
263,131,43652,1,0,0:0:0:0:
424,198,43902,1,0,0:0:0:0:
231,282,44152,5,0,0:0:0:0:
79,194,44402,1,0,0:0:0:0:
125,297,44652,1,0,0:0:0:0:
232,123,44902,2,0,L|216:145,3,17.5
247,103,45152,1,0,0:0:0:0:
404,91,45402,1,0,0:0:0:0:
398,265,45652,1,0,0:0:0:0:
235,329,45902,1,0,0:0:0:0:
81,185,46152,5,0,0:0:0:0:
232,97,46402,1,0,0:0:0:0:
282,264,46652,1,0,0:0:0:0:
406,151,46902,1,0,0:0:0:0:
199,187,47152,5,0,0:0:0:0:
27,71,47402,2,0,P|33:52|55:43,1,35
81,22,47652,1,0,0:0:0:0:
297,58,47902,2,0,P|314:65|323:85,1,35
349,162,48152,5,0,0:0:0:0:
182,289,48402,1,0,0:0:0:0:
124,86,48652,1,0,0:0:0:0:
308,268,48902,1,0,0:0:0:0:
409,84,49152,1,0,0:0:0:0:
217,170,49402,1,0,0:0:0:0:
102,346,49652,2,0,L|123:329,3,17.5
137,314,49902,1,0,0:0:0:0:
317,276,50152,5,0,0:0:0:0:
263,72,50402,1,0,0:0:0:0:
115,221,50652,1,0,0:0:0:0:
69,16,50902,1,0,0:0:0:0:
205,175,51152,1,0,0:0:0:0:
412,208,51402,1,0,0:0:0:0:
216,284,51652,1,0,0:0:0:0:
57,145,51902,1,0,0:0:0:0:
309,229,52152,5,0,0:0:0:0:
155,85,52402,1,0,0:0:0:0:
140,294,52652,1,0,0:0:0:0:
348,322,52902,1,0,0:0:0:0:
257,132,53152,1,0,0:0:0:0:
62,210,53402,1,0,0:0:0:0:
265,261,53652,2,0,L|250:246,3,17.5
280,280,53902,1,0,0:0:0:0:
400,84,54152,5,0,0:0:0:0:
210,173,54402,1,0,0:0:0:0:
391,279,54652,1,0,0:0:0:0:
290,94,54902,1,0,0:0:0:0:
424,64,55152,5,0,0:0:0:0:
192,192,55402,1,0,0:0:0:0:
408,304,55652,1,0,0:0:0:0:
272,64,55902,1,0,0:0:0:0:
366,289,56152,5,0,0:0:0:0:
168,218,56402,1,0,0:0:0:0:
367,151,56652,1,0,0:0:0:0:
234,313,56902,1,0,0:0:0:0:
254,104,57152,1,0,0:0:0:0:
47,144,57402,1,0,0:0:0:0:
230,241,57652,2,0,L|220:225,3,17.5
243,262,57902,1,0,0:0:0:0:
70,338,58152,5,0,0:0:0:0:
276,299,58402,1,0,0:0:0:0:
133,196,58652,1,0,0:0:0:0:
277,89,58902,1,0,0:0:0:0:
440,207,59152,1,0,0:0:0:0:
377,36,59402,1,0,0:0:0:0:
295,209,59652,1,0,0:0:0:0:
467,98,59902,1,0,0:0:0:0:
282,111,60152,5,0,0:0:0:0:
79,58,60402,1,0,0:0:0:0:
114,237,60652,1,0,0:0:0:0:
322,260,60902,1,0,0:0:0:0:
131,348,61152,1,0,0:0:0:0:
340,354,61402,1,0,0:0:0:0:
192,204,61652,2,0,L|206:192,3,17.5
176,223,61902,1,0,0:0:0:0:
361,81,62152,5,0,0:0:0:0:
354,290,62402,1,0,0:0:0:0:
237,115,62652,1,0,0:0:0:0:
42,194,62902,1,0,0:0:0:0:
212,316,63152,1,0,0:0:0:0:
131,121,63402,1,0,0:0:0:0:
337,158,63652,1,0,0:0:0:0:
451,333,63902,1,0,0:0:0:0:
98,247,64152,5,0,0:0:0:0:
