osu file format v14

[General]
AudioFilename: audio.mp3
AudioLeadIn: 0
PreviewTime: 34165
Countdown: 0
SampleSet: Normal
StackLeniency: 0.7
Mode: 1
LetterboxInBreaks: 0
WidescreenStoryboard: 0

[Editor]
Bookmarks: 2181,16181,18181,34181,66181
DistanceSpacing: 1.3
BeatDivisor: 4
GridSize: 32
TimelineZoom: 0.5999995

[Metadata]
Title:Applause
TitleUnicode:Applause
Artist:VINXIS
ArtistUnicode:VINXIS
Creator:Pachiru
Version:Aldwych's Futsuu
Source:
Tags:Ayyri Aldwych Oui Noffy Kotori-Chan
BeatmapID:1119074
BeatmapSetID:501719

[Difficulty]
HPDrainRate:7
CircleSize:2
OverallDifficulty:4
ApproachRate:10
SliderMultiplier:1.4
SliderTickRate:1

[Events]
//Background and Video events
0,0,"evening.jpg",0,0
//Break Periods
//Storyboard Layer 0 (Background)
//Storyboard Layer 1 (Fail)
//Storyboard Layer 2 (Pass)
//Storyboard Layer 3 (Foreground)
Sprite,Foreground,Centre,"evening.jpg",320,240 M,0,34165,,320,360 S,0,34165,,0.644 F,0,66165,68165,1,0 C,0,66165,68165,255,255,255,33,0,140
Sprite,Foreground,Centre,"SB\day.jpg",320,240 M,0,-115,,320,360 S,0,-115,,0.644 C,0,-115,18165,228,255,214,255,255,255 F,0,34165,35165,1,0
//Storyboard Sound Samples

[TimingPoints]
2165,500,4,1,0,75,1,0
34165,-100,4,1,0,75,0,1
66165,-100,4,1,0,75,0,0

[HitObjects]
192,288,2165,5,8,0:0:0:0:
320,224,3165,1,8,0:0:0:0:
352,192,3665,1,8,0:0:0:0:
192,288,4165,1,0,0:0:0:0:
480,64,5165,1,8,0:0:0:0:
352,192,5665,1,0,0:0:0:0:
192,288,6165,1,8,0:0:0:0:
512,128,7165,1,8,0:0:0:0:
320,160,7665,1,8,0:0:0:0:
192,288,8165,1,0,0:0:0:0:
320,224,9165,1,8,0:0:0:0:
480,128,9665,1,0,0:0:0:0:
192,288,10165,1,8,0:0:0:0:
512,64,11165,1,8,0:0:0:0:
352,160,11665,1,8,0:0:0:0:
192,288,12165,1,0,0:0:0:0:
480,64,13165,1,8,0:0:0:0:
352,192,13665,1,0,0:0:0:0:
192,288,14165,5,8,0:0:0:0:
288,160,16165,5,0,0:0:0:0:
288,160,16915,1,0,0:0:0:0:
192,160,17165,1,8,0:0:0:0:
224,192,18165,1,4,0:0:0:0:
224,192,18915,1,0,0:0:0:0:
225,179,19165,1,8,0:0:0:0:
192,160,19415,1,8,0:0:0:0:
192,160,19915,1,8,0:0:0:0:
192,160,20165,1,0,0:0:0:0:
192,160,20665,1,0,0:0:0:0:
192,160,21165,1,8,0:0:0:0:
224,160,21665,1,0,0:0:0:0:
192,160,22165,1,0,0:0:0:0:
192,160,22915,1,0,0:0:0:0:
192,160,23165,1,8,0:0:0:0:
192,160,23415,1,8,0:0:0:0:
192,160,23915,1,8,0:0:0:0:
192,160,24165,1,0,0:0:0:0:
192,160,24915,1,0,0:0:0:0:
192,160,25165,1,8,0:0:0:0:
160,128,25540,1,8,0:0:0:0:
160,128,25915,1,8,0:0:0:0:
160,128,26165,1,0,0:0:0:0:
160,128,26915,1,0,0:0:0:0:
160,128,27165,1,8,0:0:0:0:
160,128,27415,1,8,0:0:0:0:
160,128,27915,1,8,0:0:0:0:
160,128,28165,1,0,0:0:0:0:
224,128,28915,1,0,0:0:0:0:
224,128,29165,1,8,0:0:0:0:
224,128,30165,1,0,0:0:0:0:
224,128,30915,1,0,0:0:0:0:
224,128,31165,1,8,0:0:0:0:
224,128,31415,1,8,0:0:0:0:
224,128,31915,1,8,0:0:0:0:
224,128,32165,1,0,0:0:0:0:
224,128,32915,1,0,0:0:0:0:
224,128,33165,1,8,0:0:0:0:
224,128,33540,1,8,0:0:0:0:
224,128,33915,1,8,0:0:0:0:
224,128,34165,1,4,0:0:0:0:
288,160,35165,1,0,0:0:0:0:
288,160,35665,1,0,0:0:0:0:
288,160,35915,1,0,0:0:0:0:
288,160,36165,1,8,0:0:0:0:
288,160,36665,1,0,0:0:0:0:
288,160,36915,1,8,0:0:0:0:
512,352,37165,1,8,0:0:0:0:
288,160,37665,1,0,0:0:0:0:
288,160,38165,1,0,0:0:0:0:
288,160,39165,1,8,0:0:0:0:
288,160,39665,5,0,0:0:0:0:
288,160,39915,1,0,0:0:0:0:
288,160,40165,1,8,0:0:0:0:
288,160,40665,1,8,0:0:0:0:
288,160,40915,1,0,0:0:0:0:
288,160,41165,1,8,0:0:0:0:
288,160,41540,1,8,0:0:0:0:
288,160,41915,1,8,0:0:0:0:
288,160,42165,1,0,0:0:0:0:
288,160,43165,1,8,0:0:0:0:
320,160,43665,1,8,0:0:0:0:
320,160,43915,1,8,0:0:0:0:
320,160,44165,1,0,0:0:0:0:
320,160,44665,1,0,0:0:0:0:
288,160,44915,1,8,0:0:0:0:
288,160,45165,1,8,0:0:0:0:
288,160,45665,1,0,0:0:0:0:
288,160,46165,1,0,0:0:0:0:
288,160,47165,1,8,0:0:0:0:
288,160,47665,5,0,0:0:0:0:
288,160,47915,1,0,0:0:0:0:
288,160,48165,5,8,0:0:0:0:
288,160,48665,1,0,0:0:0:0:
288,160,48915,1,0,0:0:0:0:
288,160,49165,1,8,0:0:0:0:
288,160,49540,1,8,0:0:0:0:
288,160,49915,1,8,0:0:0:0:
288,160,50165,1,4,0:0:0:0:
288,160,51165,1,8,0:0:0:0:
288,160,51665,1,0,0:0:0:0:
288,160,51915,1,0,0:0:0:0:
288,160,52165,1,8,0:0:0:0:
288,160,52665,1,0,0:0:0:0:
288,160,52915,1,0,0:0:0:0:
288,160,53165,1,8,0:0:0:0:
288,160,53665,1,8,0:0:0:0:
288,160,54165,1,0,0:0:0:0:
288,160,55165,1,8,0:0:0:0:
288,160,55665,1,0,0:0:0:0:
288,160,55915,1,8,0:0:0:0:
288,160,56165,1,8,0:0:0:0:
288,160,56665,1,8,0:0:0:0:
288,160,56915,1,0,0:0:0:0:
288,160,57165,1,8,0:0:0:0:
288,160,57540,1,8,0:0:0:0:
288,160,57915,1,8,0:0:0:0:
288,160,58165,1,0,0:0:0:0:
288,160,59165,1,8,0:0:0:0:
288,160,59665,1,8,0:0:0:0:
288,160,59915,1,8,0:0:0:0:
288,160,60165,1,0,0:0:0:0:
288,160,60665,1,0,0:0:0:0:
288,160,60915,1,0,0:0:0:0:
288,160,61165,1,8,0:0:0:0:
288,160,61665,1,8,0:0:0:0:
288,160,62165,1,0,0:0:0:0:
288,160,63165,1,8,0:0:0:0:
288,160,63665,1,8,0:0:0:0:
288,160,63915,1,8,0:0:0:0:
288,160,64165,5,0,0:0:0:0:
288,160,64665,1,0,0:0:0:0:
288,160,64915,1,0,0:0:0:0:
288,160,65165,1,8,0:0:0:0:
288,160,65540,1,8,0:0:0:0:
288,160,65915,1,8,0:0:0:0:
288,160,66165,1,8,0:0:0:0:
