osu file format v14

[General]
AudioFilename: audio.mp3
AudioLeadIn: 0
PreviewTime: 16152
Countdown: 0
SampleSet: Normal
StackLeniency: 1
Mode: 1
LetterboxInBreaks: 0
WidescreenStoryboard: 0

[Editor]
Bookmarks: 16152,32152,48152
DistanceSpacing: 1.5
BeatDivisor: 2
GridSize: 32
TimelineZoom: 1.8

[Metadata]
Title:Applause
TitleUnicode:Applause
Artist:VINXIS
ArtistUnicode:VINXIS
Creator:FAMoss
Version:Poii's Futsuu
Source:osu!
Tags:featured artist PoPoii Poii joori Crowie chillout melodic
BeatmapID:1654871
BeatmapSetID:788001

[Difficulty]
HPDrainRate:7
CircleSize:2
OverallDifficulty:3
ApproachRate:10
SliderMultiplier:1.4
SliderTickRate:1

[Events]
//Background and Video events
0,0,"taiko_bg.jpg",0,30
//Break Periods
//Storyboard Layer 0 (Background)
//Storyboard Layer 1 (Fail)
//Storyboard Layer 2 (Pass)
//Storyboard Layer 3 (Foreground)
//Storyboard Sound Samples

[TimingPoints]
152,500,4,1,0,70,1,0
48152,-100,4,1,0,70,0,1
64152,-100,4,1,0,70,0,0

[HitObjects]
256,192,152,5,0,0:0:0:0:
256,192,652,1,0,0:0:0:0:
256,192,1152,1,8,0:0:0:0:
256,192,2152,1,0,0:0:0:0:
256,192,3152,1,8,0:0:0:0:
256,192,4152,1,0,0:0:0:0:
256,192,4652,1,0,0:0:0:0:
256,192,5152,1,8,0:0:0:0:
256,192,6152,1,0,0:0:0:0:
256,192,7152,1,8,0:0:0:0:
256,192,8152,1,0,0:0:0:0:
256,192,8652,1,0,0:0:0:0:
256,192,9152,1,8,0:0:0:0:
256,192,10152,1,0,0:0:0:0:
256,192,11152,1,8,0:0:0:0:
256,192,11652,1,8,0:0:0:0:
256,192,12152,1,0,0:0:0:0:
256,192,13152,1,8,0:0:0:0:
256,192,14152,1,0,0:0:0:0:
256,192,14902,1,0,0:0:0:0:
256,192,15152,1,8,0:0:0:0:
256,192,16152,1,0,0:0:0:0:
256,192,16652,1,0,0:0:0:0:
256,192,17152,1,8,0:0:0:0:
256,192,17652,1,8,0:0:0:0:
256,192,17902,1,8,0:0:0:0:
256,192,18152,1,0,0:0:0:0:
256,192,18652,1,0,0:0:0:0:
256,192,19152,1,8,0:0:0:0:
256,192,20152,1,0,0:0:0:0:
256,192,20652,1,0,0:0:0:0:
256,192,21152,1,8,0:0:0:0:
256,192,21652,1,8,0:0:0:0:
256,192,21902,1,8,0:0:0:0:
256,192,22152,1,0,0:0:0:0:
256,192,23152,1,8,0:0:0:0:
256,192,23652,1,0,0:0:0:0:
256,192,23902,1,8,0:0:0:0:
256,192,24152,1,0,0:0:0:0:
256,192,24652,1,0,0:0:0:0:
256,192,25152,1,8,0:0:0:0:
256,192,25652,1,8,0:0:0:0:
256,192,25902,1,8,0:0:0:0:
256,192,26152,1,0,0:0:0:0:
256,160,26652,1,0,0:0:0:0:
256,192,27152,1,8,0:0:0:0:
256,192,28152,1,0,0:0:0:0:
256,192,28652,1,0,0:0:0:0:
256,192,29152,1,8,0:0:0:0:
256,192,29652,1,8,0:0:0:0:
256,192,29902,1,8,0:0:0:0:
256,192,30152,1,0,0:0:0:0:
256,192,31152,1,8,0:0:0:0:
256,192,31652,1,0,0:0:0:0:
256,192,31902,1,8,0:0:0:0:
256,192,32152,1,0,0:0:0:0:
256,192,32652,1,0,0:0:0:0:
256,192,33152,1,8,0:0:0:0:
256,192,33652,1,8,0:0:0:0:
256,192,33902,1,0,0:0:0:0:
256,192,34152,1,0,0:0:0:0:
256,192,34652,1,8,0:0:0:0:
256,192,35152,1,0,0:0:0:0:
256,192,36152,1,0,0:0:0:0:
256,192,36652,1,0,0:0:0:0:
256,192,37152,1,8,0:0:0:0:
256,192,37652,1,8,0:0:0:0:
256,192,37902,1,0,0:0:0:0:
256,192,38152,1,0,0:0:0:0:
256,192,39152,1,0,0:0:0:0:
256,192,39652,1,8,0:0:0:0:
256,192,39902,1,8,0:0:0:0:
256,192,40152,1,0,0:0:0:0:
256,192,40652,1,0,0:0:0:0:
256,192,41152,1,8,0:0:0:0:
256,192,41652,1,8,0:0:0:0:
256,192,41902,1,0,0:0:0:0:
256,192,42152,1,0,0:0:0:0:
256,192,42652,1,8,0:0:0:0:
256,192,43152,1,0,0:0:0:0:
256,192,44152,1,0,0:0:0:0:
256,192,44652,1,0,0:0:0:0:
256,192,45152,1,8,0:0:0:0:
256,192,45652,1,8,0:0:0:0:
256,192,45902,1,0,0:0:0:0:
256,192,46152,1,0,0:0:0:0:
256,192,46652,1,0,0:0:0:0:
256,192,46902,1,0,0:0:0:0:
256,192,47152,1,8,0:0:0:0:
256,192,48152,1,0,0:0:0:0:
256,192,48402,1,8,0:0:0:0:
256,192,48652,1,0,0:0:0:0:
256,192,48902,1,0,0:0:0:0:
256,192,49152,1,8,0:0:0:0:
256,192,49652,1,8,0:0:0:0:
256,192,49902,1,8,0:0:0:0:
256,192,50152,1,0,0:0:0:0:
256,192,50652,1,0,0:0:0:0:
256,192,51152,1,8,0:0:0:0:
256,192,52152,1,0,0:0:0:0:
256,192,52402,1,8,0:0:0:0:
256,192,52652,1,0,0:0:0:0:
256,192,52902,1,0,0:0:0:0:
256,192,53152,1,8,0:0:0:0:
256,192,53652,1,8,0:0:0:0:
256,192,53902,1,8,0:0:0:0:
256,192,54152,1,0,0:0:0:0:
256,192,55152,1,8,0:0:0:0:
256,192,55402,1,0,0:0:0:0:
256,192,55652,1,8,0:0:0:0:
256,192,55902,1,8,0:0:0:0:
256,192,56152,1,0,0:0:0:0:
256,192,56652,1,0,0:0:0:0:
256,192,56902,1,0,0:0:0:0:
256,192,57152,1,8,0:0:0:0:
256,192,57652,1,8,0:0:0:0:
256,192,57902,1,0,0:0:0:0:
256,192,58152,1,8,0:0:0:0:
256,192,58652,1,0,0:0:0:0:
256,192,59152,1,8,0:0:0:0:
256,192,60152,1,0,0:0:0:0:
256,192,60402,1,8,0:0:0:0:
256,192,60652,1,0,0:0:0:0:
256,192,60902,1,0,0:0:0:0:
256,192,61152,1,8,0:0:0:0:
256,192,61652,1,8,0:0:0:0:
256,192,61902,1,0,0:0:0:0:
256,192,62152,1,8,0:0:0:0:
256,192,62652,1,0,0:0:0:0:
256,192,63152,1,8,0:0:0:0:
256,192,63402,1,0,0:0:0:0:
256,192,63652,1,0,0:0:0:0:
256,192,63902,1,8,0:0:0:0:
256,192,64152,1,8,0:0:0:0:
