osu file format v14

[General]
AudioFilename: audio.mp3
AudioLeadIn: 0
PreviewTime: 16152
Countdown: 0
SampleSet: Soft
StackLeniency: 0.7
Mode: 3
LetterboxInBreaks: 0
SpecialStyle: 0
WidescreenStoryboard: 0

[Editor]
Bookmarks: 16152,32152,48152
DistanceSpacing: 1.5
BeatDivisor: 4
GridSize: 32
TimelineZoom: 0.6

[Metadata]
Title:Applause
TitleUnicode:Applause
Artist:VINXIS
ArtistUnicode:VINXIS
Creator:FAMoss
Version:Easy
Source:osu!
Tags:featured artist PoPoii Poii joori Crowie chillout melodic
BeatmapID:1653827
BeatmapSetID:788001

[Difficulty]
HPDrainRate:7
CircleSize:4
OverallDifficulty:7
ApproachRate:5
SliderMultiplier:1.4
SliderTickRate:1

[Events]
//Background and Video events
0,0,"mania_bg.jpg",0,0
//Break Periods
//Storyboard Layer 0 (Background)
//Storyboard Layer 1 (Fail)
//Storyboard Layer 2 (Pass)
//Storyboard Layer 3 (Foreground)
//Storyboard Sound Samples

[TimingPoints]
152,500,4,2,1,30,1,0
16152,-100,4,2,1,40,0,1
24152,-100,4,2,1,40,0,0
32152,-100,4,2,1,40,0,1
40152,-100,4,2,1,40,0,0
48152,-100,4,2,1,40,0,1
56152,-100,4,2,1,40,0,0

[HitObjects]
448,192,152,5,0,0:0:0:0:
320,192,402,1,0,0:0:0:0:
64,192,652,1,0,0:0:0:0:
192,192,902,1,0,0:0:0:0:
448,192,1152,1,0,0:0:0:0:
64,192,1402,1,0,0:0:0:0:
320,192,1652,1,0,0:0:0:0:
192,192,1902,1,0,0:0:0:0:
448,192,2152,1,0,0:0:0:0:
64,192,2402,1,0,0:0:0:0:
192,192,2652,1,0,0:0:0:0:
448,192,2902,1,0,0:0:0:0:
320,192,3152,1,0,0:0:0:0:
64,192,3402,1,0,0:0:0:0:
448,192,3652,1,0,0:0:0:0:
192,192,3902,1,0,0:0:0:0:
448,192,4152,1,0,0:0:0:0:
320,192,4402,1,0,0:0:0:0:
64,192,4652,1,0,0:0:0:0:
192,192,4902,1,0,0:0:0:0:
448,192,5152,1,0,0:0:0:0:
64,192,5402,1,0,0:0:0:0:
320,192,5652,1,0,0:0:0:0:
192,192,5902,1,0,0:0:0:0:
448,192,6152,1,0,0:0:0:0:
64,192,6402,1,0,0:0:0:0:
192,192,6652,1,0,0:0:0:0:
448,192,6902,1,0,0:0:0:0:
320,192,7152,1,0,0:0:0:0:
64,192,7402,1,0,0:0:0:0:
448,192,7652,1,0,0:0:0:0:
320,192,7902,1,0,0:0:0:0:
64,192,8152,1,0,0:0:0:0:
192,192,8402,1,0,0:0:0:0:
448,192,8652,1,0,0:0:0:0:
64,192,8902,1,0,0:0:0:0:
320,192,9152,1,0,0:0:0:0:
448,192,9402,1,0,0:0:0:0:
192,192,9652,1,0,0:0:0:0:
320,192,9902,1,0,0:0:0:0:
64,192,10152,1,0,0:0:0:0:
320,192,10402,1,0,0:0:0:0:
448,192,10652,1,0,0:0:0:0:
64,192,10902,1,0,0:0:0:0:
192,192,11152,1,0,0:0:0:0:
448,192,11402,1,0,0:0:0:0:
192,192,11652,1,0,0:0:0:0:
320,192,11902,1,0,0:0:0:0:
64,192,12152,1,0,0:0:0:0:
192,192,12402,1,0,0:0:0:0:
448,192,12652,1,0,0:0:0:0:
64,192,12902,1,0,0:0:0:0:
320,192,13152,1,0,0:0:0:0:
448,192,13402,1,0,0:0:0:0:
192,192,13652,1,0,0:0:0:0:
320,192,13902,1,0,0:0:0:0:
64,192,14152,1,2,0:0:0:0:
320,192,14402,1,0,0:0:0:0:
448,192,14652,1,0,0:0:0:0:
64,192,14902,1,2,0:0:0:0:
192,192,15152,1,8,0:0:0:0:
448,192,15402,1,0,0:0:0:0:
320,192,15652,1,0,0:0:0:0:
192,192,15902,1,0,0:0:0:0:
64,192,16152,1,2,0:0:0:0:
448,192,16152,1,4,0:0:0:0:
320,192,16402,1,0,0:0:0:0:
192,192,16652,1,0,0:0:0:0:
448,192,16902,1,2,0:0:0:0:
64,192,17152,1,8,0:0:0:0:
320,192,17402,1,0,0:0:0:0:
448,192,17652,128,0,18152:0:0:0:0:
192,192,18152,1,4,0:0:0:0:
64,192,18402,1,0,0:0:0:0:
320,192,18652,1,2,0:0:0:0:
448,192,18902,1,0,0:0:0:0:
192,192,19152,1,8,0:0:0:0:
320,192,19402,1,0,0:0:0:0:
64,192,19652,1,2,0:0:0:0:
320,192,19902,1,0,0:0:0:0:
64,192,20152,1,2,0:0:0:0:
448,192,20152,1,4,0:0:0:0:
192,192,20402,1,0,0:0:0:0:
320,192,20652,1,0,0:0:0:0:
64,192,20902,1,2,0:0:0:0:
448,192,21152,1,8,0:0:0:0:
192,192,21402,1,0,0:0:0:0:
64,192,21652,128,0,22152:0:0:0:0:
320,192,22152,1,4,0:0:0:0:
448,192,22402,1,0,0:0:0:0:
192,192,22652,1,0,0:0:0:0:
64,192,22902,1,2,0:0:0:0:
320,192,23152,1,8,0:0:0:0:
64,192,23402,1,2,0:0:0:0:
448,192,23652,1,0,0:0:0:0:
192,192,23902,1,8,0:0:0:0:
320,192,24152,1,2,0:0:0:0:
448,192,24152,1,4,0:0:0:0:
64,192,24402,1,0,0:0:0:0:
192,192,24652,1,0,0:0:0:0:
448,192,24902,1,2,0:0:0:0:
320,192,25152,1,8,0:0:0:0:
64,192,25402,1,0,0:0:0:0:
192,192,25652,128,0,26152:0:0:0:0:
448,192,26152,1,4,0:0:0:0:
320,192,26402,1,0,0:0:0:0:
64,192,26652,1,0,0:0:0:0:
448,192,26902,1,2,0:0:0:0:
320,192,27152,1,8,0:0:0:0:
64,192,27402,1,0,0:0:0:0:
192,192,27652,1,0,0:0:0:0:
320,192,27902,1,0,0:0:0:0:
64,192,28152,1,2,0:0:0:0:
192,192,28152,1,4,0:0:0:0:
448,192,28402,1,0,0:0:0:0:
320,192,28652,1,0,0:0:0:0:
64,192,28902,1,2,0:0:0:0:
192,192,29152,1,8,0:0:0:0:
448,192,29402,1,0,0:0:0:0:
320,192,29652,128,0,30152:0:0:0:0:
64,192,30152,1,4,0:0:0:0:
192,192,30402,1,0,0:0:0:0:
448,192,30652,1,0,0:0:0:0:
64,192,30902,1,2,0:0:0:0:
320,192,31152,1,8,0:0:0:0:
64,192,31402,1,2,0:0:0:0:
320,192,31652,1,0,0:0:0:0:
192,192,31902,1,8,0:0:0:0:
64,192,32152,1,4,0:0:0:0:
448,192,32152,1,2,0:0:0:0:
320,192,32402,1,0,0:0:0:0:
64,192,32652,1,2,0:0:0:0:
448,192,32902,128,0,33152:0:0:0:0:
192,192,33152,1,8,0:0:0:0:
320,192,33402,1,0,0:0:0:0:
64,192,33652,1,2,0:0:0:0:
192,192,33902,1,0,0:0:0:0:
448,192,34152,1,4,0:0:0:0:
64,192,34402,1,0,0:0:0:0:
320,192,34652,1,2,0:0:0:0:
64,192,34902,1,0,0:0:0:0:
448,192,35152,1,4,0:0:0:0:
192,192,35402,1,0,0:0:0:0:
64,192,35652,1,2,0:0:0:0:
320,192,35902,1,2,0:0:0:0:
64,192,36152,1,2,0:0:0:0:
448,192,36152,1,4,0:0:0:0:
192,192,36402,1,0,0:0:0:0:
448,192,36652,1,2,0:0:0:0:
64,192,36902,128,0,37152:0:0:0:0:
320,192,37152,1,8,0:0:0:0:
192,192,37402,1,0,0:0:0:0:
448,192,37652,1,2,0:0:0:0:
320,192,37902,1,0,0:0:0:0:
64,192,38152,1,4,0:0:0:0:
448,192,38402,1,0,0:0:0:0:
192,192,38652,1,2,0:0:0:0:
448,192,38902,1,2,0:0:0:0:
64,192,39152,1,4,0:0:0:0:
320,192,39402,1,2,0:0:0:0:
192,192,39652,1,2,0:0:0:0:
320,192,39902,1,2,0:0:0:0:
64,192,40152,1,2,0:0:0:0:
192,192,40152,1,4,0:0:0:0:
448,192,40402,1,0,0:0:0:0:
320,192,40652,1,2,0:0:0:0:
192,192,40902,128,2,41152:0:0:0:0:
448,192,41152,1,8,0:0:0:0:
64,192,41402,1,0,0:0:0:0:
320,192,41652,1,2,0:0:0:0:
192,192,41902,1,0,0:0:0:0:
448,192,42152,1,4,0:0:0:0:
64,192,42402,1,0,0:0:0:0:
192,192,42652,1,2,0:0:0:0:
448,192,42902,1,2,0:0:0:0:
320,192,43152,1,4,0:0:0:0:
64,192,43402,1,0,0:0:0:0:
320,192,43652,1,2,0:0:0:0:
192,192,43902,1,2,0:0:0:0:
320,192,44152,1,2,0:0:0:0:
448,192,44152,1,4,0:0:0:0:
64,192,44402,1,0,0:0:0:0:
192,192,44652,1,2,0:0:0:0:
320,192,44902,128,2,45152:0:0:0:0:
64,192,45152,1,8,0:0:0:0:
448,192,45402,1,0,0:0:0:0:
192,192,45652,1,2,0:0:0:0:
320,192,45902,1,0,0:0:0:0:
64,192,46152,1,4,0:0:0:0:
448,192,46402,1,0,0:0:0:0:
320,192,46652,1,2,0:0:0:0:
64,192,46902,1,2,0:0:0:0:
192,192,47152,1,4,0:0:0:0:
448,192,47402,1,2,0:0:0:0:
192,192,47652,1,2,0:0:0:0:
320,192,47902,1,8,0:0:0:0:
64,192,48152,1,2,0:0:0:0:
448,192,48152,1,4,0:0:0:0:
192,192,48402,1,0,0:0:0:0:
448,192,48652,1,2,0:0:0:0:
320,192,48902,1,0,0:0:0:0:
64,192,49152,1,8,0:0:0:0:
192,192,49402,1,0,0:0:0:0:
320,192,49652,128,2,49902:0:0:0:0:
448,192,50152,1,2,0:0:0:0:
64,192,50402,1,0,0:0:0:0:
192,192,50652,1,2,0:0:0:0:
448,192,50902,1,0,0:0:0:0:
320,192,51152,1,8,0:0:0:0:
192,192,51402,1,0,0:0:0:0:
448,192,51652,1,2,0:0:0:0:
192,192,51902,1,0,0:0:0:0:
64,192,52152,1,2,0:0:0:0:
448,192,52152,1,4,0:0:0:0:
320,192,52402,1,0,0:0:0:0:
64,192,52652,1,2,0:0:0:0:
192,192,52902,1,0,0:0:0:0:
448,192,53152,1,8,0:0:0:0:
320,192,53402,1,0,0:0:0:0:
192,192,53652,128,2,53902:0:0:0:0:
64,192,54152,1,2,0:0:0:0:
448,192,54402,1,0,0:0:0:0:
320,192,54652,1,2,0:0:0:0:
64,192,54902,1,0,0:0:0:0:
192,192,55152,1,8,0:0:0:0:
448,192,55402,1,2,0:0:0:0:
64,192,55652,1,2,0:0:0:0:
320,192,55902,1,8,0:0:0:0:
64,192,56152,1,2,0:0:0:0:
192,192,56152,1,4,0:0:0:0:
448,192,56402,1,0,0:0:0:0:
192,192,56652,1,2,0:0:0:0:
448,192,56902,1,0,0:0:0:0:
64,192,57152,1,8,0:0:0:0:
192,192,57402,1,0,0:0:0:0:
448,192,57652,128,2,57902:0:0:0:0:
320,192,58152,1,2,0:0:0:0:
64,192,58402,1,0,0:0:0:0:
448,192,58652,1,2,0:0:0:0:
192,192,58902,1,0,0:0:0:0:
64,192,59152,1,8,0:0:0:0:
320,192,59402,1,0,0:0:0:0:
448,192,59652,1,2,0:0:0:0:
192,192,59902,1,0,0:0:0:0:
320,192,60152,1,2,0:0:0:0:
448,192,60152,1,4,0:0:0:0:
64,192,60402,1,0,0:0:0:0:
320,192,60652,1,2,0:0:0:0:
64,192,60902,1,0,0:0:0:0:
448,192,61152,1,8,0:0:0:0:
320,192,61402,1,0,0:0:0:0:
64,192,61652,128,2,61902:0:0:0:0:
192,192,62152,1,2,0:0:0:0:
448,192,62402,1,0,0:0:0:0:
64,192,62652,1,2,0:0:0:0:
192,192,62902,1,0,0:0:0:0:
448,192,63152,1,8,0:0:0:0:
192,192,63402,1,2,0:0:0:0:
320,192,63652,1,2,0:0:0:0:
64,192,63902,128,8,64152:0:0:0:0:
448,192,64152,1,8,0:0:0:0:
320,192,64152,1,4,0:0:0:0:
