osu file format v14

[General]
AudioFilename: audio.mp3
AudioLeadIn: 0
PreviewTime: 42627
Countdown: 0
SampleSet: Drum
StackLeniency: 0.5
Mode: 0
LetterboxInBreaks: 0
WidescreenStoryboard: 1

[Editor]
Bookmarks: 48789,84303
DistanceSpacing: 1.1
BeatDivisor: 4
GridSize: 4
TimelineZoom: 1.2

[Metadata]
Title:A Centralized View
TitleUnicode:A Centralized View
Artist:VINXIS
ArtistUnicode:VINXIS
Creator:Peter
Version:Shiinoha's Easy
Source:osu!
Tags:Featured Artist drum & bass shiinoha kotone tomadoi
BeatmapID:1640288
BeatmapSetID:780932

[Difficulty]
HPDrainRate:2
CircleSize:3
OverallDifficulty:2
ApproachRate:3
SliderMultiplier:0.799999999999999
SliderTickRate:1

[Events]
//Background and Video events
0,0,"bg.jpeg",0,0
//Break Periods
2,40394,41349
2,85800,88052
2,90989,92268
2,96178,98106
//Storyboard Layer 0 (Background)
//Storyboard Layer 1 (Fail)
//Storyboard Layer 2 (Pass)
//Storyboard Layer 3 (Foreground)
//Storyboard Layer 4 (Overlay)
//Storyboard Sound Samples

[TimingPoints]
1276,324.324324324324,4,2,1,40,1,0
3789,-100,4,2,1,5,0,0
3870,-100,4,2,1,80,0,0
6384,-100,4,2,1,5,0,0
6465,-100,4,2,1,40,0,0
8978,-100,4,2,1,5,0,0
9059,-100,4,2,1,40,0,0
11573,-100,4,2,1,5,0,0
11654,-100,4,2,1,40,0,0
14167,-100,4,2,1,5,0,0
14248,-100,4,2,1,40,0,0
16762,-100,4,2,1,5,0,0
16843,-100,4,2,1,40,0,0
19357,-100,4,2,1,5,0,0
19438,-100,4,2,1,40,0,0
20654,-100,4,2,1,5,0,0
20735,-100,4,2,1,40,0,0
22032,-100,4,2,1,50,0,0
25600,-100,4,2,1,50,0,0
25924,-100,4,2,1,50,0,0
26248,-100,4,2,1,50,0,0
26573,-100,4,2,1,50,0,0
26897,-100,4,2,1,50,0,0
27221,-100,4,2,1,50,0,0
31113,-100,4,2,1,50,0,0
31438,-100,4,2,1,50,0,0
31762,-100,4,2,1,50,0,0
32086,-100,4,2,1,50,0,0
32411,-100,4,2,1,50,0,0
36708,-100,4,2,1,5,0,0
36789,-100,4,2,1,50,0,0
37194,-100,4,2,1,5,0,0
37275,-100,4,2,1,50,0,0
42303,-100,4,2,1,50,0,0
42789,-100,4,3,1,70,0,1
42870,-100,4,3,1,70,0,0
50411,-100,4,3,1,70,0,0
50451,-100,4,3,1,5,0,0
50492,-100,4,3,1,70,0,0
50532,-100,4,3,1,5,0,0
50573,-100,4,3,1,70,0,0
53005,-100,4,3,1,70,0,0
53086,-100,4,3,1,70,0,0
53167,-100,4,3,1,70,0,0
58194,-100,4,3,1,70,0,0
58235,-100,4,3,1,5,0,0
58275,-100,4,3,1,70,0,0
58316,-100,4,3,1,5,0,0
58357,-100,4,3,1,70,0,0
71167,-100,4,3,1,70,0,0
71208,-100,4,3,1,5,0,0
71248,-100,4,3,1,70,0,0
71289,-100,4,3,1,5,0,0
71330,-100,4,3,1,70,0,0
73762,-100,4,3,1,70,0,0
73924,-100,4,3,1,70,0,0
78951,-100,4,3,1,70,0,0
78992,-100,4,3,1,5,0,0
79032,-100,4,3,1,70,0,0
79073,-100,4,3,1,5,0,0
79113,-100,4,3,1,70,0,0
84303,-100,4,2,1,60,0,0
86492,-100,4,2,1,5,0,0
86573,-100,4,2,1,60,0,0
88600,-100,4,2,1,5,0,0
88681,-100,4,2,1,60,0,0
89086,-100,4,2,1,5,0,0
89167,-100,4,2,1,60,0,0
91681,-100,4,2,1,5,0,0
91762,-100,4,2,1,60,0,0
96870,-100,4,2,1,5,0,0
96951,-100,4,2,1,60,0,0
97357,-100,4,2,1,5,0,0
97438,-100,4,2,1,60,0,0
98167,-100,4,2,1,5,0,0
98248,-100,4,2,1,60,0,0
98978,-100,4,2,1,5,0,0
99059,-100,4,2,1,60,0,0
105059,-100,4,3,1,70,0,1
105140,-100,4,3,1,70,0,0
125816,-100,4,3,1,60,0,0
131005,-100,4,3,1,60,0,0
141384,-100,4,3,1,60,0,0
150465,-100,4,2,0,5,0,0

[Colours]
Combo1 : 255,231,145
Combo2 : 128,128,255
Combo3 : 147,187,236
Combo4 : 250,126,126
SliderBorder : 255,255,255
SliderTrackOverride : 0,0,0

[HitObjects]
92,168,22032,6,0,L|84:48,2,120,2|2|2,0:0|0:0|0:0,0:0:0:0:
68,252,23330,1,2,0:0:0:0:
256,80,24627,1,2,0:0:0:0:
400,180,25275,2,0,L|396:264,1,79.9999999999999,2|2,0:0|0:0,0:0:0:0:
440,336,25924,6,0,P|408:348|356:336,1,79.9999999999999,2|2,0:0|0:0,0:0:0:0:
308,272,26573,2,0,P|276:260|224:272,1,79.9999999999999,2|2,0:0|0:0,0:0:0:0:
160,316,27221,2,0,L|36:320,2,120,2|2|2,0:0|0:0|0:0,0:0:0:0:
240,356,28519,1,2,0:0:0:0:
256,80,29816,1,2,0:0:0:0:
80,48,31113,6,0,L|84:128,1,79.9999999999999,2|2,0:0|0:0,0:0:0:0:
144,192,31762,2,0,L|140:272,1,79.9999999999999,2|2,2:0|0:0,0:0:0:0:
200,336,32411,2,0,P|152:360|88:344,2,120,2|2|2,0:0|0:0|0:0,0:0:0:0:
288,340,33708,1,2,0:0:0:0:
256,80,35005,1,2,0:0:0:0:
108,176,35654,2,0,L|112:268,1,79.9999999999999,2|2,0:0|0:0,0:0:0:0:
180,312,36303,6,0,B|284:300|240:360|344:336,1,160,2|0,0:0|0:0,0:0:0:0:
404,284,37275,1,2,0:0:0:0:
380,200,37600,2,0,L|400:80,2,120,2|2|2,0:0|0:0|0:0,0:0:0:0:
308,252,38897,1,2,0:0:0:0:
256,80,40194,1,2,0:0:0:0:
200,280,42789,6,0,B|68:296,2,120,4|4|8,0:0|0:0|0:0,0:0:0:0:
284,312,44086,2,0,P|333:252|314:178,1,160,4|0,0:0|0:0,0:0:0:0:
196,48,45384,2,0,L|112:52,1,79.9999999999999,4|8,0:0|0:0,0:0:0:0:
52,112,46032,2,0,P|44:152|64:204,1,79.9999999999999,0|8,0:0|0:0,0:0:0:0:
116,252,46681,2,0,L|96:376,2,120,4|4|8,0:0|0:0|0:0,0:0:0:0:
184,196,47978,6,0,L|164:77,2,120,4|4|8,0:0|0:0|0:0,0:0:0:0:
260,240,49275,2,0,P|336:256|396:196,1,160,4|4,0:3|0:0,0:0:0:0:
312,168,50248,1,8,0:0:0:0:
364,96,50573,2,0,P|288:80|228:140,1,160,4|0,0:0|0:0,0:0:0:0:
120,268,51870,2,0,L|40:276,2,79.9999999999999,4|8|4,0:0|0:0|0:0,0:0:0:0:
196,316,52843,1,8,0:0:0:0:
260,256,53167,6,0,L|416:248,2,120,4|4|8,0:0|0:0|0:0,0:0:0:0:
184,208,54465,2,0,B|160:132|160:132|200:52,1,160,4|0,0:0|0:0,0:0:0:0:
364,8,55762,2,0,L|368:88,1,79.9999999999999,4|8,0:0|0:0,0:0:0:0:
428,152,56411,2,0,L|424:232,1,79.9999999999999,0|8,0:0|0:0,0:0:0:0:
372,304,57059,2,0,P|420:324|484:296,2,120,4|4|8,0:3|0:0|0:0,0:0:0:0:
320,232,58357,6,0,L|328:100,2,120,4|4|8,0:0|0:0|0:0,0:0:0:0:
252,288,59654,2,0,P|176:284|136:216,1,160,4|0,0:0|0:0,0:0:0:0:
80,148,60627,1,8,0:0:0:0:
140,84,60951,2,0,B|240:80|196:144|300:132,1,160,4|0,0:0|0:0,0:0:0:0:
464,132,62248,2,0,L|472:8,2,120,4|0|8,0:0|0:0|0:0,0:0:0:0:
396,188,63546,5,4,0:0:0:0:
424,316,64032,2,0,P|368:324|312:284,1,120,4|4,0:0|0:0,0:0:0:0:
252,232,64843,2,0,L|76:244,1,160,4|0,0:0|0:0,0:0:0:0:
128,72,66140,2,0,L|216:76,1,79.9999999999999,4|8,0:0|0:0,0:0:0:0:
292,48,66789,2,0,P|300:88|284:128,1,79.9999999999999,0|8,0:0|0:0,0:0:0:0:
244,200,67438,2,0,L|248:328,2,120,4|4|8,0:0|0:0|0:0,0:0:0:0:
168,160,68735,6,0,L|171:40,2,120,4|4|8,0:0|0:3|0:0,0:0:0:0:
109,224,70032,2,0,P|173:248|245:196,1,160,4|0,0:0|0:0,0:0:0:0:
276,116,71005,1,8,0:0:0:0:
364,96,71330,2,0,P|406:163|412:248,1,160,4|0,0:0|0:0,0:0:0:0:
256,324,72627,2,0,L|164:332,2,79.9999999999999,4|8|4,0:0|0:0|0:0,0:0:0:0:
316,260,73600,1,8,0:0:0:0:
252,200,73924,6,0,L|248:72,2,120,4|4|8,0:0|0:0|0:0,0:0:0:0:
176,248,75221,2,0,L|0:240,1,160,4|0,0:0|0:0,0:0:0:0:
80,76,76519,2,0,L|164:72,1,79.9999999999999,4|8,0:0|0:0,0:0:0:0:
236,116,77167,2,0,L|320:120,1,79.9999999999999,0|8,0:0|0:0,0:0:0:0:
388,172,77816,2,0,P|408:124|380:56,2,120,4|4|4,0:0|0:3|0:0,0:0:0:0:
328,236,79113,6,0,L|332:364,2,120,4|4|8,0:0|0:0|0:0,0:0:0:0:
272,168,80411,2,0,B|184:156|208:216|112:200,1,160,4|0,0:0|0:0,0:0:0:0:
52,148,81384,1,8,0:0:0:0:
96,72,81708,2,0,P|162:62|264:56,1,160,4|0,0:0|0:0,0:0:0:0:
408,140,83005,2,0,B|428:196|428:196|404:272,2,120,4|0|8,0:0|0:0|0:0,0:0:0:0:
332,92,84303,6,0,L|196:100,2,120,4|4|4,0:3|0:3|0:3,0:0:0:0:
400,36,85600,1,4,0:3:0:0:
140,220,89492,6,0,L|132:352,2,120,4|4|4,0:3|0:3|0:3,0:0:0:0:
96,144,90789,1,4,0:3:0:0:
193,236,93708,5,2,0:0:0:0:
261,290,94032,2,0,L|341:286,1,79.9999999999999,8|4,0:3|0:3,0:0:0:0:
414,238,94681,2,0,P|434:294|406:358,2,120,4|4|4,0:3|0:3|0:3,0:0:0:0:
360,168,95978,1,4,0:3:0:0:
140,104,99546,5,4,0:3:0:0:
88,176,99870,2,0,L|92:320,2,120,4|4|4,0:3|0:3|0:3,0:0:0:0:
24,112,101167,1,4,0:3:0:0:
256,192,101816,12,2,103762,0:0:0:0:
108,180,105059,6,0,P|88:236|120:304,2,120,4|0|8,0:0|0:0|0:0,0:0:0:0:
176,120,106357,2,0,B|276:116|232:176|352:168,1,160,4|0,0:0|0:0,0:0:0:0:
484,244,107654,2,0,P|488:288|472:320,1,79.9999999999999,4|8,0:0|0:0,0:0:0:0:
392,356,108303,2,0,L|312:348,1,79.9999999999999,0|8,0:0|0:0,0:0:0:0:
244,292,108951,2,0,L|76:304,1,160,4|0,0:0|0:0,0:0:0:0:
28,136,110248,6,0,L|20:12,2,120,4|0|8,0:0|0:0|0:0,0:0:0:0:
96,192,111546,2,0,P|172:200|244:132,1,160,4|0,0:0|0:0,0:0:0:0:
312,104,112519,1,8,0:0:0:0:
376,164,112843,6,0,L|360:260,1,79.9999999999999,4|8,0:0|0:0,0:0:0:0:
312,316,113492,2,0,P|272:332|224:324,1,79.9999999999999,0|8,0:0|0:0,0:0:0:0:
160,284,114140,2,0,B|152:200|152:200|184:132|184:132|176:48,1,240,4|4,0:0|0:0,0:0:0:0:
256,16,115438,6,0,L|404:20,2,120,4|0|8,0:0|0:0|0:0,0:0:0:0:
176,52,116735,2,0,P|103:47|36:116,1,160,4|0,0:0|0:0,0:0:0:0:
76,184,117708,1,8,0:0:0:0:
32,260,118032,6,0,L|64:336,1,79.9999999999999,4|8,0:0|0:0,0:0:0:0:
148,360,118681,2,0,P|192:360|232:332,1,79.9999999999999,0|8,0:0|0:0,0:0:0:0:
288,284,119330,2,0,P|280:204|344:136,1,160,4|0,0:0|0:0,0:0:0:0:
176,52,120627,6,0,L|36:60,2,120,4|0|8,0:0|0:0|0:0,0:0:0:0:
248,100,121924,2,0,L|416:112,1,160,4|0,0:0|0:0,0:0:0:0:
472,172,122897,1,8,0:0:0:0:
412,236,123221,2,0,L|400:368,2,120,4|0|8,0:0|0:0|0:0,0:0:0:0:
348,172,124519,2,0,B|164:148|224:292|36:252,1,320,4|4,0:0|0:0,0:0:0:0:
256,192,126140,12,4,131005,0:0:0:0:
180,212,132303,6,0,B|276:212|240:272|336:264,1,160,4|0,0:0|0:0,0:0:0:0:
468,164,133600,2,0,L|476:80,1,79.9999999999999,4|8,0:0|0:0,0:0:0:0:
412,24,134248,2,0,L|328:32,1,79.9999999999999,0|8,0:0|0:0,0:0:0:0:
320,119,134897,2,0,P|228:173|176:153,1,160,4|4,0:0|0:0,0:0:0:0:
236,87,135870,1,4,0:0:0:0:
158,45,136194,6,0,P|90:49|30:133,1,160,4|0,0:0|0:0,0:0:0:0:
119,265,137492,2,0,L|199:269,1,79.9999999999999,4|8,0:0|0:0,0:0:0:0:
276,310,138140,2,0,L|356:306,1,79.9999999999999,0|8,0:0|0:0,0:0:0:0:
436,256,138789,2,0,B|460:184|460:184|436:92,1,160,4|0,0:0|0:0,0:0:0:0:
368,52,139762,1,8,0:0:0:0:
304,112,140086,2,0,P|280:60|300:-4,2,120,4|0|8,0:0|0:0|0:0,0:0:0:0:
268,192,141384,6,0,B|184:188|208:240|108:236,1,160,4|0,0:0|0:0,0:0:0:0:
284,292,142681,2,0,P|340:272|364:180,1,160,4|0,0:0|0:0,0:0:0:0:
256,44,143978,5,0,0:0:0:0:
128,228,145275,2,0,L|0:240,2,120,4|0|0,0:0|0:0|0:0,0:0:0:0:
208,268,146573,1,4,0:2:0:0:
256,192,147221,12,0,150465,0:0:0:0:
