osu file format v14

[General]
AudioFilename: audio.mp3
AudioLeadIn: 0
PreviewTime: 42627
Countdown: 0
SampleSet: Soft
StackLeniency: 0.5
Mode: 0
LetterboxInBreaks: 0
WidescreenStoryboard: 0

[Editor]
Bookmarks: 48789,84303
DistanceSpacing: 1
BeatDivisor: 4
GridSize: 32
TimelineZoom: 1.8

[Metadata]
Title:A Centralized View
TitleUnicode:A Centralized View
Artist:VINXIS
ArtistUnicode:VINXIS
Creator:Peter
Version:Perception
Source:osu!
Tags:Featured Artist drum & bass shiinoha kotone tomadoi
BeatmapID:1640291
BeatmapSetID:780932

[Difficulty]
HPDrainRate:6
CircleSize:5
OverallDifficulty:8.1
ApproachRate:9.1
SliderMultiplier:1.8
SliderTickRate:1

[Events]
//Background and Video events
0,0,"bg.jpeg",0,0
//Break Periods
2,40394,41800
//Storyboard Layer 0 (Background)
//Storyboard Layer 1 (Fail)
//Storyboard Layer 2 (Pass)
//Storyboard Layer 3 (Foreground)
//Storyboard Layer 4 (Overlay)
//Storyboard Sound Samples

[TimingPoints]
1276,324.324324324324,4,2,1,40,1,0
1276,-333.333333333333,4,2,1,40,0,0
3789,-333.333333333333,4,2,1,5,0,0
3870,-333.333333333333,4,2,1,40,0,0
6384,-333.333333333333,4,2,1,5,0,0
6465,-333.333333333333,4,2,1,40,0,0
8978,-333.333333333333,4,2,1,5,0,0
9059,-333.333333333333,4,2,1,40,0,0
11573,-333.333333333333,4,2,1,5,0,0
11654,-333.333333333333,4,2,1,40,0,0
14167,-333.333333333333,4,2,1,5,0,0
14248,-333.333333333333,4,2,1,40,0,0
16762,-333.333333333333,4,2,1,5,0,0
16843,-333.333333333333,4,2,1,40,0,0
19357,-333.333333333333,4,2,1,5,0,0
19438,-333.333333333333,4,2,1,40,0,0
20654,-333.333333333333,4,2,1,5,0,0
20735,-333.333333333333,4,2,1,40,0,0
22032,-166.666666666667,4,2,1,50,0,0
25600,-153.846153846154,4,2,1,50,0,0
25924,-142.857142857143,4,2,1,50,0,0
26248,-133.333333333333,4,2,1,50,0,0
26573,-125,4,2,1,50,0,0
26897,-117.647058823529,4,2,1,50,0,0
27221,-166.666666666667,4,2,1,50,0,0
31113,-142.857142857143,4,2,1,50,0,0
31438,-133.333333333333,4,2,1,50,0,0
31762,-125,4,2,1,50,0,0
32086,-117.647058823529,4,2,1,50,0,0
32411,-166.666666666667,4,2,1,50,0,0
36708,-166.666666666667,4,2,1,5,0,0
36789,-166.666666666667,4,2,1,50,0,0
37194,-166.666666666667,4,2,1,5,0,0
37275,-166.666666666667,4,2,1,50,0,0
42303,-83.3333333333334,4,2,1,50,0,0
42789,-100,4,3,1,70,0,1
42870,-125,4,3,1,70,0,0
50411,-166.666666666667,4,3,1,70,0,0
50451,-166.666666666667,4,3,1,5,0,0
50492,-166.666666666667,4,3,1,70,0,0
50532,-166.666666666667,4,3,1,5,0,0
50573,-125,4,3,1,70,0,0
53005,-166.666666666667,4,3,1,70,0,0
53086,-166.666666666667,4,3,1,70,0,0
53167,-125,4,3,1,70,0,0
58194,-166.666666666667,4,3,1,70,0,0
58235,-166.666666666667,4,3,1,5,0,0
58275,-166.666666666667,4,3,1,70,0,0
58316,-166.666666666667,4,3,1,5,0,0
58357,-125,4,3,1,70,0,0
71167,-166.666666666667,4,3,1,70,0,0
71208,-166.666666666667,4,3,1,5,0,0
71248,-166.666666666667,4,3,1,70,0,0
71289,-166.666666666667,4,3,1,5,0,0
71330,-125,4,3,1,70,0,0
73762,-166.666666666667,4,3,1,70,0,0
73924,-125,4,3,1,70,0,0
78951,-166.666666666667,4,3,1,70,0,0
78992,-166.666666666667,4,3,1,5,0,0
79032,-166.666666666667,4,3,1,70,0,0
79073,-166.666666666667,4,3,1,5,0,0
79113,-125,4,3,1,70,0,0
84303,-153.846153846154,4,2,1,60,0,0
86492,-153.846153846154,4,2,1,5,0,0
86573,-153.846153846154,4,2,1,60,0,0
88600,-153.846153846154,4,2,1,5,0,0
88681,-153.846153846154,4,2,1,60,0,0
89086,-153.846153846154,4,2,1,5,0,0
89167,-153.846153846154,4,2,1,60,0,0
91681,-153.846153846154,4,2,1,5,0,0
91762,-153.846153846154,4,2,1,60,0,0
96870,-153.846153846154,4,2,1,5,0,0
96951,-153.846153846154,4,2,1,60,0,0
97357,-153.846153846154,4,2,1,5,0,0
97438,-153.846153846154,4,2,1,60,0,0
98167,-153.846153846154,4,2,1,5,0,0
98248,-153.846153846154,4,2,1,60,0,0
98978,-153.846153846154,4,2,1,5,0,0
99059,-153.846153846154,4,2,1,60,0,0
105059,-125,4,3,1,70,0,1
105140,-125,4,3,1,70,0,0
125816,-125,4,3,1,60,0,0
141384,-142.857142857143,4,3,1,60,0,0
150465,-125,4,2,0,5,0,0

[Colours]
Combo1 : 255,231,145
Combo2 : 128,128,255
Combo3 : 147,187,236
Combo4 : 250,126,126
SliderBorder : 255,255,255
SliderTrackOverride : 0,0,0

[HitObjects]
387,368,1276,6,0,B|309:260|428:216|359:102|359:102|282:59|235:124,1,418.499987228394,2|0,0:0|0:0,0:0:0:0:
277,190,3870,2,0,B|184:240|168:120|122:174|82:166|61:186|54:188|54:188|54:231|89:273|89:273|101:321|76:360,1,418.499987228394,2|0,0:0|0:0,0:0:0:0:
158,376,6465,2,0,B|320:268|311:427|456:361|456:361|486:313|468:261,1,418.499987228394,2|0,0:0|0:0,0:0:0:0:
394,279,9059,2,0,B|395:181|490:193|490:193|402:127|468:24|468:24|429:36|387:24,1,418.499987228394,2|0,0:0|0:0,0:0:0:0:
317,10,11654,2,0,B|256:21|238:62|238:62|144:2|46:57|46:57|80:109|58:173,1,418.499987228394,2|0,0:0|0:0,0:0:0:0:
128,218,14248,2,0,B|67:277|2:232|2:232|30:296|3:361|3:361|18:372|75:320|152:356,1,418.499987228394,2|0,0:0|0:0,0:0:0:0:
223,369,16843,2,0,B|271:293|226:207|226:207|303:252|353:202|356:146|311:79|251:121,1,418.499987228394,2|0,0:0|0:0,0:0:0:0:
183,124,19438,2,0,P|126:190|169:287,1,202.499993820191,2|0,0:0|0:0,0:0:0:0:
230,342,20735,2,0,B|298:310|298:310|431:336,1,202.499993820191,2|0,0:0|0:0,0:0:0:0:
502,347,22032,6,0,L|493:271,1,53.9999983520508,2|0,0:0|0:0,0:0:0:0:
428,254,22357,1,0,0:0:0:0:
507,102,22519,2,0,L|494:209,1,107.999996704102,2|0,0:0|0:0,0:0:0:0:
364,196,23005,2,0,P|401:175|434:168,1,53.9999983520508,2|0,0:0|0:0,0:0:0:0:
344,280,23330,2,0,P|307:257|285:230,1,53.9999983520508,2|0,0:0|0:0,0:0:0:0:
299,249,24627,5,2,0:0:0:0:
299,249,25275,2,0,P|321:254|375:247,1,53.9999983520508,2|0,0:0|0:0,0:0:0:0:
241,192,25600,2,0,L|248:122,1,58.4999973220826,2|0,0:0|0:0,0:0:0:0:
156,255,25924,2,0,L|149:185,1,62.9999980773926,2|0,0:0|0:0,0:0:0:0:
32,321,26248,2,0,L|39:247,1,67.5000025749208,2|0,0:0|0:0,0:0:0:0:
173,330,26573,2,0,P|126:333|97:323,1,72,2|0,0:0|0:0,0:0:0:0:
222,261,26897,2,0,P|269:263|295:275,1,76.5000014591217,2|0,0:0|0:0,0:0:0:0:
410,339,27221,6,0,L|342:345,1,53.9999983520508,2|0,0:0|0:0,0:0:0:0:
458,263,27546,1,0,0:0:0:0:
390,145,27708,2,0,L|377:252,1,107.999996704102,2|0,0:0|0:0,0:0:0:0:
335,84,28194,2,0,P|372:63|405:56,1,53.9999983520508,2|0,0:0|0:0,0:0:0:0:
312,163,28519,2,0,P|275:140|253:113,1,53.9999983520508,2|0,0:0|0:0,0:0:0:0:
267,132,29816,5,2,0:0:0:0:
267,132,31113,6,0,L|273:69,1,62.9999980773926,2|0,0:0|0:0,0:0:0:0:
341,221,31438,2,0,L|348:153,1,67.5000025749208,2|0,0:0|0:0,0:0:0:0:
471,248,31762,2,0,L|405:275,1,72,2|0,2:0|0:0,0:0:0:0:
417,121,32086,2,0,L|473:175,1,76.5000014591217,2|0,0:0|0:0,0:0:0:0:
354,76,32411,6,0,L|330:11,1,53.9999983520508,2|0,0:0|0:0,0:0:0:0:
422,43,32736,1,0,0:0:0:0:
283,108,32898,2,0,L|157:104,1,107.999996704102,2|0,0:0|0:0,0:0:0:0:
303,184,33384,2,0,P|327:171|348:153,1,53.9999983520508,2|0,0:0|0:0,0:0:0:0:
316,37,33709,2,0,P|337:54|354:76,1,53.9999983520508,2|0,0:0|0:0,0:0:0:0:
353,75,35005,5,2,0:0:0:0:
353,75,35654,2,0,L|274:64,1,53.9999983520508,2|0,0:0|0:0,0:0:0:0:
194,10,35978,2,0,L|273:-1,1,53.9999983520508,2|0,0:0|0:0,0:0:0:0:
198,126,36303,6,0,P|141:98|68:123,1,134.999995880127,2|0,0:0|0:0,0:0:0:0:
27,162,36789,2,0,L|44:311,1,134.999995880127,2|0,0:0|0:0,0:0:0:0:
104,342,37275,2,0,L|113:266,1,53.9999983520508,2|0,0:0|0:0,0:0:0:0:
133,168,37600,6,0,L|142:244,1,53.9999983520508,2|0,0:0|0:0,0:0:0:0:
181,282,37924,1,0,0:0:0:0:
319,223,38086,2,0,L|207:214,1,107.999996704102,2|0,0:0|0:0,0:0:0:0:
373,166,38573,2,0,P|395:193|399:227,1,53.9999983520508,2|0,0:0|0:0,0:0:0:0:
295,149,38897,2,0,P|303:123|321:103,1,53.9999983520508,2|0,0:0|0:0,0:0:0:0:
321,103,40194,5,2,0:0:0:0:
316,156,42384,6,0,L|320:103,1,53.9999983520508,0|0,3:0|0:0,0:0:0:0:
320,102,42789,6,0,L|314:208,1,90,4|0,0:0|0:0,0:0:0:0:
261,51,43113,1,8,0:0:0:0:
343,29,43275,1,4,0:0:0:0:
343,29,43357,1,0,0:0:0:0:
343,29,43438,1,0,0:0:0:0:
248,128,43600,1,4,0:0:0:0:
167,76,43762,1,8,0:0:0:0:
103,163,43924,2,0,L|98:97,1,36
178,153,44086,6,0,L|165:244,1,72,4|0,0:0|0:0,0:0:0:0:
100,127,44411,1,8,0:0:0:0:
167,76,44573,1,0,0:0:0:0:
167,76,44654,1,0,0:0:0:0:
167,76,44735,1,0,0:0:0:0:
240,201,44897,1,4,0:0:0:0:
261,51,45059,2,0,L|248:142,1,72,8|0,0:0|0:0,0:0:0:0:
325,244,45384,6,0,L|312:153,1,72,4|0,0:0|0:0,0:0:0:0:
252,291,45708,1,8,0:0:0:0:
340,340,45870,1,4,0:0:0:0:
340,340,45951,1,0,0:0:0:0:
340,340,46032,1,0,0:0:0:0:
240,201,46194,1,4,0:0:0:0:
174,254,46357,1,8,0:0:0:0:
169,137,46519,2,0,L|164:186,1,36
243,120,46681,6,0,L|235:44,1,72,4|0,0:0|0:0,0:0:0:0:
169,137,47005,1,8,0:0:0:0:
171,67,47167,1,4,0:0:0:0:
171,67,47248,1,0,0:0:0:0:
171,67,47330,1,0,0:0:0:0:
240,201,47492,1,4,0:0:0:0:
316,160,47654,1,8,0:0:0:0:
315,283,47816,2,0,L|318:247,1,36
392,235,47978,6,0,L|399:306,1,72,4|0,0:0|0:0,0:0:0:0:
318,247,48303,1,8,0:0:0:0:
391,159,48465,1,4,0:0:0:0:
391,159,48546,1,0,0:0:0:0:
391,159,48627,1,0,0:0:0:0:
399,306,48789,1,4,0:0:0:0:
392,235,48951,1,8,0:0:0:0:
340,366,49113,2,0,L|273:357,1,36
244,295,49275,6,0,L|339:278,1,72,4|0,0:3|0:0,0:0:0:0:
219,375,49600,1,8,0:0:0:0:
166,310,49762,1,0,0:0:0:0:
166,310,49843,1,0,0:0:0:0:
166,310,49924,1,4,0:0:0:0:
314,282,50086,1,4,0:0:0:0:
244,295,50248,1,8,0:0:0:0:
185,209,50411,2,0,L|188:233,1,13.4999995880127,4|0,0:0|0:0,0:0:0:0:
182,194,50492,2,0,L|185:218,1,13.4999995880127,4|0,0:0|0:0,0:0:0:0:
180,181,50573,6,0,L|168:99,1,72,4|0,0:0|0:0,0:0:0:0:
268,205,50897,1,8,0:0:0:0:
244,114,51059,1,4,0:0:0:0:
244,114,51140,1,0,0:0:0:0:
244,114,51221,1,0,0:0:0:0:
111,242,51384,1,4,0:0:0:0:
180,181,51546,1,8,0:0:0:0:
97,119,51708,2,0,L|92:168,1,36
169,109,51870,5,4,0:0:0:0:
124,49,52032,1,4,0:0:0:0:
97,119,52194,1,8,0:0:0:0:
204,44,52357,1,0,0:0:0:0:
204,44,52438,1,0,0:0:0:0:
204,44,52519,1,4,0:0:0:0:
49,60,52681,1,4,0:0:0:0:
97,119,52843,1,8,0:0:0:0:
20,150,53005,2,0,L|17:126,1,13.4999995880127,4|4,0:0|0:0,0:0:0:0:
23,165,53086,2,0,L|20:141,1,13.4999995880127,4|4,0:0|0:0,0:0:0:0:
25,178,53167,6,0,L|37:260,1,72,4|0,0:0|0:0,0:0:0:0:
97,119,53492,1,8,0:0:0:0:
49,60,53654,1,4,0:0:0:0:
49,60,53735,1,0,0:0:0:0:
49,60,53816,1,0,0:0:0:0:
103,208,53978,1,4,0:0:0:0:
173,153,54140,1,8,0:0:0:0:
186,280,54303,2,0,L|181:231,1,36
103,208,54465,6,0,L|95:284,1,72,4|0,0:0|0:0,0:0:0:0:
173,153,54789,1,8,0:0:0:0:
93,124,54951,1,0,0:0:0:0:
93,124,55032,1,0,0:0:0:0:
93,124,55113,1,0,0:0:0:0:
182,244,55275,1,4,0:0:0:0:
320,196,55438,2,0,L|237:191,1,72,8|0,0:0|0:0,0:0:0:0:
253,292,55762,6,0,L|336:287,1,72,4|0,0:0|0:0,0:0:0:0:
178,330,56086,1,8,0:0:0:0:
182,244,56248,1,4,0:0:0:0:
182,244,56330,1,0,0:0:0:0:
182,244,56411,1,0,0:0:0:0:
249,376,56573,1,4,0:0:0:0:
253,292,56735,1,8,0:0:0:0:
142,332,56897,2,0,L|207:327,1,36
182,244,57059,6,0,L|104:238,1,72,4|4,0:3|0:0,0:0:0:0:
39,233,57303,1,4,0:0:0:0:
39,233,57384,1,8,0:0:0:0:
75,378,57546,2,0,L|71:291,1,72,4|0,0:0|0:0,0:0:0:0:
182,244,57870,1,4,0:0:0:0:
110,238,58032,1,8,0:0:0:0:
152,155,58194,2,0,L|152:179,1,13.4999995880127,4|0,0:0|0:0,0:0:0:0:
150,139,58275,2,0,L|150:163,1,13.4999995880127,4|0,0:0|0:0,0:0:0:0:
149,126,58357,6,0,L|145:43,1,72,4|0,0:0|0:0,0:0:0:0:
82,172,58681,1,8,0:0:0:0:
79,92,58843,1,4,0:0:0:0:
79,92,58924,1,0,0:0:0:0:
79,92,59005,1,0,0:0:0:0:
35,229,59167,1,4,0:0:0:0:
9,158,59330,1,8,0:0:0:0:
117,176,59492,2,0,L|73:170,1,36
102,244,59654,6,0,L|175:233,1,72,4|0,0:0|0:0,0:0:0:0:
81,171,59978,1,8,0:0:0:0:
35,229,60140,1,0,0:0:0:0:
35,229,60221,1,8,0:0:0:0:
35,229,60303,1,0,0:0:0:0:
144,312,60465,1,4,0:0:0:0:
63,316,60627,1,8,0:0:0:0:
138,239,60789,2,0,L|94:245,1,36
144,312,60951,6,0,L|217:322,1,72,4|0,0:0|0:0,0:0:0:0:
107,384,61275,1,8,0:0:0:0:
63,316,61438,1,4,0:0:0:0:
63,316,61519,1,0,0:0:0:0:
63,316,61600,1,0,0:0:0:0:
216,244,61762,1,4,0:0:0:0:
286,283,61924,1,8,0:0:0:0:
278,163,62086,2,0,L|280:207,1,36
345,235,62248,5,4,0:0:0:0:
286,283,62411,1,4,0:0:0:0:
279,198,62573,1,8,0:0:0:0:
357,313,62735,1,0,0:0:0:0:
279,198,62897,1,4,0:0:0:0:
224,331,63059,1,4,0:0:0:0:
286,283,63221,1,8,0:0:0:0:
215,248,63384,1,4,0:0:0:0:
332,149,63546,6,0,L|274:201,1,72,4|0,0:0|2:0,2:0:0:0:
348,236,63870,1,8,0:0:0:0:
205,165,64032,2,0,L|216:257,1,72,4|0,0:0|0:0,0:0:0:0:
269,114,64357,1,8,0:0:0:0:
278,197,64519,1,4,0:0:0:0:
367,151,64681,2,0,L|322:148,1,36
330,82,64843,6,0,L|407:76,1,72,4|0,0:0|0:0,0:0:0:0:
270,39,65167,1,8,0:0:0:0:
339,12,65330,1,0,0:0:0:0:
339,12,65411,1,0,0:0:0:0:
339,12,65492,1,0,0:0:0:0:
269,114,65654,1,4,0:0:0:0:
401,77,65816,2,0,L|330:82,1,72,8|0,0:0|0:0,0:0:0:0:
409,0,66140,6,0,L|480:4,1,72,4|0,0:0|0:0,0:0:0:0:
401,77,66465,1,8,0:0:0:0:
339,12,66627,1,4,0:0:0:0:
339,12,66708,1,0,0:0:0:0:
339,12,66789,1,0,0:0:0:0:
484,80,66951,1,4,0:0:0:0:
401,77,67113,1,8,0:0:0:0:
449,187,67275,2,0,L|444:151,1,36
371,152,67438,6,0,L|368:233,1,72,4|0,0:0|0:0,0:0:0:0:
317,82,67762,1,8,0:0:0:0:
401,77,67924,1,4,0:0:0:0:
401,77,68005,1,0,0:0:0:0:
401,77,68086,1,0,0:0:0:0:
368,223,68248,1,4,0:0:0:0:
449,187,68411,1,8,0:0:0:0:
436,316,68573,2,0,L|440:261,1,36
368,298,68735,6,0,L|378:373,1,72,4|0,0:0|0:0,0:0:0:0:
438,280,69059,1,8,0:0:0:0:
368,223,69221,1,4,0:3:0:0:
368,223,69303,1,0,0:0:0:0:
368,223,69384,1,0,0:0:0:0:
440,348,69546,1,4,0:0:0:0:
438,280,69708,1,8,0:0:0:0:
332,293,69870,2,0,L|398:301,1,36
376,368,70032,6,0,L|302:376,1,72,4|0,0:0|0:0,0:0:0:0:
367,297,70357,1,8,0:0:0:0:
443,330,70519,1,0,0:0:0:0:
443,330,70600,1,0,0:0:0:0:
443,330,70681,1,0,0:0:0:0:
253,307,70843,1,4,0:0:0:0:
304,375,71005,1,8,0:0:0:0:
332,279,71167,2,0,L|332:303,1,13.4999995880127,4|0,0:0|0:0,0:0:0:0:
330,263,71248,2,0,L|330:287,1,13.4999995880127,4|0,0:0|0:0,0:0:0:0:
329,250,71330,6,0,L|325:167,1,72,4|0,0:0|0:0,0:0:0:0:
406,246,71654,1,8,0:0:0:0:
423,152,71816,1,4,0:0:0:0:
423,152,71897,1,0,0:0:0:0:
423,152,71978,1,0,0:0:0:0:
254,217,72140,1,4,0:0:0:0:
255,137,72303,1,8,0:0:0:0:
325,178,72465,1,0,0:0:0:0:
186,174,72627,5,4,0:0:0:0:
186,94,72789,1,4,0:0:0:0:
255,137,72951,1,8,0:0:0:0:
254,217,73113,1,0,0:0:0:0:
185,255,73275,1,4,0:0:0:0:
116,213,73438,1,4,0:0:0:0:
114,133,73600,1,8,0:0:0:0:
43,177,73762,2,0,L|44:152,1,13.4999995880127,4|4,0:0|0:0,0:0:0:0:
41,192,73843,2,0,L|42:167,1,13.4999995880127,4|4,0:0|0:0,0:0:0:0:
39,206,73924,6,0,L|32:288,1,72,4|0,0:0|0:0,0:0:0:0:
116,213,74248,1,8,0:0:0:0:
114,133,74411,1,4,0:0:0:0:
114,133,74492,1,0,0:0:0:0:
114,133,74573,1,0,0:0:0:0:
33,277,74735,1,4,0:0:0:0:
39,206,74897,1,8,0:0:0:0:
144,291,75059,2,0,L|104:296,1,36
137,362,75221,6,0,L|217:372,1,72,4|0,0:0|0:0,0:0:0:0:
144,291,75546,1,8,0:0:0:0:
70,353,75708,1,0,0:0:0:0:
70,353,75789,1,0,0:0:0:0:
70,353,75870,1,0,0:0:0:0:
217,298,76032,1,4,0:0:0:0:
197,155,76194,2,0,P|193:195|183:245,1,72,8|0,0:0|0:0,0:0:0:0:
300,324,76519,6,0,P|296:284|286:234,1,72,4|0,0:0|0:0,0:0:0:0:
237,380,76843,1,8,0:0:0:0:
217,298,77005,1,4,0:0:0:0:
217,298,77086,1,0,0:0:0:0:
217,298,77167,1,0,0:0:0:0:
389,356,77330,1,4,0:0:0:0:
300,324,77492,1,8,0:0:0:0:
367,238,77654,2,0,L|362:291,1,36
290,252,77816,6,0,L|277:161,1,72,4|4,0:0|0:0,0:0:0:0:
268,101,78059,1,4,0:0:0:0:
268,101,78140,1,8,0:0:0:0:
414,133,78303,2,0,L|323:132,1,72,4|0,0:3|0:0,0:0:0:0:
210,227,78627,1,8,0:0:0:0:
198,140,78789,1,4,0:0:0:0:
122,190,78951,2,0,L|145:188,1,13.4999995880127,4|0,0:0|0:0,0:0:0:0:
106,193,79032,2,0,L|129:191,1,13.4999995880127,4|0,0:0|0:0,0:0:0:0:
93,195,79114,6,0,L|10:204,1,72,4|0,0:0|0:0,0:0:0:0:
120,105,79438,1,8,0:0:0:0:
198,140,79600,1,4,0:0:0:0:
198,140,79681,1,0,0:0:0:0:
198,140,79762,1,0,0:0:0:0:
146,273,79924,1,4,0:0:0:0:
210,227,80086,1,8,0:0:0:0:
212,347,80248,2,0,L|214:311,1,36
286,288,80411,6,0,L|298:369,1,72,4|0,0:0|0:0,0:0:0:0:
213,311,80735,1,8,0:0:0:0:
279,221,80897,1,0,0:0:0:0:
279,221,80978,1,8,0:0:0:0:
279,221,81059,1,0,0:0:0:0:
296,359,81221,1,4,0:0:0:0:
213,311,81384,1,8,0:0:0:0:
321,289,81546,2,0,L|285:287,1,36
296,359,81708,6,0,L|372:354,1,72,4|0,0:0|0:0,0:0:0:0:
285,287,82032,1,8,0:0:0:0:
213,311,82194,1,4,0:0:0:0:
213,311,82275,1,0,0:0:0:0:
213,311,82357,1,0,0:0:0:0:
298,206,82519,1,4,0:0:0:0:
392,296,82681,2,0,L|311:288,1,72,8|0,0:0|0:0,0:0:0:0:
218,224,83005,5,4,0:0:0:0:
298,206,83167,1,0,0:0:0:0:
213,311,83330,1,8,0:0:0:0:
218,224,83492,1,0,0:0:0:0:
150,267,83654,1,0,0:0:0:0:
280,272,83816,1,4,0:0:0:0:
148,186,83978,1,8,0:0:0:0:
145,344,84140,1,8,0:0:0:0:
341,351,84303,6,0,L|262:354,1,58.4999973220826,4|0,0:3|0:0,0:0:0:0:
213,311,84627,1,0,0:0:0:0:
293,155,84789,2,0,L|278:284,1,116.999994644165,4|0,0:3|0:0,0:0:0:0:
212,154,85275,2,0,L|202:78,1,58.4999973220826,4|0,0:3|0:0,0:0:0:0:
386,92,85600,6,0,B|327:108|328:63|255:86,1,116.999994644165,4|0,0:3|0:0,0:0:0:0:
418,18,86086,2,0,P|458:57|441:146,1,146.249993305207,2|0,2:0|2:0,2:0:0:0:
378,168,86573,2,0,L|391:249,1,58.4999973220826,2|0,0:0|0:0,0:0:0:0:
460,295,86897,2,0,L|473:214,1,58.4999973220826,2|0,0:0|0:0,0:0:0:0:
380,373,87221,2,0,L|367:292,1,58.4999973220826,2|0,0:0|0:0,0:0:0:0:
242,259,87546,2,0,B|271:258|271:258|296:241,1,58.4999973220826,2|0,0:0|0:0,0:0:0:0:
378,168,87870,2,0,B|388:197|388:197|388:227,1,58.4999973220826,2|0,0:0|0:0,0:0:0:0:
296,148,88194,6,0,P|332:92|424:100,1,146.249993305207,2|0,0:0|0:0,0:0:0:0:
458,144,88681,2,0,P|484:82|426:11,1,146.249993305207,2|0,0:0|0:0,0:0:0:0:
376,12,89167,2,0,P|343:13|308:25,1,58.4999973220826,2|0,0:0|0:0,0:0:0:0:
183,44,89492,6,0,P|216:45|251:57,1,58.4999973220826,4|0,0:3|0:0,0:0:0:0:
314,103,89816,1,0,0:0:0:0:
248,255,89978,2,0,L|234:124,1,116.999994644165,4|0,0:3|0:0,0:0:0:0:
340,198,90465,2,0,L|333:263,1,58.4999973220826,4|0,0:3|0:0,0:0:0:0:
164,335,90789,6,0,B|225:316|228:361|302:332,1,116.999994644165,4|0,0:3|0:0,0:0:0:0:
98,383,91275,2,0,P|83:332|147:256,1,146.249993305207,2|0,0:0|0:0,0:0:0:0:
201,244,91762,2,0,L|188:161,1,58.4999973220826,2|0,0:0|0:0,0:0:0:0:
119,127,92086,6,0,L|106:210,1,58.4999973220826,2|0,0:0|0:0,0:0:0:0:
183,41,92411,2,0,L|196:124,1,58.4999973220826,2|0,0:0|0:0,0:0:0:0:
278,184,92735,2,0,L|268:126,1,58.4999973220826,2|0,0:0|0:0,0:0:0:0:
201,244,93059,2,0,L|191:186,1,58.4999973220826,2|0,0:0|0:0,0:0:0:0:
289,275,93384,6,0,L|279:333,1,58.4999973220826,2|0,0:0|0:0,0:0:0:0:
277,183,93708,1,2,0:0:0:0:
213,330,93870,1,4,0:3:0:0:
289,275,94032,1,8,0:3:0:0:
201,244,94194,1,0,0:0:0:0:
201,244,94275,1,0,0:0:0:0:
201,244,94357,1,4,0:3:0:0:
352,214,94519,1,4,0:3:0:0:
331,68,94681,6,0,L|339:131,1,58.4999973220826,4|0,0:3|0:0,0:0:0:0:
352,214,95005,1,0,0:0:0:0:
172,153,95167,2,0,P|235:151|282:189,1,116.999994644165,4|0,0:3|0:0,0:0:0:0:
180,298,95654,2,0,L|204:235,1,58.4999973220826,4|0,0:3|0:0,0:0:0:0:
7,215,95978,6,0,B|52:211|52:211|78:223|78:223|138:220,1,116.999994644165,4|0,0:3|0:0,0:0:0:0:
77,24,96465,2,0,P|117:63|92:158,1,146.249993305207,2|0,2:0|2:0,2:0:0:0:
57,92,96951,2,0,L|-3:93,1,58.4999973220826,2|0,0:0|0:0,0:0:0:0:
7,215,97275,6,0,L|5:166,1,29.2499986610413,2|0,0:0|0:0,0:0:0:0:
0,104,97438,1,0,0:0:0:0:
104,146,97600,1,2,0:0:0:0:
7,215,97762,1,2,0:0:0:0:
116,282,97924,2,0,L|12:295,1,87.749995983124,2|0,0:0|0:0,0:0:0:0:
52,357,98248,2,0,L|130:347,1,58.4999973220826,2|0,0:0|0:0,0:0:0:0:
128,214,98573,6,0,P|179:246|169:330,1,146.249993305207,2|0,0:0|0:0,0:0:0:0:
233,365,99060,2,0,L|367:355,1,116.999994644165,2|0,0:0|0:0,0:0:0:0:
335,216,99546,1,4,0:3:0:0:
307,290,99708,1,4,0:3:0:0:
438,280,99870,6,0,L|366:286,1,58.4999973220826,4|0,0:3|0:0,0:0:0:0:
307,290,100194,1,0,0:0:0:0:
323,100,100357,2,0,L|336:225,1,116.999994644165,4|0,0:3|0:3,0:3:0:0:
407,129,100843,2,0,L|413:66,1,58.4999973220826,4|0,0:3|0:3,0:3:0:0:
248,48,101167,6,0,P|294:12|369:28,1,116.999994644165,4|0,0:3|0:3,0:3:0:0:
245,136,101654,2,0,L|111:123,1,116.999994644165,2|0,0:0|0:0,0:0:0:0:
188,221,102140,2,0,L|271:213,1,58.4999973220826,2|0,0:0|0:0,0:0:0:0:
165,306,102465,6,0,L|106:300,1,58.4999973220826,2|0,0:0|0:0,0:0:0:0:
229,371,102789,1,2,0:0:0:0:
301,271,102951,2,0,L|289:350,1,58.4999973220826,2|0,0:0|0:0,0:0:0:0:
360,224,103275,1,2,0:0:0:0:
432,124,103437,2,0,L|420:203,1,58.4999973220826,2|0,0:0|0:0,0:0:0:0:
496,66,103762,5,2,0:0:0:0:
410,43,103924,1,2,0:0:0:0:
432,124,104086,1,2,0:0:0:0:
468,0,104248,1,4,0:3:0:0:
355,100,104411,1,8,0:3:0:0:
432,124,104573,1,2,0:0:0:0:
336,27,104735,1,8,0:3:0:0:
374,182,104897,1,8,0:3:0:0:
229,165,105059,6,0,L|321:152,1,72,4|0,0:0|0:0,0:0:0:0:
172,101,105384,1,8,0:0:0:0:
148,186,105546,1,0,0:0:0:0:
148,186,105627,1,0,0:0:0:0:
148,186,105708,1,0,0:0:0:0:
251,84,105870,1,4,0:0:0:0:
237,236,106032,2,0,L|226:147,1,72,8|0,0:0|0:0,0:0:0:0:
180,29,106357,6,0,L|169:118,1,72,4|0,0:0|0:0,0:0:0:0:
257,2,106681,1,8,0:0:0:0:
251,84,106843,1,0,0:0:0:0:
251,84,106924,1,0,0:0:0:0:
251,84,107005,1,0,0:0:0:0:
112,55,107167,1,4,0:0:0:0:
35,143,107330,2,0,L|132:136,1,72,8|0,0:0|0:0,0:0:0:0:
251,84,107654,6,0,L|154:77,1,72,4|0,0:0|0:0,0:0:0:0:
249,168,107978,1,8,0:0:0:0:
325,126,108140,1,0,0:0:0:0:
325,126,108221,1,0,0:0:0:0:
325,126,108303,1,0,0:0:0:0:
173,167,108465,1,4,0:0:0:0:
206,27,108627,2,0,L|216:121,1,72,8|0,0:0|0:0,0:0:0:0:
165,238,108951,6,0,L|175:144,1,72,4|0,0:0|0:0,0:0:0:0:
241,249,109275,1,8,0:0:0:0:
249,168,109438,1,4,0:0:0:0:
249,168,109519,1,0,0:0:0:0:
249,168,109600,1,0,0:0:0:0:
192,323,109762,1,4,0:0:0:0:
165,238,109924,1,8,0:0:0:0:
76,308,110086,2,0,L|122:304,1,36
91,228,110248,6,0,L|16:221,1,72,4|0,0:0|0:0,0:0:0:0:
76,308,110573,1,8,0:0:0:0:
165,238,110735,1,0,0:0:0:0:
165,238,110816,1,0,0:0:0:0:
165,238,110897,1,0,0:0:0:0:
36,140,111059,1,4,0:0:0:0:
0,290,111221,2,0,L|19:217,1,72,8|0,0:0|0:0,0:0:0:0:
100,92,111546,6,0,L|119:164,1,72,4|0,0:0|0:0,0:0:0:0:
24,65,111870,1,8,0:0:0:0:
86,21,112032,1,0,0:0:0:0:
86,21,112113,1,0,0:0:0:0:
86,21,112194,1,0,0:0:0:0:
36,140,112357,1,4,0:0:0:0:
171,97,112519,2,0,L|91:91,1,72,8|0,0:0|0:0,0:0:0:0:
194,172,112843,6,0,L|274:166,1,72,4|0,0:0|0:0,0:0:0:0:
171,97,113167,1,8,0:0:0:0:
120,165,113330,1,0,0:0:0:0:
120,165,113411,1,0,0:0:0:0:
120,165,113492,1,0,0:0:0:0:
244,106,113654,1,4,0:0:0:0:
199,243,113816,2,0,L|191:160,1,72,8|0,0:0|0:0,0:0:0:0:
278,267,114140,6,0,L|270:350,1,72,4|0,0:0|0:0,0:0:0:0:
199,243,114465,1,8,0:0:0:0:
333,196,114627,1,4,0:0:0:0:
278,267,114789,1,8,0:0:0:0:
361,284,114951,1,8,0:0:0:0:
258,179,115113,1,4,0:0:0:0:
310,121,115275,1,8,0:0:0:0:
404,207,115438,6,0,L|330:195,1,72,4|0,0:0|0:0,0:0:0:0:
467,158,115762,1,8,0:0:0:0:
493,247,115924,1,0,0:0:0:0:
493,247,116005,1,0,0:0:0:0:
493,247,116086,1,0,0:0:0:0:
388,129,116248,1,4,0:0:0:0:
436,7,116411,2,0,L|450:83,1,72,8|0,0:0|0:0,0:0:0:0:
375,200,116735,6,0,L|389:124,1,72,4|0,0:0|0:0,0:0:0:0:
302,173,117059,1,8,0:0:0:0:
312,83,117221,1,0,0:0:0:0:
312,83,117303,1,0,0:0:0:0:
312,83,117384,1,0,0:0:0:0:
456,180,117546,1,4,0:0:0:0:
388,270,117708,2,0,L|374:194,1,72,8|0,0:0|0:0,0:0:0:0:
481,272,118032,6,0,L|467:348,1,72,4|0,0:0|0:0,0:0:0:0:
388,270,118357,1,8,0:0:0:0:
456,180,118519,1,0,0:0:0:0:
456,180,118600,1,0,0:0:0:0:
456,180,118681,1,0,0:0:0:0:
467,342,118843,1,4,0:0:0:0:
316,276,119005,2,0,L|415:267,1,72,8|0,0:0|0:0,0:0:0:0:
332,384,119330,6,0,L|233:375,1,72,4|0,0:0|0:0,0:0:0:0:
316,276,119654,1,8,0:0:0:0:
194,368,119816,1,4,0:0:0:0:
194,368,119897,1,0,0:0:0:0:
194,368,119978,1,0,0:0:0:0:
332,384,120140,1,4,0:0:0:0:
239,267,120303,1,8,0:0:0:0:
376,217,120465,1,4,0:0:0:0:
218,179,120627,6,0,L|298:196,1,72,4|0,0:0|0:0,0:0:0:0:
157,239,120951,1,8,0:0:0:0:
141,154,121113,1,0,0:0:0:0:
141,154,121194,1,0,0:0:0:0:
141,154,121275,1,0,0:0:0:0:
239,267,121438,1,4,0:0:0:0:
86,253,121600,2,0,L|166:236,1,72,8|0,0:0|0:0,0:0:0:0:
240,349,121924,6,0,L|160:332,1,72,4|0,0:0|0:0,0:0:0:0:
239,267,122248,1,8,0:0:0:0:
316,308,122411,1,0,0:0:0:0:
316,308,122492,1,0,0:0:0:0:
316,308,122573,1,0,0:0:0:0:
169,334,122735,1,4,0:0:0:0:
86,253,122897,2,0,L|156:238,1,72,8|0,0:0|0:0,0:0:0:0:
288,193,123221,6,0,L|217:178,1,72,4|0,0:0|0:0,0:0:0:0:
239,267,123546,1,8,0:0:0:0:
336,273,123708,1,0,0:0:0:0:
336,273,123789,1,0,0:0:0:0:
336,273,123870,1,0,0:0:0:0:
217,178,124032,1,4,0:0:0:0:
151,309,124194,2,0,L|164:215,1,72,8|0,0:0|0:0,0:0:0:0:
229,353,124519,5,4,0:0:0:0:
239,267,124681,1,0,0:0:0:0:
159,384,124843,1,8,0:0:0:0:
151,308,125005,1,0,0:0:0:0:
229,353,125167,1,0,0:0:0:0:
86,354,125330,1,4,0:0:0:0:
86,354,125411,1,0,0:0:0:0:
86,354,125492,1,8,0:0:0:0:
171,220,125654,1,4,0:0:0:0:
310,262,125816,6,0,L|232:267,1,72,4|0,0:0|0:0,0:0:0:0:
316,351,126140,1,8,0:0:0:0:
387,304,126303,1,0,0:0:0:0:
387,304,126384,1,0,0:0:0:0:
387,304,126465,1,0,0:0:0:0:
238,266,126627,1,4,0:0:0:0:
157,357,126789,2,0,L|235:352,1,72,8|0,0:0|0:0,0:0:0:0:
147,270,127113,6,0,L|69:275,1,72,4|0,0:0|0:0,0:0:0:0:
157,357,127438,1,8,0:0:0:0:
231,293,127600,1,0,0:0:0:0:
231,293,127681,1,0,0:0:0:0:
231,293,127762,1,0,0:0:0:0:
75,274,127924,1,4,0:0:0:0:
141,188,128086,2,0,L|63:193,1,72,8|0,0:0|0:0,0:0:0:0:
187,103,128411,6,0,L|265:108,1,72,4|0,0:0|0:0,0:0:0:0:
147,21,128735,1,8,0:0:0:0:
106,100,128897,1,0,0:0:0:0:
106,100,128978,1,0,0:0:0:0:
106,100,129059,1,0,0:0:0:0:
230,24,129221,1,4,0:0:0:0:
193,174,129384,2,0,L|184:81,1,72,8|0,0:0|0:0,0:0:0:0:
111,185,129708,6,0,L|102:278,1,72,4|0,0:0|0:0,0:0:0:0:
38,142,130032,1,8,0:0:0:0:
106,100,130194,1,4,0:0:0:0:
106,100,130275,1,0,0:0:0:0:
106,100,130356,1,0,0:0:0:0:
38,229,130519,1,4,0:0:0:0:
38,142,130681,1,8,0:0:0:0:
111,185,130843,1,0,0:0:0:0:
249,139,131005,6,0,L|162:132,1,72,4|0,0:0|0:0,0:0:0:0:
244,224,131330,1,8,0:0:0:0:
321,184,131492,1,0,0:0:0:0:
321,184,131573,1,0,0:0:0:0:
321,184,131654,1,0,0:0:0:0:
177,133,131816,1,4,0:0:0:0:
257,60,131978,2,0,L|170:53,1,72,8|0,0:0|0:0,0:0:0:0:
321,104,132303,6,0,L|408:97,1,72,4|0,0:0|0:0,0:0:0:0:
321,184,132627,1,8,0:0:0:0:
249,139,132789,1,0,0:0:0:0:
249,139,132870,1,0,0:0:0:0:
249,139,132951,1,0,0:0:0:0:
392,98,133113,1,4,0:0:0:0:
467,184,133275,2,0,L|376:176,1,72,8|0,0:0|0:0,0:0:0:0:
298,264,133600,6,0,L|389:256,1,72,4|0,0:0|0:0,0:0:0:0:
304,346,133924,1,8,0:0:0:0:
228,305,134086,1,0,0:0:0:0:
228,305,134167,1,0,0:0:0:0:
228,305,134248,1,0,0:0:0:0:
371,258,134411,1,4,0:0:0:0:
333,126,134573,2,0,L|321:210,1,72,8|0,0:0|0:0,0:0:0:0:
381,329,134897,6,0,L|369:245,1,72,4|0,0:0|0:0,0:0:0:0:
462,306,135221,1,8,0:0:0:0:
438,383,135384,1,4,0:0:0:0:
381,329,135546,1,8,0:0:0:0:
512,367,135708,1,8,0:0:0:0:
462,306,135870,1,4,0:0:0:0:
438,383,136032,1,8,0:0:0:0:
309,337,136194,6,0,L|393:327,1,72,4|0,0:0|0:0,0:0:0:0:
289,244,136519,1,8,0:0:0:0:
230,307,136681,1,0,0:0:0:0:
230,307,136762,1,0,0:0:0:0:
230,307,136843,1,0,0:0:0:0:
372,262,137005,1,4,0:0:0:0:
297,172,137167,2,0,L|286:261,1,72,8|0,0:0|0:0,0:0:0:0:
375,173,137492,6,0,L|364:84,1,72,4|0,0:0|0:0,0:0:0:0:
297,172,137816,1,8,0:0:0:0:
342,248,137978,1,0,0:0:0:0:
342,248,138059,1,0,0:0:0:0:
342,248,138140,1,0,0:0:0:0:
288,85,138303,1,4,0:0:0:0:
224,205,138465,2,0,L|214:120,1,72,8|0,0:0|0:0,0:0:0:0:
138,213,138789,6,0,L|128:298,1,72,4|0,0:0|0:0,0:0:0:0:
68,175,139113,1,8,0:0:0:0:
137,128,139275,1,0,0:0:0:0:
137,128,139357,1,0,0:0:0:0:
137,128,139438,1,0,0:0:0:0:
71,258,139600,1,4,0:0:0:0:
209,220,139762,2,0,L|133:212,1,72,8|0,0:0|0:0,0:0:0:0:
215,133,140086,6,0,L|291:125,1,72,4|0,0:0|0:0,0:0:0:0:
183,60,140411,1,8,0:0:0:0:
137,128,140573,1,0,0:0:0:0:
137,128,140655,1,0,0:0:0:0:
137,128,140736,1,0,0:0:0:0:
259,64,140897,1,4,0:0:0:0:
209,220,141059,1,8,0:0:0:0:
215,133,141221,1,4,0:0:0:0:
408,197,141384,6,0,L|269:184,1,125.999996154785,4|0,0:0|0:0,0:0:0:0:
398,117,141870,1,4,0:0:0:0:
398,117,141951,1,0,0:0:0:0:
398,117,142032,2,0,L|342:121,2,31.4999990386963
283,184,142357,2,0,L|202:176,1,62.9999980773926,4|0,0:0|0:0,0:0:0:0:
380,249,142681,5,4,0:0:0:0:
139,100,143167,1,0,0:0:0:0:
139,100,143248,1,0,0:0:0:0:
139,100,143330,2,0,L|90:105,2,31.4999990386963
46,41,143654,1,0,0:0:0:0:
28,157,143816,2,0,L|19:116,1,31.4999990386963
376,229,144465,5,0,0:0:0:0:
376,229,144546,1,0,0:0:0:0:
376,229,144628,2,0,L|425:234,2,31.4999990386963
264,295,144951,1,0,0:0:0:0:
264,295,145032,1,0,0:0:0:0:
264,295,145113,2,0,L|324:293,1,31.4999990386963
368,298,145275,5,4,0:0:0:0:
277,173,145438,1,4,0:0:0:0:
187,327,145600,1,4,0:0:0:0:
186,233,145762,1,0,0:0:0:0:
299,368,145924,1,4,0:0:0:0:
346,213,146086,1,4,0:0:0:0:
436,246,146248,1,0,0:0:0:0:
264,295,146411,1,4,0:0:0:0:
417,153,146573,5,4,0:2:0:0:
256,192,146654,12,0,150465,0:0:0:0:
