osu file format v14

[General]
AudioFilename: audio.mp3
AudioLeadIn: 0
PreviewTime: 42627
Countdown: 0
SampleSet: Soft
StackLeniency: 0.5
Mode: 0
LetterboxInBreaks: 0
WidescreenStoryboard: 1

[Editor]
Bookmarks: 48789,84303,138789
DistanceSpacing: 1
BeatDivisor: 4
GridSize: 32
TimelineZoom: 1.2

[Metadata]
Title:A Centralized View
TitleUnicode:A Centralized View
Artist:VINXIS
ArtistUnicode:VINXIS
Creator:Peter
Version:Normal
Source:osu!
Tags:Featured Artist drum & bass shiinoha kotone tomadoi
BeatmapID:1640290
BeatmapSetID:780932

[Difficulty]
HPDrainRate:4
CircleSize:3.5
OverallDifficulty:4
ApproachRate:5
SliderMultiplier:0.999999999999999
SliderTickRate:1

[Events]
//Background and Video events
0,0,"bg.jpeg",0,0
//Break Periods
2,40394,41589
2,142881,144075
//Storyboard Layer 0 (Background)
//Storyboard Layer 1 (Fail)
//Storyboard Layer 2 (Pass)
//Storyboard Layer 3 (Foreground)
//Storyboard Layer 4 (Overlay)
//Storyboard Sound Samples

[TimingPoints]
1276,324.324324324324,4,2,1,40,1,0
22032,-111.111111111111,4,2,1,50,0,0
42303,-100,4,2,1,50,0,0
42789,-90.9090909090909,4,3,1,70,0,1
42870,-100,4,3,1,70,0,0
84303,-100,4,2,1,60,0,0
105059,-90.9090909090909,4,3,1,70,0,1
105140,-100,4,3,1,70,0,0
125816,-100,4,3,1,60,0,0
141384,-100,4,3,1,60,0,0
150465,-100,4,2,0,5,0,0

[Colours]
Combo1 : 255,231,145
Combo2 : 128,128,255
Combo3 : 147,187,236
Combo4 : 250,126,126
SliderBorder : 255,255,255
SliderTrackOverride : 0,0,0

[HitObjects]
429,171,22032,6,0,B|445:83|445:83|431:23,2,134.999995880127,2|2|2,0:0|0:0|0:0,0:0:0:0:
356,116,23330,1,2,0:0:0:0:
58,301,25275,6,0,L|166:291,1,89.999997253418,2|2,0:0|0:0,0:0:0:0:
215,233,25924,1,2,0:0:0:0:
283,282,26248,1,2,0:0:0:0:
339,211,26573,2,0,L|316:109,1,89.999997253418,2|2,0:0|0:0,0:0:0:0:
408,130,27221,6,0,B|424:218|424:218|410:278,2,134.999995880127,2|2|2,0:0|0:0|0:0,0:0:0:0:
367,48,28519,1,2,0:0:0:0:
83,269,31113,6,0,B|87:218|87:218|72:166,1,89.999997253418,2|2,0:0|0:0,0:0:0:0:
51,93,31762,1,2,2:0:0:0:
115,30,32086,1,2,0:0:0:0:
195,71,32411,6,0,B|284:71|284:71|341:47,2,134.999995880127,2|2|2,0:0|0:0|0:0,0:0:0:0:
115,30,33708,1,2,0:0:0:0:
444,297,35654,6,0,L|346:276,1,89.999997253418,2|2,0:0|0:0,0:0:0:0:
314,198,36303,2,0,P|266:249|270:314,2,134.999995880127,2|2|2,0:0|0:0|0:0,0:0:0:0:
404,201,37600,6,0,B|421:112|421:112|408:52,2,134.999995880127,2|2|2,0:0|0:0|0:0,0:0:0:0:
355,278,38897,1,2,0:0:0:0:
66,62,40194,5,2,0:0:0:0:
92,71,42789,6,0,L|105:193,1,110.000003356934,4|8,0:0|0:0,0:0:0:0:
142,211,43275,2,0,L|131:328,1,99.9999999999999,4|4,0:0|0:0,0:0:0:0:
151,356,43762,1,8,0:0:0:0:
245,324,44086,2,0,P|302:304|349:319,1,99.9999999999999,4|8,0:0|0:0,0:0:0:0:
431,274,44735,2,0,L|433:220,1,50,0|4,0:0|0:0,0:0:0:0:
409,180,45059,2,0,L|407:126,1,50,8|4,0:0|0:0,0:0:0:0:
370,95,45384,6,0,B|339:107|339:107|271:99,1,99.9999999999999,4|8,0:0|0:0,0:0:0:0:
223,89,45870,1,4,0:0:0:0:
130,51,46194,2,0,P|87:48|72:53,1,50,4|8,0:0|0:0,0:0:0:0:
103,147,46681,2,0,L|116:270,1,99.9999999999999,4|8,0:0|0:0,0:0:0:0:
113,296,47167,2,0,P|156:278|227:286,1,99.9999999999999,4|4,0:0|0:0,0:0:0:0:
248,310,47654,1,8,0:0:0:0:
293,221,47978,6,0,L|277:100,1,99.9999999999999,4|8,0:0|0:0,0:0:0:0:
275,71,48465,2,0,P|322:85|389:76,1,99.9999999999999,4|4,0:0|0:0,0:0:0:0:
418,62,48951,1,8,0:0:0:0:
489,131,49275,2,0,B|475:165|475:165|485:243,1,99.9999999999999,4|8,0:3|0:0,0:0:0:0:
409,295,49924,2,0,P|371:283|345:278,1,50,4|4,0:0|0:0,0:0:0:0:
313,264,50249,2,0,P|275:276|249:281,1,50,8|4,0:0|0:0,0:0:0:0:
223,305,50573,6,0,P|175:285|114:299,1,99.9999999999999,4|8,0:0|0:0,0:0:0:0:
81,307,51059,1,4,0:0:0:0:
16,230,51384,2,0,L|23:168,1,50,4|8,0:0|0:0,0:0:0:0:
120,164,51870,2,0,L|109:46,1,99.9999999999999,4|8,0:0|0:0,0:0:0:0:
112,14,52357,1,0,0:0:0:0:
112,14,52519,2,0,P|159:30|221:20,1,99.9999999999999,4|8,0:0|0:0,0:0:0:0:
303,56,53167,6,0,B|334:44|334:44|417:53,1,99.9999999999999,4|8,0:0|0:0,0:0:0:0:
449,63,53654,2,0,L|441:180,1,99.9999999999999,4|4,0:0|0:0,0:0:0:0:
435,212,54140,1,8,0:0:0:0:
359,277,54465,2,0,B|311:259|312:293|249:273,1,99.9999999999999,4|8,0:0|0:0,0:0:0:0:
163,253,55113,2,0,L|177:182,1,50,0|4,0:0|0:0,0:0:0:0:
145,161,55438,1,8,0:0:0:0:
81,83,55762,6,0,P|133:61|190:73,1,99.9999999999999,4|8,0:0|0:0,0:0:0:0:
218,91,56248,1,4,0:0:0:0:
300,33,56573,2,0,L|357:35,1,50,4|8,0:0|0:0,0:0:0:0:
449,34,57059,2,0,B|467:70|467:70|459:151,1,99.9999999999999,4|8,0:3|0:0,0:0:0:0:
457,179,57546,2,0,P|392:164|349:182,1,99.9999999999999,4|4,0:0|0:0,0:0:0:0:
322,204,58032,1,8,0:0:0:0:
406,257,58357,6,0,L|381:355,1,99.9999999999999,4|8,0:0|0:0,0:0:0:0:
336,375,58843,2,0,P|290:357|229:363,1,99.9999999999999,4|4,0:0|0:0,0:0:0:0:
192,376,59330,1,8,0:0:0:0:
147,286,59654,2,0,L|140:169,1,99.9999999999999,4|8,0:0|0:0,0:0:0:0:
213,117,60303,2,0,P|260:121|278:119,1,50,0|4,0:0|0:0,0:0:0:0:
304,93,60627,2,0,P|351:89|369:91,1,50,8|4,0:0|0:0,0:0:0:0:
400,70,60951,6,0,P|420:115|408:181,1,99.9999999999999,4|8,0:0|0:0,0:0:0:0:
408,214,61438,1,4,0:0:0:0:
484,278,61762,2,0,P|436:314|425:316,1,50,4|8,0:0|0:0,0:0:0:0:
348,324,62248,2,0,L|355:392,2,50,4|4|8,0:0|0:0|0:0,0:0:0:0:
309,292,62735,2,0,L|301:229,2,50,0|4|4,0:0|0:0|0:0,0:0:0:0:
269,323,63221,2,0,L|277:386,2,50,8|4|4,0:0|0:0|0:0,2:2:0:0:
178,281,63870,5,8,0:0:0:0:
178,281,64032,2,0,L|67:276,1,99.9999999999999,4|8,0:0|0:0,0:0:0:0:
27,272,64519,2,0,P|33:219|32:201,1,50,4|0,0:0|0:0,0:0:0:0:
36,172,64843,1,4,0:0:0:0:
103,98,65167,1,8,0:0:0:0:
175,166,65492,2,0,L|230:160,1,50,0|4,0:0|0:0,0:0:0:0:
274,154,65816,1,8,0:0:0:0:
353,214,66140,6,0,P|372:149|357:105,1,99.9999999999999,4|8,0:0|0:0,0:0:0:0:
345,72,66627,1,4,0:0:0:0:
265,15,66951,2,0,L|194:21,1,50,4|8,0:0|0:0,0:0:0:0:
152,97,67438,2,0,L|37:93,1,99.9999999999999,4|8,0:0|0:0,0:0:0:0:
2,92,67924,2,0,P|19:159|13:206,1,99.9999999999999,4|4,0:0|0:0,0:0:0:0:
5,238,68411,1,8,0:0:0:0:
88,292,68735,6,0,L|209:287,1,99.9999999999999,4|8,0:0|0:0,0:0:0:0:
237,286,69221,2,0,B|218:246|218:246|218:182,1,99.9999999999999,4|4,0:3|0:0,0:0:0:0:
219,140,69708,1,8,0:0:0:0:
271,55,70032,2,0,P|227:41|155:56,1,99.9999999999999,4|8,0:0|0:0,0:0:0:0:
112,125,70681,2,0,L|115:190,1,50,0|4,0:0|0:0,0:0:0:0:
144,214,71005,2,0,L|141:279,1,50,8|4,0:0|0:0,0:0:0:0:
181,294,71330,6,0,B|234:281|233:311|293:301,1,99.9999999999999,4|8,0:0|0:0,0:0:0:0:
328,293,71816,1,4,0:0:0:0:
302,196,72140,2,0,L|303:147,1,50,4|8,0:0|0:0,0:0:0:0:
360,64,72627,2,0,P|329:45|253:61,1,99.9999999999999,4|8,0:0|0:0,0:0:0:0:
220,68,73113,1,0,0:0:0:0:
220,68,73275,2,0,L|100:63,1,99.9999999999999,4|8,0:0|0:0,0:0:0:0:
58,143,73924,6,0,B|76:168|76:168|69:254,1,99.9999999999999,4|8,0:0|0:0,0:0:0:0:
64,286,74411,2,0,P|111:272|170:291,1,99.9999999999999,4|4,0:0|0:0,0:0:0:0:
198,315,74897,1,8,0:0:0:0:
282,262,75221,2,0,L|282:152,1,99.9999999999999,4|8,0:0|0:0,0:0:0:0:
182,150,75870,2,0,P|150:145|129:144,1,50,0|4,0:0|0:0,0:0:0:0:
85,158,76194,1,8,0:0:0:0:
1,213,76519,6,0,P|-14:151|11:105,1,99.9999999999999,4|8,0:0|0:0,0:0:0:0:
24,76,77005,1,4,0:0:0:0:
108,21,77330,2,0,L|166:29,1,50,4|8,0:0|0:0,0:0:0:0:
242,80,77816,2,0,L|355:77,1,99.9999999999999,4|8,0:0|0:0,0:0:0:0:
392,78,78303,2,0,P|384:124|402:189,1,99.9999999999999,4|8,0:3|0:0,0:0:0:0:
416,219,78789,1,4,0:0:0:0:
334,276,79113,6,0,L|218:268,1,99.9999999999999,4|8,0:0|0:0,0:0:0:0:
192,241,79600,2,0,L|76:249,1,99.9999999999999,4|4,0:0|0:0,0:0:0:0:
45,230,80086,1,8,0:0:0:0:
93,142,80411,2,0,P|75:89|96:33,1,99.9999999999999,4|8,0:0|0:0,0:0:0:0:
177,87,81059,2,0,L|245:77,1,50,0|4,0:0|0:0,0:0:0:0:
262,37,81384,2,0,L|330:47,1,50,8|4,0:0|0:0,0:0:0:0:
358,16,81708,6,0,P|380:68|362:130,1,99.9999999999999,4|8,0:0|0:0,0:0:0:0:
344,156,82194,1,4,0:0:0:0:
433,220,82519,2,0,L|424:289,1,50,4|8,0:0|0:0,0:0:0:0:
332,327,83005,2,0,L|338:381,2,50,4|0|8,0:0|0:0|0:0,0:0:0:0:
291,296,83492,2,0,L|285:242,2,50,0|0|4,0:0|0:0|0:0,0:0:0:0:
253,328,83978,2,0,P|228:320|198:321,1,50,8|8,0:0|0:0,0:0:0:0:
164,350,84303,6,0,P|90:372|15:356,2,150,4|4|4,0:3|0:3|0:3,0:0:0:0:
131,255,85600,2,0,B|119:212|119:212|147:88,2,150,4|2|2,0:3|2:0|0:0,0:0:0:0:
216,202,86897,2,0,L|329:213,1,99.9999999999999,2|2,0:0|0:0,0:0:0:0:
372,293,87546,1,2,0:0:0:0:
458,243,87870,1,2,0:0:0:0:
419,150,88194,6,0,L|451:-9,2,150,2|2|2,0:0|0:0|0:0,0:0:0:0:
352,224,89492,2,0,P|306:204|249:209,1,99.9999999999999,4|0,0:3|0:0,0:0:0:0:
210,223,89978,2,0,P|164:243|107:238,1,99.9999999999999,4|0,0:3|0:0,0:0:0:0:
66,228,90465,1,4,0:3:0:0:
117,142,90789,2,0,P|91:78|7:35,2,150,4|2|2,0:3|0:0|0:0,0:0:0:0:
212,110,92086,6,0,B|243:130|243:130|325:125,1,99.9999999999999,2|2,0:0|0:0,0:0:0:0:
405,112,92735,1,2,0:0:0:0:
461,194,93059,1,2,0:0:0:0:
396,270,93384,1,2,0:0:0:0:
304,230,93708,2,0,L|193:243,2,99.9999999999999,2|8|4,0:0|0:3|0:3,0:0:0:0:
305,126,94681,6,0,P|304:68|269:22,1,99.9999999999999,4|0,0:3|0:0,0:0:0:0:
239,8,95167,2,0,L|134:21,1,99.9999999999999,4|0,0:3|0:0,0:0:0:0:
90,28,95654,1,4,0:3:0:0:
128,120,95978,2,0,L|113:271,2,150,4|2|2,0:3|2:0|0:0,0:0:0:0:
222,154,97275,6,0,L|285:148,1,50,2|0,0:0|0:0,0:0:0:0:
322,147,97600,1,2,0:0:0:0:
407,95,97924,1,2,0:0:0:0:
489,151,98248,1,2,0:0:0:0:
447,242,98573,2,0,P|505:285|512:358,2,150,2|2|4,0:0|0:0|0:3,0:0:0:0:
403,267,99708,1,4,0:3:0:0:
403,267,99870,6,0,L|291:264,1,99.9999999999999,4|0,0:3|0:0,0:0:0:0:
258,240,100357,2,0,L|146:243,1,99.9999999999999,4|0,0:3|0:3,0:0:0:0:
110,228,100843,1,4,0:3:0:0:
171,148,101167,2,0,P|116:118|30:161,2,150,4|2|2,0:3|0:0|0:0,0:0:0:0:
256,95,102465,5,2,0:0:0:0:
336,154,102789,2,0,P|359:147|389:149,1,50,2|2,0:0|0:0,0:0:0:0:
370,246,103275,2,0,P|335:250|306:248,1,50,2|2,0:0|0:0,0:0:0:0:
239,309,103762,2,0,L|243:379,2,50,2|2|2,0:0|0:0|0:0,0:0:0:0:
198,279,104248,2,0,L|194:209,1,50,4|8,0:3|0:3,0:0:0:0:
114,288,104735,2,0,P|80:290|49:284,1,50,8|8,0:3|0:3,0:0:0:0:
18,256,105059,6,0,L|31:123,1,110.000003356934,4|8,0:0|0:0,0:0:0:0:
32,96,105546,2,0,P|86:109|140:94,1,99.9999999999999,0|4,0:0|0:0,0:0:0:0:
175,82,106032,1,8,0:0:0:0:
254,20,106357,2,0,P|276:85|260:134,1,99.9999999999999,4|8,0:0|0:0,0:0:0:0:
288,160,106843,2,0,L|410:156,1,99.9999999999999,0|4,0:0|0:0,0:0:0:0:
430,183,107330,1,8,0:0:0:0:
486,265,107654,5,4,0:0:0:0:
426,344,107978,1,8,0:0:0:0:
335,300,108303,2,0,L|219:307,1,99.9999999999999,0|8,0:0|0:0,0:0:0:0:
144,348,108951,2,0,P|134:293|167:238,1,99.9999999999999,4|8,0:0|0:0,0:0:0:0:
174,209,109438,2,0,P|184:154|151:99,1,99.9999999999999,4|4,0:0|0:0,0:0:0:0:
135,76,109924,1,8,0:0:0:0:
219,23,110248,6,0,L|333:29,1,99.9999999999999,4|8,0:0|0:0,0:0:0:0:
369,28,110735,2,0,B|356:67|356:67|375:147,1,99.9999999999999,0|4,0:0|0:0,0:0:0:0:
383,172,111221,1,8,0:0:0:0:
441,253,111546,2,0,P|373:273|341:260,1,99.9999999999999,4|8,0:0|0:0,0:0:0:0:
306,237,112032,2,0,P|238:217|206:230,1,99.9999999999999,0|4,0:0|0:0,0:0:0:0:
170,252,112519,1,8,0:0:0:0:
109,172,112843,5,4,0:0:0:0:
162,87,113167,1,8,0:0:0:0:
252,136,113492,2,0,L|355:125,1,99.9999999999999,0|8,0:0|0:0,0:0:0:0:
430,64,114140,1,4,0:0:0:0:
501,134,114465,1,8,0:0:0:0:
452,221,114789,2,0,L|457:291,1,50,8|8,0:0|0:0,0:0:0:0:
459,320,115113,1,4,0:0:0:0:
362,292,115438,6,0,B|314:274|314:310|243:291,1,99.9999999999999,4|8,0:0|0:0,0:0:0:0:
216,280,115924,2,0,L|107:287,1,99.9999999999999,0|4,0:0|0:0,0:0:0:0:
66,290,116411,1,8,0:0:0:0:
105,198,116735,2,0,B|119:167|119:167|112:90,1,99.9999999999999,4|8,0:0|0:0,0:0:0:0:
105,51,117221,2,0,P|155:70|211:63,1,99.9999999999999,0|4,0:0|0:0,0:0:0:0:
249,55,117708,1,8,0:0:0:0:
308,135,118032,6,0,L|303:239,1,99.9999999999999,4|8,0:0|0:0,0:0:0:0:
216,285,118680,1,0,0:0:0:0:
257,376,119005,1,8,0:0:0:0:
355,360,119330,2,0,B|415:368|415:368|460:363,1,99.9999999999999,4|8,0:0|0:0,0:0:0:0:
500,345,119816,2,0,L|485:227,1,99.9999999999999,4|4,0:0|0:0,0:0:0:0:
481,195,120303,1,8,0:0:0:0:
402,133,120627,6,0,P|343:118|298:134,1,99.9999999999999,4|8,0:0|0:0,0:0:0:0:
260,147,121113,2,0,P|201:162|156:146,1,99.9999999999999,0|4,0:0|0:0,0:0:0:0:
119,129,121600,1,8,0:0:0:0:
48,200,121924,2,0,L|59:320,1,99.9999999999999,4|8,0:0|0:0,0:0:0:0:
63,349,122411,2,0,P|109:336|174:342,1,99.9999999999999,0|4,0:0|0:0,0:0:0:0:
207,357,122897,1,8,0:0:0:0:
285,294,123221,5,4,0:0:0:0:
373,341,123546,2,0,L|442:332,1,50,8|0,0:0|0:0,0:0:0:0:
471,326,123870,1,0,0:0:0:0:
502,231,124194,1,8,0:0:0:0:
431,160,124519,2,0,L|436:93,2,50,4|0|8,0:0|0:0|0:0,0:0:0:0:
387,184,125005,2,0,L|382:251,2,50,0|0|4,0:0|0:0|0:0,0:0:0:0:
346,153,125492,2,0,P|310:155|285:151,1,50,8|4,0:0|0:0,0:0:0:0:
251,130,125816,5,4,0:0:0:0:
160,172,126140,2,0,L|165:292,1,99.9999999999999,8|0,0:0|0:0,0:0:0:0:
164,322,126627,2,0,P|197:318|229:322,1,50,4|8,0:0|0:0,0:0:0:0:
294,377,127113,1,4,0:0:0:0:
355,298,127438,2,0,L|464:311,1,99.9999999999999,8|0,0:0|0:0,0:0:0:0:
503,318,127924,2,0,P|502:285|509:251,1,50,4|8,0:0|0:0,0:0:0:0:
423,209,128411,5,4,0:0:0:0:
505,152,128735,2,0,L|496:45,1,99.9999999999999,8|0,0:0|0:0,0:0:0:0:
490,2,129221,2,0,P|461:12|426:13,1,50,4|8,0:0|0:0,0:0:0:0:
342,3,129708,1,4,0:0:0:0:
264,65,130032,2,0,L|151:58,1,99.9999999999999,8|0,0:0|0:0,0:0:0:0:
114,55,130519,2,0,P|121:94|111:126,1,50,4|8,0:0|0:0,0:0:0:0:
107,203,131005,5,4,0:0:0:0:
206,192,131330,2,0,L|327:180,1,99.9999999999999,8|0,0:0|0:0,0:0:0:0:
355,178,131816,2,0,P|353:226|359:250,1,50,4|8,0:0|0:0,0:0:0:0:
372,325,132303,1,4,0:0:0:0:
275,300,132627,2,0,P|212:294|166:305,1,99.9999999999999,8|0,0:0|0:0,0:0:0:0:
128,316,133113,2,0,P|135:272|128:249,1,50,4|8,0:0|0:0,0:0:0:0:
90,176,133600,5,4,0:0:0:0:
157,102,133924,2,0,L|260:105,1,99.9999999999999,8|0,0:0|0:0,0:0:0:0:
307,107,134411,2,0,P|302:74|306:42,1,50,4|8,0:0|0:0,0:0:0:0:
400,79,134897,1,4,0:0:0:0:
462,156,135221,2,0,L|460:229,1,50,8|4,0:0|0:0,0:0:0:0:
456,256,135546,2,0,P|431:252|406:256,1,50,8|8,0:0|0:0,0:0:0:0:
360,273,135870,2,0,P|335:276|310:272,1,50,4|8,0:0|0:0,0:0:0:0:
262,259,136194,5,4,0:0:0:0:
187,326,136519,2,0,L|83:316,1,99.9999999999999,8|0,0:0|0:0,0:0:0:0:
37,310,137005,2,0,P|48:276|43:242,1,50,4|8,0:0|0:0,0:0:0:0:
40,162,137492,1,4,0:0:0:0:
126,212,137816,2,0,B|164:223|164:223|245:217,1,99.9999999999999,8|0,0:0|0:0,0:0:0:0:
270,199,138303,2,0,L|343:207,1,50,4|8,0:0|0:0,0:0:0:0:
399,264,138789,5,4,0:0:0:0:
471,195,139113,2,0,L|468:82,1,99.9999999999999,8|0,0:0|0:0,0:0:0:0:
465,44,139600,2,0,P|421:48|396:43,1,50,4|8,0:0|0:0,0:0:0:0:
318,22,140086,1,4,0:0:0:0:
239,84,140411,2,0,L|172:83,1,50,8|0,0:0|0:0,0:0:0:0:
108,143,140897,2,0,L|123:210,1,50,4|8,0:0|0:0,0:0:0:0:
132,239,141221,1,4,0:0:0:0:
132,239,141384,6,0,B|218:227|218:227|288:254,2,150,4|4|4,0:0|0:0|0:0,0:0:0:0:
188,322,142681,1,4,0:0:0:0:
352,89,145275,6,0,L|350:161,2,50,4|4|4,0:0|0:0|0:0,0:0:0:0:
307,65,145762,2,0,L|305:-7,2,50,0|4|4,0:0|0:0|0:0,0:0:0:0:
262,86,146248,2,0,P|231:80|201:80,1,50,0|4,0:0|0:0,0:0:0:0:
162,84,146573,1,4,0:2:0:0:
256,192,146654,12,0,150465,0:0:0:0:
