osu file format v14

[General]
AudioFilename: audio.mp3
AudioLeadIn: 0
PreviewTime: 42789
Countdown: 0
SampleSet: None
StackLeniency: 0.2
Mode: 0
LetterboxInBreaks: 0
WidescreenStoryboard: 1

[Editor]
Bookmarks: 1276,22032,42140,84303,94600,99708,116330,126140,146573
DistanceSpacing: 1.4
BeatDivisor: 4
GridSize: 16
TimelineZoom: 2.500006

[Metadata]
Title:A Centralized View
TitleUnicode:A Centralized View
Artist:VINXIS
ArtistUnicode:VINXIS
Creator:Daykeyboard
Version:Astronic's Insane
Source:osu!
Tags:smoke smoke45 astronic osu!Amino Mapping Contest AMC electronic dance edm featured fa drumstep artist dnb drum n & and bass
BeatmapID:2076849
BeatmapSetID:822070

[Difficulty]
HPDrainRate:5.5
CircleSize:4.2
OverallDifficulty:8
ApproachRate:9
SliderMultiplier:1.59999990463257
SliderTickRate:1

[Events]
//Background and Video events
0,0,"bg.png",0,0
//Break Periods
//Storyboard Layer 0 (Background)
//Storyboard Layer 1 (Fail)
//Storyboard Layer 2 (Pass)
//Storyboard Layer 3 (Foreground)
//Storyboard Sound Samples

[TimingPoints]
1276,324.324324324324,4,2,1,100,1,0
21870,-100,4,2,1,10,0,0
22032,-125,4,2,1,50,0,0
42789,-90.909090909091,4,3,2,100,0,1
63546,-100,4,3,2,80,0,0
63870,-90.909090909091,4,3,2,100,0,1
82843,-90.909090909091,4,3,2,100,0,0
83005,-90.909090909091,4,3,2,80,0,1
83330,-90.909090909091,4,3,2,80,0,0
83492,-90.909090909091,4,3,2,80,0,1
83816,-90.909090909091,4,3,2,80,0,0
84789,-100,4,3,2,80,0,0
105059,-90.909090909091,4,3,2,100,0,1
124519,-100,4,3,2,100,0,1
124843,-100,4,3,2,100,0,0
125005,-100,4,3,2,100,0,1
125330,-100,4,3,2,100,0,0
125492,-100,4,3,2,100,0,1
125816,-125,4,3,2,100,0,0

[Colours]
Combo1 : 209,239,238
Combo2 : 147,255,147
Combo3 : 91,165,255
Combo4 : 244,70,97

[HitObjects]
256,192,1276,12,0,21870,0:0:0:0:
256,192,22032,6,0,B|352:176|352:176|368:144,1,127.999992370605
448,144,22519,2,0,P|397:144|349:80,1,127.999992370605
288,32,23005,2,0,L|192:48,1,95.999994277954
144,64,23330,5,0,0:0:0:0:
144,80,23654,1,0,0:0:0:0:
144,96,23978,1,0,0:0:0:0:
144,112,24303,1,0,0:0:0:0:
80,272,24627,5,0,0:0:0:0:
96,288,24951,1,0,0:0:0:0:
112,304,25275,2,0,L|176:320,1,63.9999961853027
256,288,25600,2,0,L|336:272,1,63.9999961853027
395,321,25924,6,0,P|405:287|400:247,1,63.9999961853027
442,178,26248,2,0,P|408:168|368:173,1,63.9999961853027
300,126,26573,2,0,P|290:160|295:200,1,63.9999961853027
256,267,26897,2,0,P|290:277|330:272,1,63.9999961853027
336,368,27221,6,0,P|279:373|208:352,1,127.999992370605
160,272,27708,2,0,B|128:256|128:256|112:160,1,127.999992370605
96,80,28194,2,0,P|144:48|192:48,1,95.999994277954
224,64,28519,5,0,0:0:0:0:
240,64,28843,1,0,0:0:0:0:
256,64,29167,1,0,0:0:0:0:
272,64,29492,1,0,0:0:0:0:
416,176,29816,5,0,0:0:0:0:
400,160,30140,1,0,0:0:0:0:
384,144,30465,1,0,0:0:0:0:
368,128,30789,1,0,0:0:0:0:
368,304,31113,6,0,P|336:288|315:258,1,63.9999961853027
239,308,31438,2,0,P|227:274|234:237,1,63.9999961853027
145,220,31762,2,0,P|160:188|190:167,1,63.9999961853027
141,91,32086,2,0,P|174:79|211:86,1,63.9999961853027
272,144,32411,6,0,P|320:160|400:144,1,127.999992370605
464,96,32897,2,0,B|496:112|496:112|512:208,1,127.999992370605
496,288,33384,2,0,L|400:304,1,95.999994277954
352,320,33708,5,0,0:0:0:0:
336,320,34032,1,0,0:0:0:0:
320,320,34357,1,0,0:0:0:0:
304,320,34681,1,0,0:0:0:0:
160,208,35005,5,0,0:0:0:0:
160,224,35330,1,0,0:0:0:0:
160,240,35654,2,0,L|144:304,1,63.9999961853027
48,304,35978,2,0,L|64:240,1,63.9999961853027
80,160,36303,6,0,L|64:32,1,127.999992370605
144,64,36789,2,0,P|208:80|272:64,1,127.999992370605
336,128,37275,2,0,L|352:192,1,63.9999961853028
384,272,37600,6,0,B|432:256|432:256|448:160,1,127.999992370606
448,96,38086,2,0,B|432:64|432:64|336:48,1,127.999992370606
288,112,38573,2,0,L|192:128,1,95.9999942779542
144,144,38897,5,0,0:0:0:0:
144,160,39221,1,0,0:0:0:0:
144,176,39546,1,0,0:0:0:0:
144,192,39870,1,0,0:0:0:0:
224,352,40194,5,0,0:0:0:0:
224,336,40519,1,0,0:0:0:0:
224,320,40843,1,0,0:0:0:0:
224,304,41167,1,0,0:0:0:0:
48,256,41492,5,0,0:0:0:0:
64,256,41816,1,0,0:0:0:0:
80,256,42140,2,0,L|160:256,1,63.9999961853028
192,240,42384,2,0,L|208:208,2,31.9999980926514
192,288,42627,2,0,L|208:320,1,31.9999980926514
256,352,42789,6,0,L|352:336,1,87.9999974403381
464,304,43113,1,0,0:0:0:0:
352,240,43275,1,0,0:0:0:0:
464,208,43438,1,0,0:0:0:0:
464,192,43519,1,0,0:0:0:0:
464,176,43600,2,0,L|480:128,2,43.9999987201691
368,128,43924,1,0,0:0:0:0:
256,176,44086,6,0,P|208:192|160:176,1,87.9999974403381
64,144,44411,1,0,0:0:0:0:
160,64,44573,1,0,0:0:0:0:
176,64,44654,1,0,0:0:0:0:
192,64,44735,2,0,P|160:16|112:0,1,87.9999974403381
16,32,45059,1,0,0:0:0:0:
64,144,45221,1,0,0:0:0:0:
64,160,45303,1,0,0:0:0:0:
64,176,45384,6,0,L|80:272,1,87.9999974403381
160,352,45708,1,0,0:0:0:0:
240,256,45870,1,0,0:0:0:0:
256,256,45951,1,0,0:0:0:0:
272,256,46032,2,0,L|288:160,1,87.9999974403381
160,192,46357,1,0,0:0:0:0:
224,96,46519,1,0,0:0:0:0:
352,112,46681,6,0,L|448:128,1,87.9999974403381
480,240,47005,1,0,0:0:0:0:
480,256,47086,1,0,0:0:0:0:
480,272,47167,2,0,P|432:288|384:272,1,87.9999974403381
288,240,47492,1,0,0:0:0:0:
288,368,47654,1,0,0:0:0:0:
192,288,47816,1,0,0:0:0:0:
224,160,47978,6,0,P|176:160|128:128,1,87.9999974403381
48,48,48303,1,0,0:0:0:0:
32,176,48465,1,0,0:0:0:0:
32,192,48546,1,0,0:0:0:0:
32,208,48627,2,0,L|48:256,2,43.9999987201691
144,272,48951,1,0,0:0:0:0:
32,336,49113,1,0,0:0:0:0:
144,272,49275,6,0,P|192:256|240:272,1,87.9999974403381
320,336,49600,1,0,0:0:0:0:
432,288,49762,1,0,0:0:0:0:
432,304,49843,1,0,0:0:0:0:
432,320,49924,2,0,L|448:368,2,43.9999987201691
400,208,50248,1,0,0:0:0:0:
480,112,50411,1,0,0:0:0:0:
480,96,50492,1,0,0:0:0:0:
480,80,50573,6,0,L|384:96,1,87.9999974403381
288,48,50897,1,0,0:0:0:0:
192,128,51059,1,0,0:0:0:0:
192,144,51140,1,0,0:0:0:0:
192,160,51221,2,0,L|208:208,2,43.9999987201691
144,48,51546,1,0,0:0:0:0:
256,112,51708,1,0,0:0:0:0:
112,128,51870,6,0,L|96:224,1,87.9999974403381
80,336,52194,1,0,0:0:0:0:
192,288,52357,1,0,0:0:0:0:
288,352,52519,1,0,0:0:0:0:
400,288,52681,1,0,0:0:0:0:
304,208,52843,1,0,0:0:0:0:
278,332,53005,2,0,L|294:364,3,21.9999993600845
256,336,53167,6,0,L|160:352,1,87.9999974403381
64,288,53492,1,0,0:0:0:0:
48,160,53654,1,0,0:0:0:0:
48,144,53735,1,0,0:0:0:0:
48,128,53816,2,0,L|32:80,2,43.9999987201691
144,192,54140,1,0,0:0:0:0:
128,64,54303,1,0,0:0:0:0:
240,128,54465,6,0,P|288:128|336:112,1,87.9999974403381
432,160,54789,1,0,0:0:0:0:
496,48,54951,1,0,0:0:0:0:
480,48,55032,1,0,0:0:0:0:
464,48,55113,2,0,L|416:32,2,43.9999987201691
432,160,55438,1,0,0:0:0:0:
464,272,55600,1,0,0:0:0:0:
464,288,55681,1,0,0:0:0:0:
464,304,55762,6,0,L|368:288,1,87.9999974403381
272,224,56086,1,0,0:0:0:0:
192,304,56248,1,0,0:0:0:0:
192,320,56330,1,0,0:0:0:0:
192,336,56411,2,0,L|240:352,2,43.9999987201691
80,304,56735,1,0,0:0:0:0:
160,208,56897,1,0,0:0:0:0:
48,176,57059,5,0,0:0:0:0:
128,80,57221,1,0,0:0:0:0:
128,64,57303,1,0,0:0:0:0:
128,48,57384,2,0,L|80:32,2,43.9999987201691
240,96,57708,1,0,0:0:0:0:
352,144,57870,1,0,0:0:0:0:
464,80,58032,1,0,0:0:0:0:
464,208,58194,1,0,0:0:0:0:
448,224,58275,1,0,0:0:0:0:
432,240,58357,6,0,L|448:288,2,43.9999987201691
352,144,58681,1,0,0:0:0:0:
336,272,58843,1,0,0:0:0:0:
336,288,58924,1,0,0:0:0:0:
336,304,59005,2,0,P|304:336|256:336,1,87.9999974403381
256,208,59330,1,0,0:0:0:0:
192,320,59492,1,0,0:0:0:0:
176,192,59654,6,0,P|204:148|238:131,1,87.9999974403381
352,96,59978,1,0,0:0:0:0:
240,48,60140,1,0,0:0:0:0:
224,48,60221,1,0,0:0:0:0:
208,48,60303,2,0,L|192:0,2,43.9999987201691
320,16,60627,1,0,0:0:0:0:
304,144,60789,1,0,0:0:0:0:
304,160,60870,1,0,0:0:0:0:
304,176,60951,6,0,P|352:144|400:144,1,87.9999974403381
384,272,61275,1,0,0:0:0:0:
272,320,61438,1,0,0:0:0:0:
256,320,61519,1,0,0:0:0:0:
240,320,61600,2,0,L|256:272,2,43.9999987201691
176,208,61924,1,0,0:0:0:0:
112,96,62086,1,0,0:0:0:0:
89,222,62248,6,0,L|185:206,1,87.9999974403381
304,176,62573,1,0,0:0:0:0:
224,80,62735,6,0,L|320:64,1,87.9999974403381
439,34,63060,1,0,0:0:0:0:
416,160,63221,6,0,L|400:256,1,87.9999974403381
384,352,63546,1,0,0:0:0:0:
144,304,63870,5,0,0:0:0:0:
80,192,64032,1,0,0:0:0:0:
80,208,64113,1,0,0:0:0:0:
80,224,64194,2,0,L|32:240,2,43.9999987201691
192,192,64519,1,0,0:0:0:0:
112,96,64681,1,0,0:0:0:0:
224,64,64843,6,0,L|320:80,1,87.9999974403381
336,192,65167,1,0,0:0:0:0:
416,288,65330,1,0,0:0:0:0:
432,288,65411,1,0,0:0:0:0:
448,288,65492,2,0,L|496:288,2,43.9999987201691
352,352,65816,1,0,0:0:0:0:
272,272,65978,1,0,0:0:0:0:
256,272,66059,1,0,0:0:0:0:
240,272,66140,6,0,P|256:320|240:368,1,87.9999974403381
128,320,66465,1,0,0:0:0:0:
160,208,66627,1,0,0:0:0:0:
160,192,66708,1,0,0:0:0:0:
160,176,66789,2,0,L|176:128,2,43.9999987201691
48,144,67113,1,0,0:0:0:0:
80,32,67275,1,0,0:0:0:0:
192,64,67438,6,0,P|240:64|288:48,1,87.9999974403381
400,16,67762,1,0,0:0:0:0:
368,128,67924,2,0,P|341:176|349:224,1,87.9999974403381
400,320,68248,1,0,0:0:0:0:
416,192,68411,1,0,0:0:0:0:
332,282,68573,1,0,0:0:0:0:
256,192,68735,6,0,L|160:208,1,87.9999974403381
48,224,69059,1,0,0:0:0:0:
128,320,69221,1,0,0:0:0:0:
144,320,69303,1,0,0:0:0:0:
160,320,69384,2,0,L|176:368,2,43.9999987201691
288,288,69708,1,0,0:0:0:0:
416,256,69870,1,0,0:0:0:0:
496,160,70032,6,0,P|496:112|464:64,1,87.9999974403381
368,16,70357,1,0,0:0:0:0:
272,96,70519,1,0,0:0:0:0:
272,112,70600,1,0,0:0:0:0:
272,128,70681,2,0,L|256:176,2,43.9999987201691
192,32,71005,1,0,0:0:0:0:
128,128,71167,1,0,0:0:0:0:
112,128,71248,1,0,0:0:0:0:
96,128,71330,6,0,P|49:122|0:128,1,87.9999974403381
48,240,71654,1,0,0:0:0:0:
128,336,71816,1,0,0:0:0:0:
144,336,71897,1,0,0:0:0:0:
160,336,71978,2,0,L|208:352,2,43.9999987201691
192,224,72303,1,0,0:0:0:0:
272,320,72465,1,0,0:0:0:0:
304,208,72627,5,0,0:0:0:0:
272,336,72789,1,0,0:0:0:0:
384,304,72951,1,0,0:0:0:0:
304,208,73113,1,0,0:0:0:0:
416,176,73275,2,0,L|400:80,1,87.9999974403381
304,16,73600,1,0,0:0:0:0:
256,128,73762,2,0,L|272:96,3,21.9999993600845
256,80,73924,6,0,L|160:64,1,87.9999974403381
48,112,74248,1,0,0:0:0:0:
160,176,74411,1,0,0:0:0:0:
160,192,74492,1,0,0:0:0:0:
160,208,74573,2,0,L|112:192,2,43.9999987201691
176,336,74897,1,0,0:0:0:0:
240,224,75059,1,0,0:0:0:0:
256,352,75221,6,0,L|352:336,1,87.9999974403381
464,320,75546,1,0,0:0:0:0:
432,208,75708,1,0,0:0:0:0:
432,192,75789,1,0,0:0:0:0:
432,176,75870,2,0,L|480:160,2,43.9999987201691
320,128,76194,1,0,0:0:0:0:
416,48,76357,1,0,0:0:0:0:
432,32,76438,1,0,0:0:0:0:
448,16,76519,6,0,L|352:32,1,87.9999974403381
240,64,76843,1,0,0:0:0:0:
208,176,77005,1,0,0:0:0:0:
208,192,77086,1,0,0:0:0:0:
208,208,77167,2,0,L|224:256,2,43.9999987201691
144,96,77492,1,0,0:0:0:0:
112,208,77654,1,0,0:0:0:0:
221,249,77816,5,0,0:0:0:0:
256,128,77978,1,0,0:0:0:0:
272,128,78059,1,0,0:0:0:0:
288,128,78140,1,0,0:0:0:0:
304,256,78303,2,0,P|276:304|233:327,1,87.9999974403381
128,304,78627,1,0,0:0:0:0:
176,192,78789,1,0,0:0:0:0:
64,144,78951,1,0,0:0:0:0:
64,128,79032,1,0,0:0:0:0:
64,112,79113,6,0,L|160:96,1,87.9999974403381
256,32,79438,1,0,0:0:0:0:
368,96,79600,1,0,0:0:0:0:
384,96,79681,1,0,0:0:0:0:
400,96,79762,2,0,L|416:48,2,43.9999987201691
368,208,80086,1,0,0:0:0:0:
480,144,80248,1,0,0:0:0:0:
448,256,80411,6,0,L|432:352,1,87.9999974403381
304,352,80735,2,0,P|256:352|208:320,1,87.9999974403381
192,288,80978,1,0,0:0:0:0:
192,272,81059,2,0,L|208:224,2,43.9999987201691
80,336,81384,1,0,0:0:0:0:
48,224,81546,1,0,0:0:0:0:
48,208,81627,1,0,0:0:0:0:
48,192,81708,6,0,P|32:144|48:96,1,87.9999974403381
160,128,82032,1,0,0:0:0:0:
80,32,82194,1,0,0:0:0:0:
64,32,82275,1,0,0:0:0:0:
48,32,82357,2,0,L|0:16,2,43.9999987201691
176,32,82681,1,0,0:0:0:0:
240,128,82843,1,0,0:0:0:0:
336,48,83005,6,0,P|368:96|368:144,1,87.9999974403381
320,240,83330,1,0,0:0:0:0:
400,320,83492,6,0,P|352:352|304:352,1,87.9999974403381
208,304,83817,1,0,0:0:0:0:
128,224,83978,5,0,0:0:0:0:
240,160,84140,1,0,0:0:0:0:
128,96,84303,5,0,0:0:0:0:
432,224,84789,6,0,P|464:144|432:80,1,159.999990463257
336,32,85275,2,0,L|256:48,1,79.9999952316285
192,144,85600,6,0,B|224:192|224:192|208:304,1,159.999990463257
112,336,86086,2,0,L|64:320,4,39.9999976158142
224,368,86573,2,0,L|304:352,1,79.9999952316285
384,272,86897,6,0,L|304:256,1,79.9999952316285
400,192,87221,2,0,L|320:176,1,79.9999952316285
416,112,87546,2,0,L|336:96,1,79.9999952316285
432,32,87870,2,0,L|352:16,1,79.9999952316285
256,64,88194,6,0,P|208:80|112:16,1,159.999990463257
64,128,88681,2,0,L|48:80,4,39.9999976158142
64,240,89167,2,0,L|48:288,2,39.9999976158142
160,192,89492,6,0,B|176:240|176:240|288:256,1,159.999990463257
368,192,89978,2,0,L|352:144,4,39.9999976158142
464,240,90465,2,0,L|480:192,2,39.9999976158142
416,336,90789,6,0,B|288:352|288:352|256:320,1,159.999990463257
160,304,91275,2,0,L|176:352,4,39.9999976158142
48,272,91762,2,0,L|32:320,2,39.9999976158142
96,176,92086,6,0,L|80:96,1,79.9999952316285
176,160,92411,2,0,L|192:240,1,79.9999952316285
256,144,92735,2,0,L|240:64,1,79.9999952316285
336,128,93059,2,0,L|352:208,1,79.9999952316285
384,320,93384,6,0,P|432:288|448:256,1,79.9999952316285
464,160,93708,2,0,P|432:112|400:96,1,79.9999952316285
304,96,94032,2,0,P|256:128|239:160,1,79.9999952316285
240,256,94357,2,0,P|272:304|304:320,1,79.9999952316285
192,352,94681,6,0,B|144:336|144:336|128:224,1,159.999990463257
112,112,95167,2,0,L|64:128,4,39.9999976158142
96,0,95654,2,0,L|48:16,2,39.9999976158142
192,48,95978,6,0,B|240:48|240:48|304:80|304:80|352:80,1,159.999990463257
464,80,96465,2,0,L|480:32,4,39.9999976158142
416,176,96951,1,0,0:0:0:0:
496,256,97113,1,0,0:0:0:0:
496,272,97194,1,0,0:0:0:0:
496,288,97275,5,0,0:0:0:0:
400,352,97438,1,0,0:0:0:0:
320,272,97600,1,0,0:0:0:0:
240,336,97762,1,0,0:0:0:0:
176,240,97924,2,0,L|160:288,2,39.9999976158142
272,176,98248,2,0,L|288:128,2,39.9999976158142
208,80,98573,6,0,P|256:48|352:80,1,159.999990463257
400,176,99059,2,0,L|384:224,4,39.9999976158142
348,75,99546,1,0,0:0:0:0:
448,112,99708,1,0,0:0:0:0:
387,213,99870,6,0,B|403:341|403:341|371:325,1,159.999990463257
272,272,100357,2,0,L|288:224,4,39.9999976158142
176,336,100843,2,0,L|192:384,2,39.9999976158142
144,224,101167,6,0,L|160:144,1,79.9999952316285
368,80,101654,2,0,L|384:128,4,39.9999976158142
256,48,102140,2,0,L|272:0,2,39.9999976158142
288,160,102465,6,0,L|272:240,1,79.9999952316285
256,352,102789,1,0,0:0:0:0:
192,272,102951,2,0,L|176:224,4,39.9999976158142
300,300,103438,2,0,L|350:310,2,39.9999976158142
416,272,103762,5,0,0:0:0:0:
400,160,103924,1,0,0:0:0:0:
384,48,104086,1,0,0:0:0:0:
464,128,104248,5,0,0:0:0:0:
352,109,104411,1,0,0:0:0:0:
241,94,104573,1,0,0:0:0:0:
272,192,104735,5,0,0:0:0:0:
224,288,104897,1,0,0:0:0:0:
112,320,105059,6,0,L|96:224,1,87.9999974403381
80,112,105384,1,0,0:0:0:0:
160,16,105546,1,0,0:0:0:0:
176,16,105627,1,0,0:0:0:0:
192,16,105708,1,0,0:0:0:0:
208,16,105789,1,0,0:0:0:0:
224,16,105870,1,0,0:0:0:0:
160,128,106032,1,0,0:0:0:0:
288,144,106194,1,0,0:0:0:0:
288,128,106275,1,0,0:0:0:0:
288,112,106357,6,0,L|384:128,1,87.9999974403381
480,176,106681,1,0,0:0:0:0:
400,272,106843,1,0,0:0:0:0:
400,288,106924,1,0,0:0:0:0:
400,304,107005,1,0,0:0:0:0:
400,320,107086,1,0,0:0:0:0:
400,336,107167,1,0,0:0:0:0:
320,240,107330,1,0,0:0:0:0:
240,336,107492,1,0,0:0:0:0:
224,336,107573,1,0,0:0:0:0:
208,336,107654,6,0,P|199:286|208:240,1,87.9999974403381
96,320,107978,2,0,P|101:274|96:224,1,87.9999974403381
213,336,108303,2,0,P|203:281|213:231,1,87.9999974403381
90,319,108627,2,0,P|95:268|90:213,1,87.9999974403381
48,112,108951,6,0,L|144:96,1,87.9999974403381
224,176,109275,1,0,0:0:0:0:
256,48,109438,2,0,P|304:64|352:48,1,87.9999974403381
448,16,109762,1,0,0:0:0:0:
384,128,109924,1,0,0:0:0:0:
496,80,110086,1,0,0:0:0:0:
480,208,110248,6,0,L|496:304,1,87.9999974403381
384,240,110573,1,0,0:0:0:0:
336,352,110735,1,0,0:0:0:0:
320,352,110816,1,0,0:0:0:0:
304,352,110897,1,0,0:0:0:0:
288,352,110978,1,0,0:0:0:0:
272,352,111059,1,0,0:0:0:0:
160,320,111221,1,0,0:0:0:0:
256,256,111384,1,0,0:0:0:0:
272,256,111465,1,0,0:0:0:0:
288,256,111546,6,0,L|272:160,1,87.9999974403381
256,48,111870,1,0,0:0:0:0:
176,144,112032,1,0,0:0:0:0:
160,144,112113,1,0,0:0:0:0:
144,144,112194,1,0,0:0:0:0:
128,144,112275,1,0,0:0:0:0:
112,144,112357,1,0,0:0:0:0:
64,32,112519,1,0,0:0:0:0:
16,144,112681,1,0,0:0:0:0:
16,160,112762,1,0,0:0:0:0:
16,176,112843,6,0,L|32:272,1,87.9999974403381
128,336,113167,2,0,L|113:249,1,87.9999974403381
192,160,113492,2,0,L|208:256,1,87.9999974403381
304,336,113816,2,0,L|289:249,1,87.9999974403381
272,128,114140,6,0,P|320:112|352:64,1,87.9999974403381
464,48,114465,1,0,0:0:0:0:
496,160,114627,1,0,0:0:0:0:
384,192,114789,1,0,0:0:0:0:
480,272,114951,1,0,0:0:0:0:
384,192,115113,1,0,0:0:0:0:
352,304,115275,1,0,0:0:0:0:
272,208,115438,6,0,L|176:224,1,87.9999974403381
64,240,115762,1,0,0:0:0:0:
112,128,115924,1,0,0:0:0:0:
112,112,116005,1,0,0:0:0:0:
112,96,116086,1,0,0:0:0:0:
112,80,116167,1,0,0:0:0:0:
112,64,116248,1,0,0:0:0:0:
224,112,116411,1,0,0:0:0:0:
304,16,116573,1,0,0:0:0:0:
304,32,116654,1,0,0:0:0:0:
304,48,116735,6,0,P|336:80|400:80,1,87.9999974403381
496,48,117059,1,0,0:0:0:0:
448,160,117221,1,0,0:0:0:0:
448,176,117303,1,0,0:0:0:0:
448,192,117384,1,0,0:0:0:0:
448,208,117465,1,0,0:0:0:0:
448,224,117546,1,0,0:0:0:0:
368,320,117708,1,0,0:0:0:0:
288,224,117870,1,0,0:0:0:0:
272,224,117951,1,0,0:0:0:0:
256,224,118032,5,0,0:0:0:0:
176,320,118194,1,0,0:0:0:0:
64,288,118357,1,0,0:0:0:0:
48,160,118519,1,0,0:0:0:0:
48,144,118600,1,0,0:0:0:0:
48,128,118681,1,0,0:0:0:0:
48,112,118762,1,0,0:0:0:0:
48,96,118843,1,0,0:0:0:0:
160,32,119005,1,0,0:0:0:0:
192,160,119167,1,0,0:0:0:0:
208,160,119248,1,0,0:0:0:0:
224,160,119330,6,0,L|240:64,1,87.9999974403381
352,16,119654,1,0,0:0:0:0:
368,144,119816,2,0,P|416:128|448:96,1,87.9999974403381
320,80,120140,1,0,0:0:0:0:
304,208,120303,1,0,0:0:0:0:
432,240,120465,1,0,0:0:0:0:
320,304,120627,6,0,P|274:299|228:267,1,87.9999974403381
160,176,120951,1,0,0:0:0:0:
80,272,121113,1,0,0:0:0:0:
80,288,121194,1,0,0:0:0:0:
80,304,121275,1,0,0:0:0:0:
80,320,121357,1,0,0:0:0:0:
80,336,121438,1,0,0:0:0:0:
208,352,121600,1,0,0:0:0:0:
320,304,121762,1,0,0:0:0:0:
320,288,121843,1,0,0:0:0:0:
320,272,121924,6,0,L|336:176,1,87.9999974403381
352,64,122248,1,0,0:0:0:0:
240,0,122411,1,0,0:0:0:0:
224,0,122492,1,0,0:0:0:0:
208,0,122573,1,0,0:0:0:0:
192,0,122654,1,0,0:0:0:0:
176,0,122735,1,0,0:0:0:0:
64,48,122897,1,0,0:0:0:0:
160,112,123059,1,0,0:0:0:0:
176,112,123140,1,0,0:0:0:0:
192,112,123221,6,0,L|176:208,1,87.9999974403381
256,304,123546,1,0,0:0:0:0:
352,224,123708,2,0,L|368:128,1,87.9999974403381
384,16,124032,1,0,0:0:0:0:
464,112,124194,1,0,0:0:0:0:
448,240,124357,1,0,0:0:0:0:
366,137,124519,5,0,0:0:0:0:
254,149,124681,1,0,0:0:0:0:
142,160,124843,1,0,0:0:0:0:
88,258,125005,5,0,0:0:0:0:
200,247,125167,1,0,0:0:0:0:
312,235,125329,1,0,0:0:0:0:
253,330,125492,5,0,0:0:0:0:
141,342,125654,1,0,0:0:0:0:
32,352,125816,6,0,L|16:288,1,63.9999961853028
0,208,126140,1,0,0:0:0:0:
32,128,126303,1,0,0:0:0:0:
32,128,126384,1,0,0:0:0:0:
32,128,126465,2,0,L|64:144,2,31.9999980926514
96,64,126789,1,0,0:0:0:0:
144,144,126951,2,0,L|176:128,2,31.9999980926514
96,224,127275,5,0,0:0:0:0:
176,256,127438,1,0,0:0:0:0:
240,192,127600,1,0,0:0:0:0:
240,192,127681,1,0,0:0:0:0:
240,192,127762,2,0,L|304:176,1,63.9999961853028
336,96,128086,2,0,L|400:112,1,63.9999961853028
480,144,128411,6,0,L|496:208,1,63.9999961853028
480,288,128735,1,0,0:0:0:0:
400,256,128897,1,0,0:0:0:0:
400,256,128978,1,0,0:0:0:0:
400,256,129059,2,0,L|416:224,2,31.9999980926514
352,336,129384,1,0,0:0:0:0:
288,272,129546,2,0,L|272:304,2,31.9999980926514
336,192,129870,5,0,0:0:0:0:
240,192,130032,2,0,L|176:176,1,63.9999961853028
96,160,130357,1,0,0:0:0:0:
144,80,130519,1,0,0:0:0:0:
224,48,130681,1,0,0:0:0:0:
304,16,130843,1,0,0:0:0:0:
352,96,131005,6,0,L|416:80,1,63.9999961853028
496,128,131330,1,0,0:0:0:0:
448,192,131492,1,0,0:0:0:0:
448,192,131573,1,0,0:0:0:0:
448,192,131654,2,0,L|464:224,2,31.9999980926514
384,256,131978,1,0,0:0:0:0:
416,336,132140,2,0,L|448:320,2,31.9999980926514
320,320,132465,5,0,0:0:0:0:
240,272,132627,1,0,0:0:0:0:
272,192,132789,1,0,0:0:0:0:
272,192,132870,1,0,0:0:0:0:
272,192,132951,2,0,L|256:128,1,63.9999961853028
224,48,133275,2,0,P|192:64|160:64,1,63.9999961853028
80,96,133600,6,0,L|64:160,1,63.9999961853028
48,240,133924,1,0,0:0:0:0:
96,320,134086,1,0,0:0:0:0:
96,320,134167,1,0,0:0:0:0:
96,320,134248,2,0,L|80:352,2,31.9999980926514
144,240,134573,1,0,0:0:0:0:
176,320,134735,2,0,L|192:352,2,31.9999980926514
240,256,135059,5,0,0:0:0:0:
320,288,135221,1,0,0:0:0:0:
400,256,135384,1,0,0:0:0:0:
384,176,135546,1,0,0:0:0:0:
368,96,135708,1,0,0:0:0:0:
304,160,135870,1,0,0:0:0:0:
224,128,136032,1,0,0:0:0:0:
208,48,136194,6,0,L|144:64,1,63.9999961853028
64,80,136519,1,0,0:0:0:0:
96,160,136681,1,0,0:0:0:0:
96,160,136762,1,0,0:0:0:0:
96,160,136843,2,0,L|80:192,2,31.9999980926514
144,240,137167,1,0,0:0:0:0:
192,320,137330,2,0,L|224:336,2,31.9999980926514
96,320,137654,5,0,0:0:0:0:
144,240,137816,1,0,0:0:0:0:
192,160,137978,1,0,0:0:0:0:
192,160,138059,1,0,0:0:0:0:
192,160,138140,2,0,L|208:96,1,63.9999961853028
288,48,138465,2,0,L|304:112,1,63.9999961853028
384,160,138789,6,0,L|400:96,1,63.9999961853028
448,16,139113,1,0,0:0:0:0:
480,96,139275,1,0,0:0:0:0:
480,96,139357,1,0,0:0:0:0:
480,96,139438,2,0,L|496:144,2,31.9999980926514
448,16,139762,1,0,0:0:0:0:
352,32,139924,2,0,L|320:16,2,31.9999980926514
399,97,140248,5,0,0:0:0:0:
352,176,140411,1,0,0:0:0:0:
416,240,140573,2,0,L|400:304,1,63.9999961853028
320,272,140897,1,0,0:0:0:0:
288,352,141059,1,0,0:0:0:0:
208,320,141221,1,0,0:0:0:0:
240,240,141384,6,0,L|224:176,2,63.9999961853028
144,224,141870,2,0,L|160:272,4,31.9999980926514
112,144,142357,1,0,0:0:0:0:
80,64,142519,2,0,L|96:32,2,31.9999980926514
336,112,143167,5,0,0:0:0:0:
336,112,143248,1,0,0:0:0:0:
336,112,143330,2,0,L|416:128,1,63.9999961853028
448,192,143654,2,0,L|384:208,1,63.9999961853028
320,272,143978,6,0,L|384:288,1,63.9999961853028
208,304,144465,2,0,L|224:336,4,31.9999980926514
128,272,144951,2,0,L|112:320,4,31.9999980926514
160,192,145438,5,0,0:0:0:0:
192,112,145600,1,0,0:0:0:0:
240,192,145762,5,0,0:0:0:0:
272,112,145924,1,0,0:0:0:0:
304,32,146086,1,0,0:0:0:0:
352,112,146248,5,0,0:0:0:0:
320,192,146411,1,0,0:0:0:0:
288,272,146573,1,0,0:0:0:0:
