osu file format v14

[General]
AudioFilename: audio.mp3
AudioLeadIn: 0
PreviewTime: 44831
Countdown: 0
SampleSet: None
StackLeniency: 0.2
Mode: 0
LetterboxInBreaks: 0
WidescreenStoryboard: 1

[Editor]
Bookmarks: 151,16746,20576,24486,41002,46108,56321,66534,76746,86959,107385,122704,127810
DistanceSpacing: 0.9
BeatDivisor: 4
GridSize: 32
TimelineZoom: 2.399999

[Metadata]
Title:Sidetracked Day (helix Remix) (Short ver.)
TitleUnicode:Sidetracked Day (helix Remix) (Short ver.)
Artist:VINXIS / Luis Fonsi
ArtistUnicode:VINXIS / Luis Fonsi
Creator:kirbob
Version:teaching's Extra
Source:
Tags:
BeatmapID:1692224
BeatmapSetID:791120

[Difficulty]
HPDrainRate:4
CircleSize:3.5
OverallDifficulty:8
ApproachRate:10
SliderMultiplier:1
SliderTickRate:1

[Events]
//Background and Video events
0,0,"ihavelolisinmybasementbutthecopshavenotfoundoutaboutityet.jpg",0,0
//Break Periods
//Storyboard Layer 0 (Background)
//Storyboard Layer 1 (Fail)
//Storyboard Layer 2 (Pass)
//Storyboard Layer 3 (Foreground)
//Storyboard Sound Samples

[TimingPoints]
151,319.148936170213,4,3,0,50,1,0
16746,-76.9230769230769,4,3,0,50,0,0
20576,-70.4225352112676,4,3,0,50,0,0
29512,-64.5161290322581,4,3,0,50,0,0
30789,-70.4225352112676,4,3,0,50,0,0
39725,-60.6060606060606,4,3,0,50,0,0
40044,-37.7358490566038,4,3,0,50,0,0
40363,-60.6060606060606,4,3,0,50,0,0
41002,-82.6446280991736,4,3,0,50,0,0
45470,-74.0740740740741,4,3,0,50,0,0
45789,-64.9350649350649,4,3,0,50,0,0
46108,-58.1395348837209,4,3,0,50,0,0
49938,-54.6448087431694,4,3,0,50,0,0
51214,-58.1395348837209,4,3,0,50,0,0
55044,-62.111801242236,4,3,0,50,0,0
55682,-75.7575757575758,4,3,0,50,0,0
56321,-99.009900990099,4,3,0,50,0,0
60151,-82.6446280991736,4,3,0,50,0,0
61427,-95.2380952380952,4,3,0,50,0,0
63980,-82.6446280991736,4,3,0,50,0,0
64619,-74.6268656716418,4,3,0,50,0,0
64938,-68.0272108843537,4,3,0,50,0,0
65257,-59.8802395209581,4,3,0,50,0,0
66534,-56.8181818181818,4,3,0,50,0,0
67810,-54.3478260869565,4,3,0,50,0,0
69087,-56.8181818181818,4,3,0,50,0,0
72917,-54.3478260869565,4,3,0,50,0,0
74193,-56.8181818181818,4,3,0,50,0,0
74831,-63.2911392405063,4,3,0,50,0,0
75470,-71.9424460431655,4,3,0,50,0,0
76108,-84.0336134453781,4,3,0,50,0,0
76746,-106.382978723404,4,3,0,50,0,0
84406,-86.9565217391304,4,3,0,50,0,0
85044,-75.7575757575758,4,3,0,50,0,0
85682,-64.1025641025641,4,3,0,50,0,0
86321,-54.054054054054,4,3,0,50,0,0
86959,-47.1698113207547,4,3,0,50,0,1
104831,-46.2962962962963,4,3,0,50,0,1
106108,-43.859649122807,4,3,0,50,0,1
106746,-40.650406504065,4,3,0,50,0,1
107385,-41.8410041841004,4,3,0,50,0,1
112491,-44.0528634361233,4,3,0,50,0,1
122704,-46.2962962962963,4,3,0,50,0,1
125257,-49.5049504950495,4,3,0,50,0,1
126534,-33.5570469798658,4,3,0,50,0,1
127172,-25.1256281407035,4,3,0,50,0,1
127810,-94.3396226415094,4,3,0,50,0,0

[Colours]
Combo1 : 133,239,159
Combo2 : 133,174,243
Combo3 : 108,158,240
Combo4 : 140,240,166

[HitObjects]
256,192,16746,12,0,19299,0:0:0:0:
244,99,19459,5,8,0:2:0:0:
319,236,19619,1,4,0:3:0:0:
240,284,19938,2,0,L|80:286,1,129.999994049073,8|0,0:3|0:0,0:0:0:0:
258,66,20576,5,4,0:1:0:0:
317,267,21214,1,8,3:2:0:0:
158,257,21853,1,0,3:0:0:0:
368,262,22172,1,4,3:0:0:0:
158,257,22491,2,0,L|179:93,1,141.999992849732,8|0,3:2|3:0,0:0:0:0:
336,155,23129,1,4,3:3:0:0:
146,276,23768,1,8,3:2:0:0:
70,190,24406,5,4,3:2:0:0:
443,189,24725,1,4,3:0:0:0:
70,190,25044,2,0,L|228:189,1,141.999992849732,8|0,3:2|3:0,0:0:0:0:
403,75,25682,5,4,3:0:0:0:
142,281,26321,1,8,3:2:0:0:
350,297,26640,1,4,3:2:0:0:
58,62,27278,1,4,3:0:0:0:
79,307,27597,2,0,L|236:309,1,141.999992849732,8|0,3:2|3:0,0:0:0:0:
394,96,28236,5,4,3:0:0:0:
277,234,28874,1,8,3:2:0:0:
108,175,29193,1,0,3:0:0:0:
227,95,29512,5,2,3:1:0:0:
412,155,29672,1,0,3:0:0:0:
136,237,29831,1,2,3:1:0:0:
396,281,29991,1,0,3:0:0:0:
197,325,30151,1,10,3:1:0:0:
345,64,30310,1,0,3:0:0:0:
73,122,30470,1,2,3:1:0:0:
432,191,30629,1,8,3:1:0:0:
86,301,30789,1,4,3:0:0:0:
359,274,31427,5,8,3:2:0:0:
121,241,31746,1,2,3:0:0:0:
340,87,32065,1,0,3:0:0:0:
238,264,32385,1,4,3:0:0:0:
127,171,32704,2,0,L|281:169,1,141.999992849732,8|0,3:2|3:0,0:0:0:0:
394,250,33342,5,4,3:0:0:0:
107,222,33980,1,8,3:2:0:0:
360,55,34619,1,2,3:0:0:0:
306,244,34938,1,4,3:0:0:0:
154,256,35257,2,0,L|154:100,1,141.999992849732,8|0,3:2|3:0,0:0:0:0:
360,179,35895,5,4,3:0:0:0:
96,140,36534,1,8,3:2:0:0:
163,287,37172,1,2,3:0:0:0:
312,262,37491,1,4,3:0:0:0:
423,154,37810,2,0,L|261:153,1,141.999992849732,8|0,3:0|3:0,0:0:0:0:
119,260,38448,5,4,3:0:0:0:
370,284,39087,1,8,3:2:0:0:
108,66,39725,5,2,3:1:0:0:
166,176,39885,1,0,0:0:0:0:
281,229,40044,1,2,1:1:0:0:
84,96,40204,1,0,0:0:0:0:
163,193,40363,1,2,1:1:0:0:
285,207,40523,1,0,0:0:0:0:
59,144,40682,1,2,1:1:0:0:
150,228,40842,1,0,0:0:0:0:
271,226,41002,1,2,2:0:0:0:
256,192,41161,12,2,44831,2:0:0:0:
101,191,44991,6,0,P|272:137|297:335,1,423.499988045121,2|4,2:0|3:0,0:0:0:0:
184,326,46268,1,0,3:0:0:0:
243,48,46427,1,8,3:2:0:0:
68,195,46587,1,0,3:0:0:0:
419,199,46746,1,4,3:0:0:0:
411,71,46906,1,4,3:0:0:0:
261,321,47065,1,8,3:2:0:0:
92,61,47225,1,0,3:0:0:0:
71,311,47385,5,4,3:0:0:0:
210,137,47544,1,0,3:0:0:0:
354,305,47704,1,8,3:0:0:0:
444,191,47863,1,0,3:0:0:0:
48,185,48023,1,2,3:0:0:0:
451,217,48182,1,0,3:0:0:0:
54,244,48342,1,8,3:2:0:0:
446,170,48502,1,0,3:0:0:0:
54,149,48661,1,4,3:0:0:0:
440,228,48821,1,0,3:0:0:0:
229,97,48980,5,8,3:2:0:0:
267,283,49140,1,0,3:0:0:0:
279,88,49299,1,2,3:0:0:0:
230,287,49459,1,4,3:0:0:0:
327,124,49618,1,8,3:2:0:0:
183,237,49778,1,0,3:0:0:0:
337,171,49938,1,2,3:1:0:0:
174,184,50097,1,0,3:0:0:0:
337,231,50257,1,2,3:1:0:0:
188,120,50416,1,0,3:0:0:0:
292,273,50576,5,2,3:1:0:0:
247,93,50735,1,4,3:0:0:0:
233,289,50895,1,2,3:1:0:0:
313,104,51055,1,0,3:0:0:0:
172,259,51214,1,4,3:0:0:0:
335,161,51374,1,0,3:0:0:0:
154,197,51533,1,8,3:2:0:0:
326,228,51693,1,0,3:0:0:0:
201,58,51853,5,2,3:0:0:0:
444,231,52012,1,4,3:0:0:0:
68,308,52172,1,8,3:2:0:0:
424,111,52331,1,0,3:0:0:0:
66,150,52491,1,4,3:0:0:0:
405,340,52651,1,0,3:0:0:0:
166,55,52810,1,8,3:2:0:0:
181,315,52970,1,0,3:0:0:0:
383,51,53129,5,2,3:0:0:0:
81,284,53289,1,4,3:0:0:0:
443,243,53448,1,8,3:2:0:0:
63,129,53608,1,0,3:0:0:0:
334,325,53768,1,4,3:0:0:0:
230,60,53927,1,0,3:0:0:0:
174,315,54087,1,8,3:2:0:0:
375,126,54246,1,0,3:0:0:0:
190,231,54406,1,2,3:0:0:0:
308,229,54565,5,4,3:0:0:0:
191,142,54725,1,8,3:2:0:0:
306,142,54885,1,0,3:0:0:0:
190,231,55044,2,0,L|193:37,1,161.000000245667,2|8,3:1|3:2,0:0:0:0:
287,100,55682,2,0,P|358:178|379:174,1,131.999999597168,2|2,2:2|2:2,0:0:0:0:
85,307,56321,2,0,L|245:288,1,151.499996994782,4|0,2:3|2:3,0:0:0:0:
255,111,56959,5,8,2:3:0:0:
255,275,57119,1,0,2:3:0:0:
316,142,57278,1,2,2:3:0:0:
203,244,57438,1,0,2:3:0:0:
321,203,57597,1,0,2:3:0:0:
185,192,57757,1,0,2:3:0:0:
304,268,57917,1,4,2:3:0:0:
199,130,58076,1,0,2:3:0:0:
257,313,58236,1,8,2:3:0:0:
254,86,58395,5,0,2:3:0:0:
159,267,58555,1,0,2:3:0:0:
345,146,58714,1,0,2:3:0:0:
154,193,58874,1,4,2:3:0:0:
343,197,59034,1,0,2:3:0:0:
168,126,59193,1,0,2:3:0:0:
326,271,59353,1,0,2:3:0:0:
255,51,59512,5,8,2:3:0:0:
257,333,59672,1,0,2:3:0:0:
368,122,59831,1,0,2:3:0:0:
137,275,59991,1,0,2:3:0:0:
368,205,60151,1,2,2:3:0:0:
132,197,60310,1,0,2:3:0:0:
356,291,60470,1,4,2:3:0:0:
150,108,60629,1,0,2:3:0:0:
257,337,60789,1,4,2:3:0:0:
257,63,60948,1,2,2:3:0:0:
257,63,61108,1,8,2:3:0:0:
257,63,61268,6,0,L|256:284,1,211.74999402256,0|0,2:3|0:0,0:0:0:0:
70,322,61986,1,0,0:0:0:0:
416,88,62145,1,0,0:0:0:0:
70,78,62305,1,0,0:0:0:0:
424,348,62464,1,0,0:0:0:0:
240,111,62624,1,0,0:0:0:0:
206,319,62784,1,0,0:0:0:0:
431,199,62943,1,0,2:3:0:0:
85,207,63103,1,0,0:0:0:0:
390,81,63262,1,0,0:0:0:0:
367,308,63422,5,0,0:0:0:0:
188,125,63581,1,0,0:0:0:0:
170,324,63741,1,0,0:0:0:0:
256,192,63901,12,4,66534,3:1:0:0:
243,197,66693,5,0,3:3:0:0:
264,177,66853,1,8,3:2:0:0:
221,223,67012,1,2,3:3:0:0:
285,162,67172,1,4,3:3:0:0:
202,240,67332,1,4,3:3:0:0:
308,146,67491,1,8,3:2:0:0:
182,257,67651,1,0,3:3:0:0:
332,132,67810,1,4,3:3:0:0:
172,276,67970,1,0,3:3:0:0:
351,120,68129,1,8,3:2:0:0:
154,305,68289,5,0,3:3:0:0:
379,102,68449,1,2,3:3:0:0:
144,328,68608,1,4,3:3:0:0:
404,87,68768,1,8,3:2:0:0:
261,204,68927,5,0,3:3:0:0:
234,182,69087,1,4,3:3:0:0:
282,235,69246,1,0,3:3:0:0:
207,162,69406,1,8,3:2:0:0:
302,260,69565,1,2,3:3:0:0:
172,135,69725,1,2,3:3:0:0:
328,284,69885,1,4,3:3:0:0:
135,118,70044,1,8,3:2:0:0:
366,293,70204,1,0,3:3:0:0:
101,89,70363,5,4,3:3:0:0:
408,310,70523,1,0,3:3:0:0:
61,66,70682,1,8,3:2:0:0:
445,331,70842,1,0,3:3:0:0:
390,71,71002,1,2,3:3:0:0:
270,313,71161,1,4,3:3:0:0:
74,188,71321,1,8,3:2:0:0:
390,220,71480,1,0,3:3:0:0:
134,82,71640,1,4,3:3:0:0:
386,322,71799,5,0,3:3:0:0:
275,58,71959,1,8,3:2:0:0:
165,329,72119,1,2,3:3:0:0:
412,128,72278,1,2,3:3:0:0:
165,222,72438,1,4,3:3:0:0:
244,97,72597,1,8,3:2:0:0:
240,329,72757,1,0,3:3:0:0:
240,329,72917,1,4,3:3:0:0:
440,80,73076,5,0,3:3:0:0:
57,153,73236,1,8,3:2:0:0:
452,286,73395,1,0,3:3:0:0:
56,337,73555,1,2,3:3:0:0:
454,188,73714,1,4,3:3:0:0:
52,52,73874,1,8,3:2:0:0:
365,331,74034,1,0,3:3:0:0:
454,60,74193,1,4,3:3:0:0:
48,266,74353,1,2,3:3:0:0:
463,310,74512,5,2,3:3:0:0:
79,49,74672,1,2,3:3:0:0:
460,228,74831,1,2,3:3:0:0:
55,336,74991,1,4,3:3:0:0:
465,57,75151,1,10,3:2:0:0:
408,333,75310,1,0,3:3:0:0:
465,57,75470,1,4,3:3:0:0:
312,253,75629,1,0,3:3:0:0:
465,57,75789,1,8,3:2:0:0:
296,144,75948,5,0,3:3:0:0:
465,57,76108,1,2,2:2:0:0:
290,53,76427,1,2,2:2:0:0:
256,138,76746,5,4,2:3:0:0:
255,252,76906,1,0,0:0:0:0:
305,160,77065,1,0,0:0:0:0:
208,221,77225,1,0,0:0:0:0:
310,203,77385,1,8,2:3:0:0:
206,194,77544,1,0,0:0:0:0:
294,246,77704,1,2,2:3:0:0:
221,148,77863,1,0,0:0:0:0:
254,273,78023,1,0,0:0:0:0:
255,122,78182,5,0,0:0:0:0:
183,292,78342,1,4,2:3:0:0:
345,118,78502,1,0,0:0:0:0:
130,191,78661,1,8,2:3:0:0:
374,189,78821,1,0,0:0:0:0:
151,96,78980,1,0,0:0:0:0:
360,303,79140,1,0,0:0:0:0:
255,60,79299,1,4,2:3:0:0:
253,334,79459,1,0,0:0:0:0:
255,60,79619,2,0,P|317:68|390:180,1,187.999997131348,0|0,0:0|0:0,0:0:0:0:
75,309,80417,5,0,0:0:0:0:
443,285,80577,1,2,2:3:0:0:
74,228,80736,1,0,0:0:0:0:
445,208,80896,1,4,2:3:0:0:
72,152,81056,1,0,0:0:0:0:
448,135,81215,1,2,2:3:0:0:
70,84,81375,1,0,2:3:0:0:
450,64,81534,1,8,2:3:0:0:
94,320,81693,5,0,0:0:0:0:
418,246,81853,1,4,2:3:0:0:
221,80,82012,2,0,P|320:80|354:108,1,140.999997848511,0|8,0:0|2:3,0:0:0:0:
429,171,82651,1,0,0:0:0:0:
254,295,82810,1,2,2:3:0:0:
70,192,82970,1,0,0:0:0:0:
257,65,83129,5,0,0:0:0:0:
281,338,83289,1,2,2:3:0:0:
288,71,83448,1,4,2:3:0:0:
249,335,83608,1,0,0:0:0:0:
251,56,83768,1,8,2:3:0:0:
292,332,83927,1,0,0:0:0:0:
279,69,84087,1,2,2:3:0:0:
249,335,84246,1,0,0:0:0:0:
278,72,84406,1,4,2:3:0:0:
292,332,84565,5,0,0:0:0:0:
245,89,84725,1,0,0:0:0:0:
230,337,84885,1,0,0:0:0:0:
403,152,85044,1,2,2:3:0:0:
101,282,85204,1,2,2:3:0:0:
450,282,85363,1,8,2:3:0:0:
76,138,85523,1,0,0:0:0:0:
316,64,85682,1,4,2:3:0:0:
367,331,85842,1,0,0:0:0:0:
175,62,86002,5,8,2:2:0:0:
261,322,86161,1,0,0:0:0:0:
456,117,86321,1,2,2:3:0:0:
141,259,86480,1,4,2:3:0:0:
397,215,86640,1,8,2:2:0:0:
80,155,86799,1,0,2:3:0:0:
336,222,86959,5,4,3:1:0:0:
341,227,87039,1,0,0:0:0:0:
347,232,87119,1,0,3:3:0:0:
351,234,87198,1,0,0:0:0:0:
361,237,87278,1,8,3:2:0:0:
372,237,87358,1,0,0:0:0:0:
382,236,87438,5,0,3:3:0:0:
392,234,87518,1,0,0:0:0:0:
402,230,87597,1,2,3:3:0:0:
410,224,87677,1,2,3:3:0:0:
420,214,87757,1,4,3:3:0:0:
426,205,87837,1,2,3:3:0:0:
430,194,87917,5,8,3:2:0:0:
434,182,87996,1,0,0:0:0:0:
434,171,88076,1,0,3:3:0:0:
434,158,88156,1,0,0:0:0:0:
430,148,88236,1,2,3:1:0:0:
428,138,88315,1,0,0:0:0:0:
422,131,88395,5,0,3:3:0:0:
413,122,88475,1,0,0:0:0:0:
400,115,88555,1,2,3:1:0:0:
386,117,88635,1,0,0:0:0:0:
368,121,88714,1,2,3:3:0:0:
360,134,88794,1,0,0:0:0:0:
359,151,88874,5,2,3:1:0:0:
355,161,88954,1,0,0:0:0:0:
346,172,89034,1,4,3:3:0:0:
338,182,89113,1,0,0:0:0:0:
327,189,89193,1,2,3:1:0:0:
317,195,89273,1,0,0:0:0:0:
308,202,89353,5,0,3:3:0:0:
296,208,89432,1,0,0:0:0:0:
281,212,89512,1,4,3:3:0:0:
268,215,89592,1,0,0:0:0:0:
252,215,89672,1,0,3:3:0:0:
234,213,89752,1,0,0:0:0:0:
218,209,89831,5,8,3:2:0:0:
202,198,89911,1,0,0:0:0:0:
192,186,89991,1,0,3:3:0:0:
189,171,90071,1,0,0:0:0:0:
195,158,90151,1,2,3:3:0:0:
205,147,90230,1,0,3:3:0:0:
215,141,90310,5,4,3:3:0:0:
228,133,90390,1,0,3:3:0:0:
244,131,90470,1,8,3:2:0:0:
258,131,90549,1,0,0:0:0:0:
271,135,90629,1,0,3:3:0:0:
281,140,90709,1,0,0:0:0:0:
289,146,90789,5,2,3:1:0:0:
298,157,90869,1,0,0:0:0:0:
307,169,90948,1,0,3:3:0:0:
314,181,91028,1,0,0:0:0:0:
91,92,91427,5,2,3:1:0:0:
426,227,91587,1,4,3:3:0:0:
96,304,91746,1,2,3:1:0:0:
415,102,91906,1,0,3:3:0:0:
215,45,92065,1,4,3:3:0:0:
290,317,92225,1,0,3:3:0:0:
350,180,92385,1,8,3:2:0:0:
168,206,92544,1,0,3:3:0:0:
409,246,92704,1,2,3:3:0:0:
112,142,92863,5,4,3:3:0:0:
63,288,93023,1,8,3:2:0:0:
452,152,93182,1,0,3:3:0:0:
452,152,93342,1,2,3:1:0:0:
452,152,93661,1,2,3:1:0:0:
97,120,93980,5,2,3:1:0:0:
47,324,94140,1,4,3:3:0:0:
239,281,94299,1,2,3:1:0:0:
91,99,94459,1,0,3:3:0:0:
37,337,94619,1,4,3:3:0:0:
261,293,94778,1,0,3:3:0:0:
373,225,94938,1,8,3:2:0:0:
450,54,95097,1,0,3:3:0:0:
254,78,95257,1,2,3:3:0:0:
380,264,95417,5,4,3:3:0:0:
465,37,95576,1,8,3:2:0:0:
230,59,95736,1,0,3:3:0:0:
230,59,95895,1,2,3:1:0:0:
230,59,96214,1,2,3:1:0:0:
83,316,96534,1,2,3:1:0:0:
293,245,96693,1,4,3:3:0:0:
84,188,96853,1,2,3:1:0:0:
349,329,97012,1,0,3:3:0:0:
194,243,97172,5,4,3:3:0:0:
354,155,97331,1,0,3:3:0:0:
175,107,97491,1,8,3:2:0:0:
376,252,97651,1,0,3:3:0:0:
256,168,97810,1,2,3:3:0:0:
400,77,97970,1,4,3:3:0:0:
434,326,98129,1,8,3:2:0:0:
400,77,98289,1,0,3:3:0:0:
339,325,98448,1,2,3:1:0:0:
339,325,98768,5,2,3:1:0:0:
105,149,99087,1,2,3:1:0:0:
107,156,99167,1,0,0:0:0:0:
110,163,99246,1,4,3:3:0:0:
294,130,99406,1,2,3:1:0:0:
291,140,99486,1,0,0:0:0:0:
291,147,99565,1,0,3:3:0:0:
288,157,99645,1,0,0:0:0:0:
285,167,99725,1,4,3:3:0:0:
173,300,99885,5,0,3:3:0:0:
365,262,100044,1,8,3:2:0:0:
123,202,100204,1,0,3:3:0:0:
401,160,100363,1,2,3:3:0:0:
55,123,100523,1,4,3:3:0:0:
423,72,100682,1,8,3:2:0:0:
239,100,100842,1,0,3:3:0:0:
423,72,101002,1,2,3:1:0:0:
423,72,101321,1,2,3:1:0:0:
255,58,101640,5,2,3:1:0:0:
254,326,101799,1,4,3:3:0:0:
348,119,101959,1,2,3:1:0:0:
155,275,102119,1,0,3:3:0:0:
357,194,102278,1,4,3:3:0:0:
151,192,102438,1,0,3:3:0:0:
336,289,102597,1,8,3:2:0:0:
169,112,102757,1,0,3:3:0:0:
256,334,102917,1,2,3:3:0:0:
257,49,103076,5,4,3:3:0:0:
423,163,103236,1,8,3:2:0:0:
91,248,103395,1,0,3:3:0:0:
429,311,103555,1,2,3:1:0:0:
71,82,103714,1,0,3:3:0:0:
304,306,103874,1,2,3:1:0:0:
416,101,104034,1,2,3:3:0:0:
147,260,104193,1,2,3:1:0:0:
370,200,104353,1,4,3:3:0:0:
159,155,104512,5,2,3:1:0:0:
418,116,104672,1,0,3:3:0:0:
108,254,104831,1,4,3:3:0:0:
399,301,104991,1,0,3:3:0:0:
78,80,105151,1,8,3:2:0:0:
57,326,105310,1,0,3:3:0:0:
211,260,105470,1,2,3:3:0:0:
86,239,105629,1,4,3:3:0:0:
246,185,105789,1,8,3:2:0:0:
105,153,105948,5,0,3:3:0:0:
273,100,106108,1,2,3:1:0:0:
445,225,106268,1,0,3:3:0:0:
339,142,106427,1,2,3:1:0:0:
411,320,106587,1,2,3:3:0:0:
275,247,106746,1,2,3:1:0:0:
60,255,106906,1,4,3:3:0:0:
259,164,107065,1,2,3:1:0:0:
448,160,107225,5,0,3:3:0:0:
226,51,107385,1,4,3:3:0:0:
226,51,107704,1,8,3:2:0:0:
75,313,108023,1,2,3:3:0:0:
361,217,108182,1,4,3:3:0:0:
103,191,108342,1,8,3:2:0:0:
365,331,108502,1,0,3:3:0:0:
190,288,108661,1,2,3:1:0:0:
375,198,108980,1,2,3:1:0:0:
67,96,109299,5,2,3:1:0:0:
345,125,109459,1,4,3:3:0:0:
53,195,109619,1,2,3:1:0:0:
334,237,109778,1,0,3:3:0:0:
42,300,109938,1,4,3:3:0:0:
312,331,110257,1,8,3:2:0:0:
445,77,110576,2,0,L|206:74,1,239.000004376221,2|8,3:3|3:2,0:0:0:0:
324,217,111055,1,0,3:3:0:0:
192,316,111214,2,0,L|442:322,1,239.000004376221,2|2,3:1|3:1,0:0:0:0:
152,85,111853,5,2,3:1:0:0:
369,241,112012,1,4,3:3:0:0:
421,117,112172,1,2,3:1:0:0:
103,293,112331,1,0,3:3:0:0:
407,325,112491,1,4,3:3:0:0:
65,68,112810,1,8,3:2:0:0:
94,300,113129,5,2,3:3:0:0:
382,238,113289,1,4,3:3:0:0:
97,220,113448,1,8,3:2:0:0:
343,313,113608,1,0,3:3:0:0:
122,146,113768,1,2,3:1:0:0:
386,111,114087,1,2,3:1:0:0:
124,308,114406,5,2,3:1:0:0:
393,262,114565,1,4,3:3:0:0:
134,238,114725,1,2,3:1:0:0:
388,200,114885,1,0,3:3:0:0:
134,171,115044,1,4,3:3:0:0:
385,146,115204,1,0,3:3:0:0:
133,108,115363,1,8,3:2:0:0:
381,78,115523,1,0,3:3:0:0:
92,291,115682,5,2,3:3:0:0:
434,206,115842,1,4,3:3:0:0:
66,167,116002,1,8,3:2:0:0:
425,311,116161,1,0,3:3:0:0:
461,100,116321,1,2,3:1:0:0:
55,322,116640,1,2,3:1:0:0:
73,75,116959,5,2,3:1:0:0:
180,141,117119,1,4,3:3:0:0:
67,182,117278,1,2,3:1:0:0:
217,55,117438,1,0,3:3:0:0:
243,198,117597,1,4,3:3:0:0:
390,120,117917,1,8,3:2:0:0:
391,319,118236,1,2,3:3:0:0:
291,241,118395,1,4,3:3:0:0:
424,217,118555,1,8,3:2:0:0:
260,328,118714,5,0,3:3:0:0:
152,230,118874,1,2,3:1:0:0:
152,230,119193,1,2,3:1:0:0:
131,113,119512,1,2,3:1:0:0:
359,255,119672,1,4,3:3:0:0:
172,304,119831,1,2,3:1:0:0:
409,157,119991,1,0,3:3:0:0:
96,202,120151,1,4,3:3:0:0:
132,126,120470,1,8,3:2:0:0:
331,103,120789,5,2,3:3:0:0:
154,212,121108,1,8,3:2:0:0:
376,267,121268,1,0,3:3:0:0:
155,320,121427,1,2,3:1:0:0:
461,69,121746,1,2,3:1:0:0:
357,283,122065,5,2,3:1:0:0:
146,155,122225,1,4,3:3:0:0:
418,170,122385,1,2,3:1:0:0:
120,267,122544,1,0,3:3:0:0:
457,288,122704,1,4,3:3:0:0:
86,113,123023,1,8,3:2:0:0:
186,209,123182,1,0,3:3:0:0:
418,178,123342,1,2,3:3:0:0:
238,123,123502,1,4,3:3:0:0:
328,286,123661,5,8,3:2:0:0:
443,91,123821,1,0,3:3:0:0:
134,299,123980,1,2,3:1:0:0:
114,80,124299,1,2,3:1:0:0:
256,192,124619,12,2,127810,3:1:0:0:
