osu file format v14

[General]
AudioFilename: audio.mp3
AudioLeadIn: 0
PreviewTime: 44831
Countdown: 0
SampleSet: Normal
StackLeniency: 0.7
Mode: 0
LetterboxInBreaks: 0
WidescreenStoryboard: 1

[Editor]
Bookmarks: 151,16746,20576,24486,41002,46108,56321,66534,76746,86959,107385,122704,127810
DistanceSpacing: 0.9
BeatDivisor: 4
GridSize: 32
TimelineZoom: 2.399999

[Metadata]
Title:Sidetracked Day (helix Remix) (Short ver.)
TitleUnicode:Sidetracked Day (helix Remix) (Short ver.)
Artist:VINXIS / Luis Fonsi
ArtistUnicode:VINXIS / Luis Fonsi
Creator:kirbob
Version:Extra
Source:
Tags:
BeatmapID:1660517
BeatmapSetID:791120

[Difficulty]
HPDrainRate:4.4
CircleSize:4.3
OverallDifficulty:7.6
ApproachRate:9.5
SliderMultiplier:1
SliderTickRate:1

[Events]
//Background and Video events
0,0,"ihavelolisinmybasementbutthecopshavenotfoundoutaboutityet.jpg",0,0
//Break Periods
//Storyboard Layer 0 (Background)
//Storyboard Layer 1 (Fail)
//Storyboard Layer 2 (Pass)
//Storyboard Layer 3 (Foreground)
//Storyboard Sound Samples

[TimingPoints]
151.061980575453,319.148936170213,4,1,0,50,1,0
16746,-76.9230769230769,4,1,0,50,0,0
20576,-70.4225352112676,4,1,0,50,0,0
29512,-64.5161290322581,4,1,0,50,0,0
30789,-70.4225352112676,4,1,0,50,0,0
39725,-60.6060606060606,4,1,0,50,0,0
40044,-37.7358490566038,4,1,0,50,0,0
40363,-60.6060606060606,4,1,0,50,0,0
41002,-82.6446280991736,4,1,0,50,0,0
45470,-74.0740740740741,4,1,0,50,0,0
45789,-64.9350649350649,4,1,0,50,0,0
46108,-58.1395348837209,4,1,0,50,0,0
49938,-54.6448087431694,4,1,0,50,0,0
51214,-58.1395348837209,4,1,0,50,0,0
55044,-62.111801242236,4,1,0,50,0,0
55682,-75.7575757575758,4,1,0,50,0,0
56321,-99.009900990099,4,1,0,50,0,0
60151,-82.6446280991736,4,1,0,50,0,0
61427,-95.2380952380952,4,1,0,50,0,0
63980,-82.6446280991736,4,1,0,50,0,0
64619,-74.6268656716418,4,1,0,50,0,0
64938,-68.0272108843537,4,1,0,50,0,0
65257,-59.8802395209581,4,1,0,50,0,0
66534,-56.8181818181818,4,1,0,50,0,0
67810,-54.3478260869565,4,1,0,50,0,0
69087,-56.8181818181818,4,1,0,50,0,0
72917,-54.3478260869565,4,1,0,50,0,0
74193,-56.8181818181818,4,1,0,50,0,0
74831,-63.2911392405063,4,1,0,50,0,0
75470,-71.9424460431655,4,1,0,50,0,0
76108,-84.0336134453781,4,1,0,50,0,0
76746,-106.382978723404,4,1,0,50,0,0
84406,-86.9565217391304,4,1,0,50,0,0
85044,-75.7575757575758,4,1,0,50,0,0
85682,-64.1025641025641,4,1,0,50,0,0
86321,-54.054054054054,4,1,0,50,0,0
86959,-47.1698113207547,4,1,0,50,0,1
104831,-46.2962962962963,4,1,0,50,0,1
106108,-43.859649122807,4,1,0,50,0,1
106746,-40.650406504065,4,1,0,50,0,1
107385,-41.8410041841004,4,1,0,50,0,1
112491,-44.0528634361233,4,1,0,50,0,1
122704,-46.2962962962963,4,1,0,50,0,1
125257,-49.5049504950495,4,1,0,50,0,1
126534,-33.5570469798658,4,1,0,50,0,1
127172,-25.1256281407035,4,1,0,50,0,1
127810,-94.3396226415094,4,1,0,50,0,0

[Colours]
Combo1 : 133,239,159
Combo2 : 133,174,243
Combo3 : 108,158,240
Combo4 : 140,240,166

[HitObjects]
256,192,16746,12,0,18661,2:0:0:0:
106,75,19459,5,8,0:2:0:0:
178,90,19619,2,0,P|210:130|209:182,1,97.4999955368044,4|0,0:3|0:0,0:0:0:0:
205,188,19938,2,0,P|201:246|243:302,1,129.999994049073,8|0,0:3|0:0,0:0:0:0:
426,187,20576,6,0,L|414:331,1,141.999992849732,4|0,0:1|3:0,0:0:0:0:
307,237,21214,1,8,3:2:0:0:
435,110,21534,2,0,L|432:184,1,70.9999964248659,4|0,3:2|3:0,0:0:0:0:
364,131,21852,5,0,3:0:0:0:
361,120,21932,1,0,0:0:0:0:
358,109,22012,2,0,L|359:64,1,35.499998212433,2|0,3:2|3:0,0:0:0:0:
354,65,22172,2,0,B|312:47|290:85|242:66,1,106.499994637299,4|0,3:0|0:0,0:0:0:0:
241,64,22491,1,8,3:2:0:0:
438,35,22810,2,0,L|441:113,1,70.9999964248659,0|0,3:0|3:0,0:0:0:0:
457,252,23129,6,0,L|312:245,1,141.999992849732,4|0,3:3|3:0,0:0:0:0:
226,171,23768,1,8,3:2:0:0:
320,58,24087,2,0,L|322:139,1,70.9999964248659,0|0,3:0|3:0,0:0:0:0:
240,73,24406,1,4,3:2:0:0:
209,67,24565,1,0,3:0:0:0:
181,62,24725,2,0,B|117:53|144:91|66:80,1,106.499994637299,4|0,3:0|0:0,0:0:0:0:
69,76,25044,1,8,3:2:0:0:
176,137,25363,2,0,L|180:215,1,70.9999964248659,0|0,3:0|3:0,0:0:0:0:
22,282,25682,6,0,L|165:290,1,141.999992849732,4|0,3:0|3:0,0:0:0:0:
260,202,26321,1,8,3:2:0:0:
164,60,26640,2,0,L|169:143,1,70.9999964248659,4|0,3:2|3:0,0:0:0:0:
74,156,26959,1,0,3:0:0:0:
82,167,27039,1,0,0:0:0:0:
91,182,27119,2,0,L|88:223,1,35.499998212433,2|0,3:2|3:0,0:0:0:0:
84,227,27278,2,0,B|70:289|110:279|97:335,1,106.499994637299,4|0,3:0|0:0,0:0:0:0:
89,342,27597,1,8,3:2:0:0:
230,238,27917,2,0,L|151:244,1,70.9999964248659,0|0,3:0|3:0,0:0:0:0:
229,133,28236,6,0,L|379:140,1,141.999992849732,4|0,3:0|3:0,0:0:0:0:
411,16,28874,1,8,3:2:0:0:
220,51,29193,2,0,L|223:127,1,70.9999964248659,0|0,3:0|3:0,0:0:0:0:
300,288,29512,6,0,B|318:246|318:246|307:172,1,116.250000886917,2|0,3:1|0:0,0:0:0:0:
298,172,29831,2,0,B|256:154|256:154|182:165,1,116.250000886917,2|0,3:1|0:0,0:0:0:0:
182,174,30151,2,0,B|164:216|164:216|175:290,1,116.250000886917,10|0,3:1|0:0,0:0:0:0:
184,290,30470,2,0,B|226:308|226:308|300:297,1,116.250000886917,2|0,3:1|0:0,0:0:0:0:
308,285,30789,6,0,L|317:139,1,141.999992849732,4|0,3:0|3:0,0:0:0:0:
239,58,31427,1,8,3:2:0:0:
84,138,31746,2,0,L|164:136,1,70.9999964248659,2|0,3:0|3:0,0:0:0:0:
175,143,32065,1,0,3:0:0:0:
132,349,32225,1,2,3:2:0:0:
124,340,32305,1,0,3:0:0:0:
115,329,32385,2,0,B|110:265|137:282|130:218,1,106.499994637299,4|0,3:0|0:0,0:0:0:0:
124,215,32704,1,8,3:2:0:0:
198,317,33023,2,0,L|280:314,1,70.9999964248659,0|0,3:0|3:0,0:0:0:0:
474,224,33342,6,0,L|326:221,1,141.999992849732,4|0,3:0|3:0,0:0:0:0:
252,138,33980,1,8,3:2:0:0:
375,38,34299,1,0,3:0:0:0:
380,76,34459,1,0,3:0:0:0:
385,114,34619,2,0,L|379:197,1,70.9999964248659,2|0,3:0|3:0,0:0:0:0:
272,242,34938,2,0,B|332:235|319:273|391:266,1,106.499994637299,4|0,3:0|0:0,0:0:0:0:
383,260,35257,1,8,3:2:0:0:
289,384,35576,2,0,L|287:309,1,70.9999964248659,0|0,3:0|3:0,0:0:0:0:
185,132,35895,6,0,L|194:279,1,141.999992849732,4|2,3:0|3:0,0:0:0:0:
113,347,36534,1,8,3:2:0:0:
59,185,36853,1,2,3:0:0:0:
70,152,37012,1,0,3:0:0:0:
81,119,37172,1,2,3:0:0:0:
137,69,37331,2,0,L|179:71,1,35.499998212433,2|0,3:2|3:0,0:0:0:0:
185,80,37491,2,0,B|246:84|222:113|283:113,1,106.499994637299,4|0,3:0|0:0,0:0:0:0:
294,103,37810,1,8,3:0:0:0:
178,229,38129,2,0,L|185:146,1,70.9999964248659,0|0,3:0|3:0,0:0:0:0:
36,315,38448,6,0,L|191:303,1,141.999992849732,4|0,3:0|3:0,0:0:0:0:
287,337,39087,1,8,3:2:0:0:
374,190,39406,2,0,L|369:273,1,70.9999964248659,0|0,3:0|3:0,0:0:0:0:
287,173,39725,6,0,B|256:115|256:115|257:38,1,123.750001180172,2|0,3:1|0:0,0:0:0:0:
271,46,40044,6,0,B|318:33|357:40|357:40|361:70|386:80|386:80|432:71|432:71|454:84,1,198.750008339882,2|0,1:1|0:0,0:0:0:0:
452,93,40363,6,0,B|459:161|459:161|445:220,1,123.750001180172,2|0,1:1|0:0,0:0:0:0:
431,222,40682,2,0,B|424:290|424:290|438:349,1,123.750001180172,2|0,1:1|0:0,0:0:0:0:
426,350,41002,6,0,L|366:346,2,60.4999982921601,2|2|2,2:0|2:0|2:0,0:0:0:0:
245,296,41480,2,0,L|305:292,2,60.4999982921601,2|2|2,2:0|2:0|2:0,0:0:0:0:
366,220,41959,2,0,L|306:216,2,60.4999982921601,2|2|2,2:0|2:0|2:0,0:0:0:0:
187,159,42438,2,0,L|247:155,2,60.4999982921601,2|2|2,2:0|2:0|2:0,0:0:0:0:
122,226,42917,5,2,2:0:0:0:
129,246,43076,1,2,2:0:0:0:
136,266,43236,1,2,2:0:0:0:
143,286,43395,1,2,2:0:0:0:
170,305,43555,6,0,L|239:313,2,60.4999982921601,2|2|2,2:0|2:0|2:0,0:0:0:0:
109,239,44034,2,0,L|40:247,2,60.4999982921601,2|2|2,2:0|2:0|2:0,0:0:0:0:
186,150,44512,2,0,L|255:158,2,60.4999982921601,2|2|2,2:0|2:0|2:0,0:0:0:0:
99,58,44991,2,0,L|30:66,2,60.4999982921601,2|2|2,2:0|2:0|2:0,0:0:0:0:
246,31,45470,6,0,L|295:36,1,33.750000128746,2|0,3:0|0:0,0:0:0:0:
289,41,45629,1,4,3:0:0:0:
187,235,45789,2,0,P|180:183|183:150,1,76.9999984725952,8|0,3:2|0:0,0:0:0:0:
376,229,46108,6,0,L|370:329,1,86.0000013122559,4|0,3:0|3:0,0:0:0:0:
294,184,46427,1,8,3:2:0:0:
301,169,46507,1,0,3:0:0:0:
308,154,46587,1,0,3:0:0:0:
365,324,46746,2,0,L|322:328,1,43.0000006561279,4|0,3:0|0:0,0:0:0:0:
307,329,46906,1,4,3:0:0:0:
181,245,47065,2,0,L|276:254,1,86.0000013122559,8|0,3:2|3:0,0:0:0:0:
123,325,47385,6,0,L|28:334,1,86.0000013122559,4|0,3:0|3:0,0:0:0:0:
91,182,47704,1,8,3:0:0:0:
205,327,47863,1,0,3:0:0:0:
17,238,48023,1,2,3:0:0:0:
13,217,48103,1,0,0:0:0:0:
9,196,48182,1,0,3:0:0:0:
149,120,48342,2,0,L|192:124,1,43.0000006561279,8|0,3:2|0:0,0:0:0:0:
207,125,48502,1,0,3:0:0:0:
48,114,48661,6,0,L|56:12,1,86.0000013122559,4|0,3:0|3:0,0:0:0:0:
102,193,48980,1,8,3:2:0:0:
107,210,49060,1,0,3:0:0:0:
112,227,49140,1,0,3:0:0:0:
215,124,49299,2,0,L|219:81,1,43.0000006561279,2|0,3:0|0:0,0:0:0:0:
222,59,49459,1,4,3:0:0:0:
57,121,49619,1,8,3:2:0:0:
194,233,49778,1,0,3:0:0:0:
230,48,49938,6,0,B|154:26|154:26|86:45,1,137.249997539234,2|0,3:1|0:0,0:0:0:0:
89,54,50257,2,0,B|67:130|67:130|86:198,1,137.249997539234,2|0,3:1|0:0,0:0:0:0:
95,195,50576,2,0,B|171:217|171:217|239:198,1,137.249997539234,2|0,3:1|0:0,0:0:0:0:
233,190,50895,2,0,B|309:168|309:168|377:187,1,137.249997539234,2|0,3:1|0:0,0:0:0:0:
372,199,51214,6,0,L|370:293,1,86.0000013122559,4|0,3:0|3:0,0:0:0:0:
213,119,51534,2,0,L|261:105,1,43.0000006561279,8|0,3:2|0:0,0:0:0:0:
279,100,51693,1,0,3:0:0:0:
192,287,51853,1,2,3:0:0:0:
185,265,51932,1,0,0:0:0:0:
178,243,52012,1,4,3:0:0:0:
287,315,52172,2,0,L|185:305,1,86.0000013122559,8|0,3:2|3:0,0:0:0:0:
0,194,52491,6,0,L|101:190,1,86.0000013122559,4|0,3:0|3:0,0:0:0:0:
140,348,52810,1,8,3:2:0:0:
122,343,52890,1,0,0:0:0:0:
104,338,52970,1,0,3:0:0:0:
86,333,53049,1,0,3:0:0:0:
68,328,53129,1,2,3:0:0:0:
92,196,53289,1,4,3:0:0:0:
235,360,53448,2,0,L|231:265,1,86.0000013122559,8|0,3:2|3:0,0:0:0:0:
293,77,53768,6,0,L|288:173,1,86.0000013122559,4|0,3:0|3:0,0:0:0:0:
479,141,54087,1,8,3:2:0:0:
458,132,54167,1,0,0:0:0:0:
437,123,54246,1,0,3:0:0:0:
416,114,54326,1,0,3:0:0:0:
395,105,54405,1,2,3:0:0:0:
446,267,54565,1,4,3:0:0:0:
464,82,54725,2,0,L|373:95,1,86.0000013122559,8|0,3:2|3:0,0:0:0:0:
256,255,55044,6,0,L|301:253,1,40.2500000614166,2|0,3:1|0:0,0:0:0:0:
326,252,55204,1,0,3:0:0:0:
172,136,55363,2,0,P|171:189|187:232,1,80.5000001228333,8|0,3:2|3:0,0:0:0:0:
290,40,55682,6,0,B|268:27|234:28|234:28|214:47|214:47|182:35|149:43|149:43|128:65|93:57|93:57|59:65,1,230.999999295044,2|0,2:2|0:0,0:0:0:0:
64,79,56321,6,0,L|58:140,3,50.4999989982605,4|0|0|0,2:3|2:3|2:3|2:3,0:0:0:0:
146,118,56959,2,0,L|152:179,3,50.4999989982605,8|0|2|0,2:3|2:3|2:3|2:3,0:0:0:0:
239,72,57597,2,0,L|233:133,3,50.4999989982605,0|0|4|0,2:3|2:3|2:3|2:3,0:0:0:0:
330,107,58236,2,0,L|336:168,3,50.4999989982605,8|0|0|0,2:3|2:3|2:3|2:3,0:0:0:0:
422,195,58874,2,0,L|428:134,3,50.4999989982605,4|0|0|0,2:3|2:3|2:3|2:3,0:0:0:0:
345,278,59512,2,0,L|339:217,3,50.4999989982605,8|0|0|0,2:3|2:3|2:3|2:3,0:0:0:0:
428,329,60151,6,0,B|381:354|381:354|323:358,1,90.7499974382401,2|0,2:3|0:0,0:0:0:0:
330,350,60470,2,0,B|277:338|277:338|230:304,1,90.7499974382401,4|0,2:3|0:0,0:0:0:0:
241,303,60789,2,0,B|188:295|188:295|132:311,1,90.7499974382401,4|0,2:3|0:0,0:0:0:0:
143,316,61108,2,0,B|90:304|90:304|43:270,1,90.7499974382401,8|0,2:3|0:0,0:0:0:0:
52,268,61427,6,0,L|60:208,3,52.4999983978272,4|0|0|0,2:3|2:3|2:3|2:3,0:0:0:0:
99,94,62065,2,0,L|107:154,3,52.4999983978272,8|0|0|0,2:3|2:3|2:3|2:3,0:0:0:0:
167,216,62704,2,0,L|159:276,3,52.4999983978272,0|2|4|0,2:3|2:3|2:3|2:3,0:0:0:0:
202,99,63342,2,0,L|194:39,3,52.4999983978272,8|0|0|0,2:3|2:3|2:3|2:3,0:0:0:0:
248,324,63980,6,0,L|253:257,1,60.4999982921601,4|0,3:3|3:3,0:0:0:0:
320,135,64299,2,0,L|325:202,1,60.4999982921601,0|2,3:3|3:3,0:0:0:0:
408,270,64619,1,2,3:3:0:0:
410,249,64698,1,0,0:0:0:0:
412,228,64778,1,4,3:3:0:0:
169,337,64938,2,0,L|249:330,1,73.4999965793611,8|0,3:2|3:3,0:0:0:0:
414,209,65257,6,0,L|324:203,1,83.4999973880769,4|0,3:3|3:3,0:0:0:0:
155,221,65576,1,8,3:2:0:0:
164,240,65656,1,0,0:0:0:0:
173,259,65736,1,0,3:3:0:0:
308,111,65895,1,2,3:3:0:0:
125,115,66055,1,4,3:1:0:0:
328,296,66214,2,0,L|334:209,1,83.4999973880769,8|0,3:2|3:3,0:0:0:0:
139,22,66534,6,0,L|134:118,1,88.0000026855469,4|0,3:1|3:3,0:0:0:0:
206,239,66853,1,8,3:2:0:0:
236,231,66932,1,0,0:0:0:0:
266,223,67012,1,2,3:3:0:0:
296,215,67092,1,0,3:3:0:0:
326,207,67172,2,0,L|370:195,1,44.0000013427735,4|0,3:3|3:3,0:0:0:0:
394,161,67331,1,4,3:3:0:0:
234,76,67491,2,0,P|232:126|246:164,1,88.0000026855469,8|0,3:2|3:3,0:0:0:0:
480,29,67810,6,0,L|377:23,1,91.9999969116212,4|0,3:3|3:3,0:0:0:0:
146,162,68129,2,0,L|249:168,1,91.9999969116212,8|0,3:2|3:3,0:0:0:0:
65,42,68448,1,2,3:3:0:0:
59,71,68528,1,0,0:0:0:0:
53,100,68608,2,0,L|41:158,1,45.9999984558106,4|0,3:3|0:0,0:0:0:0:
51,184,68768,2,0,P|77:229|119:254,1,91.9999969116212,8|0,3:2|3:3,0:0:0:0:
328,75,69087,6,0,L|224:84,1,88.0000026855469,4|0,3:3|3:3,0:0:0:0:
333,286,69406,1,8,3:2:0:0:
346,255,69486,1,0,0:0:0:0:
359,224,69565,1,2,3:3:0:0:
372,193,69645,1,0,3:3:0:0:
385,162,69725,2,0,L|405:117,1,44.0000013427735,2|0,3:3|0:0,0:0:0:0:
398,90,69885,1,4,3:3:0:0:
172,190,70044,2,0,P|223:181|262:183,1,88.0000026855469,8|0,3:2|3:3,0:0:0:0:
72,314,70363,6,0,L|75:222,1,88.0000026855469,4|0,3:3|3:3,0:0:0:0:
246,342,70682,2,0,L|193:333,1,44.0000013427735,8|0,3:2|0:0,0:0:0:0:
176,328,70842,1,0,3:3:0:0:
250,69,71002,1,2,3:3:0:0:
257,99,71081,1,0,0:0:0:0:
264,129,71161,2,0,L|277:178,1,44.0000013427735,4|0,3:3|0:0,0:0:0:0:
259,198,71321,2,0,P|222:216|174:205,1,88.0000026855469,8|0,3:2|3:3,0:0:0:0:
359,127,71640,6,0,L|457:137,1,88.0000026855469,4|0,3:3|3:3,0:0:0:0:
306,382,71959,1,8,3:2:0:0:
299,348,72039,1,0,0:0:0:0:
292,314,72119,1,2,3:3:0:0:
285,280,72198,1,0,3:3:0:0:
278,246,72278,2,0,L|268:195,1,44.0000013427735,2|0,3:3|0:0,0:0:0:0:
284,170,72438,1,4,3:3:0:0:
460,306,72597,2,0,P|416:329|374:325,1,88.0000026855469,8|0,3:2|3:3,0:0:0:0:
457,130,72917,6,0,L|457:231,1,91.9999969116212,4|0,3:3|3:3,0:0:0:0:
244,60,73235,1,8,3:2:0:0:
280,58,73315,1,0,0:0:0:0:
316,56,73395,1,0,3:3:0:0:
352,54,73475,1,0,0:0:0:0:
388,52,73555,2,0,L|438:47,1,45.9999984558106,2|0,3:3|3:3,0:0:0:0:
452,61,73714,1,4,3:3:0:0:
295,264,73874,2,0,P|272:208|276:172,1,91.9999969116212,8|0,3:2|3:3,0:0:0:0:
453,348,74193,6,0,L|356:346,1,88.0000026855469,4|2,3:3|3:3,0:0:0:0:
463,159,74512,2,0,L|449:207,1,44.0000013427735,2|0,3:3|3:3,0:0:0:0:
428,222,74672,1,2,3:3:0:0:
394,231,74752,1,0,3:3:0:0:
360,240,74831,1,2,3:3:0:0:
326,249,74911,1,0,0:0:0:0:
292,258,74991,2,0,L|250:269,1,39.5000009643555,4|0,3:3|0:0,0:0:0:0:
222,259,75151,2,0,P|206:207|216:174,1,79.000001928711,10|0,3:2|3:3,0:0:0:0:
466,265,75470,6,0,L|465:357,1,69.5000021209717,4|0,3:3|3:3,0:0:0:0:
359,225,75789,2,0,P|405:204|441:205,1,69.5000021209717,8|0,3:2|3:3,0:0:0:0:
283,332,76108,6,0,P|246:336|208:319,3,59.4999988197327,2|2|2|2,2:2|2:2|2:2|2:2,0:0:0:0:
353,268,76746,6,0,L|401:269,3,46.9999992828369,4|0|0|0,2:3|0:0|0:0|0:0,0:0:0:0:
413,183,77385,2,0,L|366:182,5,46.9999992828369,8|0|2|0|0|0,2:3|0:0|2:3|0:0|0:0|0:0,0:0:0:0:
337,89,78342,2,0,L|290:88,1,46.9999992828369,4|0,2:3|0:0,0:0:0:0:
155,140,78661,2,0,L|201:140,3,46.9999992828369,8|0|0|0,2:3|0:0|0:0|0:0,0:0:0:0:
297,227,79299,6,0,L|250:227,3,46.9999992828369,4|0|0|0,2:3|0:0|0:0|0:0,0:0:0:0:
181,299,79938,2,0,L|227:298,5,46.9999992828369,8|0|0|0|2|0,2:3|0:0|0:0|0:0|2:3|0:0,0:0:0:0:
355,351,80895,2,0,L|354:304,1,46.9999992828369,4|0,2:3|0:0,0:0:0:0:
419,213,81214,2,0,L|419:259,1,46.9999992828369,2|0,2:3|2:3,0:0:0:0:
316,134,81534,2,0,L|269:134,1,46.9999992828369,8|0,2:3|0:0,0:0:0:0:
112,197,81853,6,0,L|158:196,3,46.9999992828369,4|0|0|0,2:3|0:0|0:0|0:0,0:0:0:0:
232,272,82491,2,0,L|185:272,5,46.9999992828369,8|0|2|0|0|2,2:3|0:0|2:3|0:0|0:0|2:3,0:0:0:0:
311,192,83448,2,0,L|310:145,1,46.9999992828369,4|0,2:3|0:0,0:0:0:0:
234,79,83768,2,0,L|233:32,3,46.9999992828369,8|0|2|0,2:3|0:0|2:3|0:0,0:0:0:0:
141,177,84406,6,0,L|145:238,3,57.5000010967255,4|0|0|0,2:3|0:0|0:0|0:0,0:0:0:0:
246,25,85044,6,0,L|294:28,1,32.999999899292,2|0,2:3|0:0,0:0:0:0:
315,32,85204,1,2,2:3:0:0:
75,99,85363,2,0,L|86:19,1,65.999999798584,8|0,2:3|0:0,0:0:0:0:
254,171,85682,6,0,L|247:264,1,78.0000026184083,4|0,2:3|0:0,0:0:0:0:
59,192,86002,2,0,P|98:173|134:174,1,78.0000026184083,8|0,2:2|0:0,0:0:0:0:
104,342,86321,2,0,L|109:291,1,46.2499998235703,2|0,2:3|0:0,0:0:0:0:
114,260,86480,1,4,2:3:0:0:
346,252,86640,2,0,B|284:246|299:264|249:259,1,92.4999996471405,8|0,2:2|2:3,0:0:0:0:
172,133,86959,5,4,3:1:0:0:
197,116,87039,1,0,0:0:0:0:
227,113,87119,1,0,3:3:0:0:
255,121,87198,1,0,0:0:0:0:
277,141,87278,1,8,3:2:0:0:
304,150,87358,1,0,0:0:0:0:
333,145,87438,1,0,3:3:0:0:
358,130,87518,1,0,0:0:0:0:
373,104,87597,5,2,3:3:0:0:
376,76,87678,1,2,3:3:0:0:
367,48,87758,1,4,3:3:0:0:
348,27,87838,1,2,3:3:0:0:
319,16,87917,1,8,3:2:0:0:
289,17,87997,1,0,0:0:0:0:
265,32,88077,1,0,3:3:0:0:
247,54,88157,1,0,0:0:0:0:
241,80,88236,6,0,L|242:135,7,53.0000000808716,2|0|0|0|2|0|2|0,3:1|0:0|3:3|0:0|3:1|0:0|3:3|0:0,0:0:0:0:
205,109,88874,5,2,3:1:0:0:
168,125,88954,1,0,0:0:0:0:
143,157,89034,1,4,3:3:0:0:
138,197,89113,1,0,0:0:0:0:
153,234,89193,1,2,3:1:0:0:
186,258,89273,1,0,0:0:0:0:
226,263,89353,1,0,3:3:0:0:
263,247,89432,1,0,0:0:0:0:
287,215,89512,5,4,3:3:0:0:
287,185,89592,1,0,0:0:0:0:
274,156,89672,1,0,3:3:0:0:
274,125,89752,1,0,0:0:0:0:
286,95,89831,1,8,3:2:0:0:
311,76,89911,1,0,0:0:0:0:
341,68,89991,1,0,3:3:0:0:
372,73,90071,1,0,0:0:0:0:
399,90,90151,5,2,3:3:0:0:
414,118,90230,1,0,3:3:0:0:
416,149,90310,1,4,3:3:0:0:
406,178,90390,1,0,3:3:0:0:
385,202,90469,1,8,3:2:0:0:
354,212,90549,1,0,0:0:0:0:
322,209,90629,1,0,3:3:0:0:
294,195,90708,1,0,0:0:0:0:
276,168,90789,6,0,L|281:108,7,53.0000000808716,2|0|0|0|2|0|2|0,3:1|0:0|3:3|0:0|3:1|0:0|3:3|0:0,0:0:0:0:
267,102,91427,5,2,3:1:0:0:
235,77,91507,1,0,0:0:0:0:
194,72,91587,1,4,3:3:0:0:
156,87,91667,1,0,0:0:0:0:
131,119,91747,1,2,3:1:0:0:
125,159,91826,1,0,0:0:0:0:
140,197,91906,1,0,3:3:0:0:
172,223,91986,1,0,0:0:0:0:
213,228,92066,5,4,3:3:0:0:
245,213,92145,1,0,0:0:0:0:
279,215,92225,1,0,3:3:0:0:
307,234,92305,1,0,0:0:0:0:
322,264,92385,1,8,3:2:0:0:
320,299,92464,1,0,0:0:0:0:
301,327,92544,1,0,3:3:0:0:
270,342,92624,1,0,0:0:0:0:
236,340,92704,5,2,3:3:0:0:
208,320,92784,1,0,3:3:0:0:
192,290,92864,1,4,3:3:0:0:
194,256,92944,1,0,3:3:0:0:
213,227,93024,1,8,3:2:0:0:
215,193,93103,1,0,0:0:0:0:
200,162,93183,1,0,3:3:0:0:
171,143,93262,1,0,0:0:0:0:
139,144,93342,6,0,L|86:150,7,53.0000000808716,2|0|0|0|2|0|2|0,3:1|0:0|3:3|0:0|3:1|0:0|3:3|0:0,0:0:0:0:
75,170,93980,5,2,3:1:0:0:
97,207,94060,1,0,0:0:0:0:
135,228,94140,1,4,3:3:0:0:
179,227,94220,1,0,0:0:0:0:
216,205,94300,1,2,3:1:0:0:
253,182,94379,1,0,0:0:0:0:
296,180,94459,1,0,3:3:0:0:
334,200,94539,1,0,0:0:0:0:
357,236,94619,5,4,3:3:0:0:
355,270,94698,1,0,0:0:0:0:
336,299,94778,1,0,3:3:0:0:
304,314,94858,1,0,0:0:0:0:
270,311,94938,1,8,3:2:0:0:
241,292,95018,1,0,0:0:0:0:
226,261,95098,1,0,3:3:0:0:
228,226,95178,1,0,0:0:0:0:
248,198,95257,5,2,3:3:0:0:
268,170,95337,1,0,3:3:0:0:
272,135,95417,1,4,3:3:0:0:
257,103,95496,1,0,3:3:0:0:
229,83,95576,1,8,3:2:0:0:
194,79,95656,1,0,0:0:0:0:
163,94,95736,1,0,3:3:0:0:
142,123,95815,1,0,0:0:0:0:
139,156,95895,6,0,L|149:211,3,53.0000000808716,2|0|0|0,3:1|0:0|3:3|0:0,0:0:0:0:
185,227,96214,2,0,L|195:171,3,53.0000000808716,2|0|2|0,3:1|0:0|3:3|0:0,0:0:0:0:
226,155,96534,5,2,3:1:0:0:
268,141,96613,1,0,0:0:0:0:
312,150,96693,1,4,3:3:0:0:
345,179,96773,1,0,0:0:0:0:
359,221,96853,1,2,3:1:0:0:
350,264,96932,1,0,0:0:0:0:
320,298,97012,1,0,3:3:0:0:
279,312,97092,1,0,0:0:0:0:
235,303,97172,5,4,3:3:0:0:
212,269,97252,1,0,0:0:0:0:
209,227,97331,1,0,3:3:0:0:
227,190,97411,1,0,0:0:0:0:
262,167,97490,1,8,3:2:0:0:
279,129,97571,1,0,0:0:0:0:
275,87,97651,1,0,3:3:0:0:
250,53,97732,1,0,0:0:0:0:
212,35,97810,5,2,3:3:0:0:
171,39,97891,1,0,0:0:0:0:
136,63,97971,1,0,0:0:0:0:
119,101,98052,1,0,0:0:0:0:
122,143,98129,1,8,3:2:0:0:
147,177,98210,1,0,0:0:0:0:
185,194,98290,1,0,0:0:0:0:
227,190,98371,1,0,0:0:0:0:
268,187,98448,6,0,L|328:197,7,53.0000000808716,2|0|0|0|2|0|2|0,3:1|0:0|3:3|0:0|3:1|0:0|3:3|0:0,0:0:0:0:
353,182,99087,5,2,3:1:0:0:
384,149,99167,1,0,0:0:0:0:
395,104,99246,1,4,3:3:0:0:
381,59,99326,1,0,0:0:0:0:
347,28,99405,1,2,3:1:0:0:
302,17,99486,1,0,0:0:0:0:
258,30,99565,1,0,3:3:0:0:
227,64,99645,1,0,0:0:0:0:
216,110,99725,5,4,3:3:0:0:
221,150,99805,1,0,0:0:0:0:
245,181,99885,1,0,3:3:0:0:
281,196,99964,1,0,0:0:0:0:
303,226,100044,1,8,3:2:0:0:
308,264,100124,1,0,0:0:0:0:
293,300,100204,1,0,3:3:0:0:
262,322,100284,1,0,0:0:0:0:
224,327,100364,5,2,3:3:0:0:
189,313,100444,1,0,0:0:0:0:
166,281,100524,1,0,0:0:0:0:
161,243,100603,1,0,3:3:0:0:
176,206,100682,1,8,3:2:0:0:
171,166,100762,1,0,0:0:0:0:
146,133,100842,1,0,3:3:0:0:
108,118,100922,1,0,0:0:0:0:
66,127,101002,6,0,L|43:176,7,53.0000000808716,2|0|0|0|2|0|2|0,3:1|0:0|3:3|0:0|3:1|0:0|3:3|0:0,0:0:0:0:
55,213,101640,5,2,3:1:0:0:
85,246,101720,1,0,0:0:0:0:
128,260,101799,1,4,3:3:0:0:
172,249,101879,1,0,0:0:0:0:
204,219,101958,1,2,3:1:0:0:
236,188,102039,1,0,0:0:0:0:
279,178,102119,1,0,3:3:0:0:
320,190,102198,1,0,0:0:0:0:
351,222,102278,5,4,3:3:0:0:
352,262,102358,1,0,0:0:0:0:
332,296,102438,1,0,3:3:0:0:
298,316,102518,1,0,0:0:0:0:
258,316,102598,1,8,3:2:0:0:
223,296,102677,1,0,0:0:0:0:
203,262,102757,1,0,3:3:0:0:
203,223,102837,1,0,0:0:0:0:
223,188,102917,5,2,3:3:0:0:
257,167,102996,1,0,3:3:0:0:
297,167,103076,1,4,3:3:0:0:
330,186,103156,1,0,3:3:0:0:
363,205,103236,1,8,3:2:0:0:
401,204,103315,1,0,0:0:0:0:
433,184,103395,1,0,3:3:0:0:
451,151,103474,1,0,0:0:0:0:
450,113,103555,6,0,L|442:58,7,53.0000000808716,2|0|0|0|2|0|2|0,3:1|0:0|3:3|0:0|3:1|0:0|3:3|0:0,0:0:0:0:
398,43,104193,2,0,L|390:95,7,53.0000000808716,2|0|4|0|2|0|0|0,3:1|0:0|3:3|0:0|3:1|0:0|3:3|0:0,0:0:0:0:
355,112,104831,5,4,3:3:0:0:
304,124,104911,1,0,0:0:0:0:
256,105,104991,1,0,3:3:0:0:
208,86,105071,1,0,0:0:0:0:
155,94,105151,1,8,3:2:0:0:
120,133,105230,1,0,0:0:0:0:
110,184,105310,1,0,3:3:0:0:
134,229,105390,1,0,0:0:0:0:
179,257,105470,5,2,3:3:0:0:
231,249,105549,1,0,3:3:0:0:
272,217,105629,1,4,3:3:0:0:
323,218,105709,1,0,3:3:0:0:
361,251,105789,1,8,3:2:0:0:
369,301,105869,1,0,0:0:0:0:
342,344,105949,1,0,3:3:0:0:
297,368,106028,1,0,0:0:0:0:
248,357,106108,5,2,3:1:0:0:
214,315,106188,1,0,0:0:0:0:
210,260,106268,1,0,3:3:0:0:
238,212,106347,1,0,0:0:0:0:
265,165,106427,1,2,3:1:0:0:
261,110,106507,1,0,0:0:0:0:
225,67,106587,1,2,3:3:0:0:
172,53,106667,1,0,0:0:0:0:
119,71,106746,5,2,3:1:0:0:
92,122,106826,1,0,0:0:0:0:
103,179,106906,1,4,3:3:0:0:
149,214,106985,1,0,0:0:0:0:
207,213,107065,1,2,3:1:0:0:
248,174,107145,1,0,0:0:0:0:
258,116,107225,1,0,3:3:0:0:
302,77,107305,1,0,0:0:0:0:
359,76,107385,5,4,3:3:0:0:
399,95,107464,1,0,0:0:0:0:
423,133,107544,1,0,3:3:0:0:
425,176,107624,1,0,0:0:0:0:
405,216,107704,1,8,3:2:0:0:
367,240,107784,1,0,0:0:0:0:
323,243,107864,1,0,3:3:0:0:
284,222,107944,1,0,0:0:0:0:
260,185,108024,5,2,3:3:0:0:
235,148,108103,1,0,3:3:0:0:
194,128,108182,1,4,3:3:0:0:
150,131,108262,1,0,3:3:0:0:
112,155,108343,1,8,3:2:0:0:
92,195,108422,1,0,0:0:0:0:
95,240,108501,1,0,3:3:0:0:
119,277,108581,1,0,0:0:0:0:
160,298,108661,6,0,P|193:301|225:296,3,59.7500010940552,2|0|0|0,3:1|0:0|3:3|0:0,0:0:0:0:
227,272,108980,2,0,P|260:268|292:273,3,59.7500010940552,2|0|2|0,3:1|0:0|3:3|0:0,0:0:0:0:
298,300,109299,5,2,3:1:0:0:
344,312,109379,1,0,0:0:0:0:
389,299,109459,1,4,3:3:0:0:
422,265,109539,1,0,0:0:0:0:
433,219,109619,1,2,3:1:0:0:
420,173,109698,1,0,0:0:0:0:
386,140,109778,1,0,3:3:0:0:
340,129,109858,1,0,0:0:0:0:
295,142,109938,5,4,3:3:0:0:
264,170,110018,1,0,0:0:0:0:
223,178,110097,1,0,3:3:0:0:
183,165,110177,1,0,0:0:0:0:
155,133,110256,1,8,3:2:0:0:
146,92,110337,1,0,0:0:0:0:
159,52,110416,1,0,3:3:0:0:
191,24,110496,1,0,0:0:0:0:
232,16,110576,5,2,3:3:0:0:
271,29,110656,1,0,3:3:0:0:
299,60,110736,1,4,3:3:0:0:
307,101,110816,1,0,3:3:0:0:
293,141,110895,1,8,3:2:0:0:
263,168,110976,1,0,0:0:0:0:
250,206,111055,1,0,3:3:0:0:
258,245,111135,1,0,0:0:0:0:
284,275,111214,6,0,P|319:287|348:286,3,59.7500010940552,2|0|0|0,3:1|0:0|3:3|0:0,0:0:0:0:
350,260,111534,2,0,P|385:248|414:249,3,59.7500010940552,2|0|0|0,3:1|0:0|0:0|0:0,0:0:0:0:
428,266,111853,5,2,3:1:0:0:
437,312,111932,1,0,0:0:0:0:
414,353,112012,1,4,3:3:0:0:
370,369,112092,1,0,0:0:0:0:
325,354,112172,1,2,3:1:0:0:
301,313,112252,1,0,0:0:0:0:
277,272,112331,1,0,3:3:0:0:
232,256,112411,1,0,0:0:0:0:
187,272,112491,5,4,3:3:0:0:
169,307,112571,1,0,0:0:0:0:
135,328,112651,1,0,3:3:0:0:
95,329,112730,1,0,0:0:0:0:
60,310,112810,1,8,3:2:0:0:
38,276,112890,1,0,0:0:0:0:
37,236,112970,1,0,3:3:0:0:
56,201,113049,1,0,0:0:0:0:
90,181,113129,5,2,3:3:0:0:
129,180,113209,1,0,3:3:0:0:
163,198,113289,1,4,3:3:0:0:
201,196,113369,1,0,3:3:0:0:
233,175,113448,1,8,3:2:0:0:
250,141,113528,1,0,0:0:0:0:
248,103,113608,1,0,3:3:0:0:
227,71,113687,1,0,0:0:0:0:
193,54,113768,6,0,L|125:62,3,56.7499991773605,2|0|0|0,3:1|0:0|3:3|0:0,0:0:0:0:
121,129,114087,2,0,L|177:122,3,56.7499991773605,2|0|2|0,3:1|0:0|3:3|0:0,0:0:0:0:
216,184,114406,2,0,L|159:190,3,56.7499991773605,2|0|4|0,3:1|0:0|3:3|0:0,0:0:0:0:
141,259,114725,2,0,L|197:252,3,56.7499991773605,2|0|0|0,3:1|0:0|3:3|0:0,0:0:0:0:
219,282,115044,5,4,3:3:0:0:
259,302,115124,1,0,0:0:0:0:
303,299,115204,1,0,3:3:0:0:
340,274,115284,1,0,0:0:0:0:
359,234,115364,1,8,3:2:0:0:
356,189,115443,1,0,0:0:0:0:
331,152,115523,1,0,3:3:0:0:
291,133,115603,1,0,0:0:0:0:
247,136,115682,5,2,3:3:0:0:
210,161,115762,1,0,3:3:0:0:
191,200,115841,1,4,3:3:0:0:
155,224,115922,1,0,3:3:0:0:
111,227,116002,1,8,3:2:0:0:
72,207,116083,1,0,0:0:0:0:
47,171,116161,1,0,3:3:0:0:
44,127,116242,1,0,0:0:0:0:
64,88,116321,6,0,P|95:77|130:80,3,56.7499991773605,2|0|0|0,3:1|0:0|3:3|0:0,0:0:0:0:
133,95,116640,2,0,P|159:105|187:105,3,56.7499991773605,2|0|2|0,3:1|0:0|3:3|0:0,0:0:0:0:
204,86,116959,5,2,3:1:0:0:
250,65,117039,1,0,0:0:0:0:
300,69,117119,1,4,3:3:0:0:
341,98,117198,1,0,0:0:0:0:
362,143,117278,1,2,3:1:0:0:
357,193,117358,1,0,0:0:0:0:
328,234,117438,1,0,3:3:0:0:
283,255,117517,1,0,0:0:0:0:
233,251,117597,5,4,3:3:0:0:
200,228,117677,1,0,0:0:0:0:
159,224,117757,1,0,3:3:0:0:
122,241,117837,1,0,0:0:0:0:
98,274,117917,1,8,3:2:0:0:
94,314,117996,1,0,0:0:0:0:
111,351,118076,1,0,3:3:0:0:
144,375,118156,1,0,0:0:0:0:
185,379,118236,5,2,3:3:0:0:
221,362,118315,1,0,3:3:0:0:
245,329,118395,1,4,3:3:0:0:
269,296,118475,1,0,3:3:0:0:
306,279,118555,1,8,3:2:0:0:
346,282,118635,1,0,0:0:0:0:
379,304,118714,1,0,3:3:0:0:
418,306,118794,1,0,0:0:0:0:
452,288,118874,6,0,P|465:259|463:231,3,56.7499991773605,2|0|0|0,3:1|0:0|3:3|0:0,0:0:0:0:
438,221,119193,2,0,P|425:192|427:164,3,56.7499991773605,2|0|2|0,3:1|0:0|3:3|0:0,0:0:0:0:
453,145,119512,5,2,3:1:0:0:
453,93,119592,1,0,0:0:0:0:
427,47,119672,1,4,3:3:0:0:
381,21,119752,1,0,0:0:0:0:
329,21,119832,1,2,3:1:0:0:
283,47,119911,1,0,0:0:0:0:
257,92,119991,1,0,3:3:0:0:
257,145,120071,1,0,0:0:0:0:
283,190,120151,5,4,3:3:0:0:
317,209,120230,1,0,0:0:0:0:
336,242,120310,1,0,3:3:0:0:
336,280,120390,1,0,0:0:0:0:
317,313,120470,1,8,3:2:0:0:
283,332,120549,1,0,0:0:0:0:
245,332,120629,1,0,3:3:0:0:
212,313,120709,1,0,0:0:0:0:
193,280,120789,5,2,3:3:0:0:
192,241,120869,1,0,3:3:0:0:
212,208,120949,1,4,3:3:0:0:
212,169,121028,1,0,3:3:0:0:
193,135,121108,1,8,3:2:0:0:
159,115,121187,1,0,0:0:0:0:
120,115,121268,1,0,3:3:0:0:
86,134,121348,1,0,0:0:0:0:
66,168,121427,6,0,P|61:208|68:236,3,56.7499991773605,2|0|0|0,3:1|0:0|3:3|0:0,0:0:0:0:
86,233,121746,2,0,P|91:273|84:301,3,56.7499991773605,2|0|2|0,3:1|0:0|3:3|0:0,0:0:0:0:
60,312,122065,5,2,3:1:0:0:
101,342,122145,1,0,0:0:0:0:
151,347,122225,1,4,3:3:0:0:
197,326,122305,1,0,0:0:0:0:
226,285,122385,1,2,3:1:0:0:
271,263,122464,1,0,0:0:0:0:
321,267,122544,1,0,3:3:0:0:
362,295,122623,1,0,0:0:0:0:
403,323,122704,6,0,B|434:322|434:322|463:300,3,54.0000013183594,4|0|0|0,3:3|0:0|3:3|0:0,0:0:0:0:
410,242,123023,2,0,B|411:211|411:211|433:182,3,54.0000013183594,8|0|0|0,3:2|0:0|3:3|0:0,0:0:0:0:
338,201,123342,2,0,B|337:170|337:170|315:141,3,54.0000013183594,2|0|4|0,3:3|3:3|3:3|3:3,0:0:0:0:
258,212,123661,2,0,B|259:243|259:243|281:272,3,54.0000013183594,8|0|0|0,3:2|0:0|3:3|0:0,0:0:0:0:
202,302,123980,6,0,L|145:297,3,54.0000013183594,2|0|0|0,3:1|0:0|3:3|0:0,0:0:0:0:
71,238,124299,2,0,L|128:233,3,54.0000013183594,2|0|2|0,3:1|0:0|3:3|0:0,0:0:0:0:
226,180,124619,2,0,L|169:175,3,54.0000013183594,2|0|4|0,3:1|0:0|3:3|0:0,0:0:0:0:
39,141,124938,2,0,L|96:136,3,54.0000013183594,2|0|0|0,3:1|0:0|3:3|0:0,0:0:0:0:
147,48,125257,6,0,P|155:72|154:101,7,50.4999989982605,4|0|0|0|0|0|0|0,3:3|0:0|3:3|0:0|0:0|0:0|3:3|0:0,0:0:0:0:
231,116,125895,2,0,P|223:140|224:169,7,50.4999989982605,2|0|4|0|8|0|0|0,3:3|3:3|3:3|3:3|3:2|0:0|3:3|0:0,0:0:0:0:
311,82,126534,6,0,L|349:77,14,37.249997982216,2|0|0|0|0|0|0|0|2|0|0|0|2|0|0,3:1|0:0|0:0|0:0|3:3|0:0|0:0|0:0|3:1|0:0|0:0|0:0|3:3|0:0|0:0,0:0:0:0:
359,155,127172,6,0,B|368:178|368:178|357:204,14,49.7500012335778,2|0|0|0|4|0|0|0|2|0|0|0|0|0|0,3:1|0:0|0:0|0:0|3:3|0:0|0:0|0:0|3:1|0:0|0:0|0:0|3:3|0:0|0:0,0:0:0:0:
256,192,127810,12,0,129087,2:0:0:0:
