osu file format v14

[General]
AudioFilename: audio.mp3
AudioLeadIn: 0
PreviewTime: 44831
Countdown: 0
SampleSet: Soft
StackLeniency: 0.7
Mode: 0
LetterboxInBreaks: 0
WidescreenStoryboard: 0

[Editor]
Bookmarks: 66533,66693,66853,67012,86959
DistanceSpacing: 1.4
BeatDivisor: 4
GridSize: 16
TimelineZoom: 1

[Metadata]
Title:Sidetracked Day (helix Remix) (Short ver.)
TitleUnicode:Sidetracked Day (helix Remix) (Short ver.)
Artist:VINXIS / Luis Fonsi
ArtistUnicode:VINXIS / Luis Fonsi
Creator:kirbob
Version:Darcobe's Normal
Source:
Tags:
BeatmapID:1660664
BeatmapSetID:791120

[Difficulty]
HPDrainRate:3.4
CircleSize:3
OverallDifficulty:4
ApproachRate:6.2
SliderMultiplier:1.4
SliderTickRate:1

[Events]
//Background and Video events
0,0,"ihavelolisinmybasementbutthecopshavenotfoundoutaboutityet.jpg",0,0
//Break Periods
2,40882,45088
//Storyboard Layer 0 (Background)
//Storyboard Layer 1 (Fail)
//Storyboard Layer 2 (Pass)
//Storyboard Layer 3 (Foreground)
//Storyboard Sound Samples

[TimingPoints]
151,319.148936170213,4,2,0,100,1,0
20576,-200,4,2,0,100,0,0

[Colours]
Combo1 : 74,134,255
Combo2 : 128,128,255
Combo3 : 255,128,255
Combo4 : 255,128,64

[HitObjects]
112,160,20576,6,0,P|176:112|240:128,1,140,4|8,0:1|3:2,0:0:0:0:
320,160,21533,1,4,3:2:0:0:
400,208,21853,2,0,L|384:288,1,70,0|4,3:0|3:0,0:0:0:0:
288,288,22491,1,8,3:2:0:0:
192,304,22810,1,0,3:0:0:0:
144,224,23129,6,0,P|128:144|176:112,1,140,4|8,3:3|3:2,0:0:0:0:
272,112,24087,1,0,3:0:0:0:
368,112,24406,2,0,L|400:176,1,70,4|4,3:2|3:0,0:0:0:0:
352,256,25044,1,8,3:2:0:0:
256,304,25363,1,0,3:0:0:0:
160,272,25682,6,0,L|96:224,2,70,4|0|8,3:0|3:0|3:2,0:0:0:0:
240,336,26640,1,4,3:2:0:0:
320,272,26959,2,0,L|384:224,1,70,0|4,3:0|3:0,0:0:0:0:
416,144,27597,1,8,3:2:0:0:
320,96,27916,1,0,3:0:0:0:
224,128,28236,6,0,P|144:160|112:208,1,140,4|8,3:0|3:2,0:0:0:0:
80,288,29193,1,0,3:0:0:0:
176,320,29512,1,2,3:1:0:0:
272,320,29831,1,2,3:1:0:0:
368,288,30151,1,10,3:1:0:0:
432,208,30470,1,2,3:1:0:0:
368,128,30789,6,0,P|288:96|224:96,1,140,4|8,3:0|3:2,0:0:0:0:
144,128,31746,1,2,3:0:0:0:
96,208,32065,2,0,L|96:288,1,70,0|4,3:0|3:0,0:0:0:0:
192,304,32704,1,8,3:2:0:0:
288,320,33023,1,0,3:0:0:0:
352,240,33342,6,0,P|400:176|368:128,1,140,4|8,3:0|3:2,0:0:0:0:
304,64,34299,1,0,3:0:0:0:
208,64,34619,2,0,L|144:96,1,70,2|4,3:0|3:0,0:0:0:0:
64,144,35257,1,8,3:2:0:0:
64,240,35576,1,0,3:0:0:0:
160,272,35895,6,0,L|240:288,2,70,4|2|8,3:0|3:0|3:2,0:0:0:0:
64,240,36853,1,2,3:0:0:0:
112,160,37172,2,0,L|176:112,1,70,2|4,3:0|3:0,0:0:0:0:
256,160,37810,1,8,3:0:0:0:
336,208,38129,1,0,3:0:0:0:
272,288,38448,6,0,P|192:320|128:304,1,140,4|8,3:0|3:2,0:0:0:0:
64,240,39406,1,0,3:0:0:0:
144,176,39725,1,2,3:1:0:0:
224,112,40044,1,2,1:1:0:0:
304,48,40363,1,2,1:1:0:0:
400,48,40682,1,2,1:1:0:0:
96,192,46108,6,0,L|160:144,1,70,4|8,3:0|3:2,0:0:0:0:
240,96,46746,1,4,3:0:0:0:
336,128,47065,2,0,L|400:176,1,70,8|4,3:2|3:0,0:0:0:0:
480,224,47704,1,8,3:0:0:0:
432,320,48023,1,2,3:0:0:0:
336,320,48342,2,0,L|256:320,2,70,8|4|8,3:2|3:0|3:2,0:0:0:0:
432,320,49299,5,2,3:0:0:0:
432,224,49619,1,8,3:2:0:0:
400,128,49938,2,0,L|320:112,2,70,2|2|2,3:1|3:1|3:1,0:0:0:0:
496,144,50895,1,2,3:1:0:0:
432,208,51214,1,4,3:0:0:0:
352,256,51533,2,0,L|272:256,1,70,8|2,3:2|3:0,0:0:0:0:
176,256,52172,5,8,3:2:0:0:
112,192,52491,1,4,3:0:0:0:
160,112,52810,2,0,L|224:64,2,70,8|2|8,3:2|3:0|3:2,0:0:0:0:
80,176,53768,1,4,3:0:0:0:
144,256,54087,1,8,3:2:0:0:
224,320,54406,1,2,3:0:0:0:
320,320,54725,1,8,3:2:0:0:
384,256,55044,6,0,L|432:192,2,70,2|8|2,3:1|3:2|2:2,0:0:0:0:
320,336,56002,1,2,2:2:0:0:
256,256,56321,6,0,L|192:128,2,140,4|8|0,2:3|2:3|2:3,0:0:0:0:
304,336,57916,1,4,2:3:0:0:
368,272,58236,2,0,L|416:208,1,70,8|0,2:3|2:3,0:0:0:0:
464,128,58874,2,0,L|400:80,1,70,4|0,2:3|2:3,0:0:0:0:
352,0,59512,2,0,L|320:64,1,70,8|0,2:3|2:3,0:0:0:0:
272,144,60151,2,0,L|224:208,3,70,2|4|4|8,2:3|2:3|2:3|2:3,0:0:0:0:
176,272,61427,6,0,L|80:384,2,140,4|8|0,2:3|2:3|2:3,0:0:0:0:
240,192,63023,1,4,2:3:0:0:
304,112,63342,2,0,L|384:128,1,70,8|0,2:3|2:3,0:0:0:0:
464,144,63980,1,4,3:3:0:0:
416,224,64299,1,0,3:3:0:0:
336,288,64619,2,0,L|288:288,1,35,2|4,3:3|3:3,0:0:0:0:
256,288,64938,2,0,L|208:288,1,35,8|0,3:2|3:3,0:0:0:0:
176,288,65257,2,0,L|96:288,2,70,4|8|2,3:3|3:2|3:3,0:0:0:0:
176,96,66533,6,0,L|256:96,2,70,4|8|4,3:1|3:2|3:3,0:0:0:0:
96,144,67491,2,0,L|96:224,1,70,8|4,3:2|3:3,0:0:0:0:
144,304,68129,2,0,L|224:304,1,70,8|2,3:2|3:3,0:0:0:0:
320,304,68768,1,8,3:2:0:0:
400,240,69087,6,0,L|400:160,2,70,4|8|2,3:3|3:2|3:3,0:0:0:0:
352,320,70044,2,0,L|272:320,1,70,8|4,3:2|3:3,0:0:0:0:
192,272,70682,2,0,L|160:192,1,70,8|2,3:2|3:3,0:0:0:0:
128,112,71321,1,8,3:2:0:0:
224,112,71640,6,0,L|304:112,1,70,4|8,3:3|3:2,0:0:0:0:
384,144,72278,2,0,L|368:224,1,70,2|8,3:3|3:2,0:0:0:0:
304,288,72916,1,4,3:3:0:0:
208,272,73236,1,8,3:2:0:0:
144,192,73555,2,0,L|144:112,1,70,2|8,3:3|3:2,0:0:0:0:
240,144,74193,2,0,L|304:192,2,70,4|2|2,3:3|3:3|3:3,0:0:0:0:
144,128,75151,2,0,L|144:208,1,70,10|4,3:2|3:3,0:0:0:0:
144,288,75789,1,8,3:2:0:0:
240,288,76108,2,0,L|288:272,3,35,2|2|2|2,2:2|2:2|2:2|2:2,0:0:0:0:
320,256,76746,6,0,L|352:112,2,140,4|8|0,2:3|2:3|0:0,0:0:0:0:
288,352,78342,1,4,2:3:0:0:
208,288,78661,1,8,2:3:0:0:
288,224,78980,1,0,0:0:0:0:
352,288,79299,6,0,L|416:160,2,140,4|8|2,2:3|2:3|2:3,0:0:0:0:
256,320,80895,2,0,L|176:288,1,70,4|2,2:3|2:3,0:0:0:0:
144,208,81533,2,0,L|192:144,1,70,8|4,2:3|2:3,0:0:0:0:
256,80,82172,1,0,0:0:0:0:
336,128,82491,2,0,L|384:192,1,70,8|2,2:3|2:3,0:0:0:0:
378,184,83129,6,0,L|336:320,2,140,0|8|4,0:0|2:3|2:3,0:0:0:0:
400,96,84725,2,0,L|320:96,1,70,0|2,0:0|2:3,0:0:0:0:
240,128,85363,1,8,2:3:0:0:
208,224,85682,2,0,L|208:272,7,35,4|0|8|0|2|4|8|0,2:3|0:0|2:2|0:0|2:3|2:3|2:2|2:3,0:0:0:0:
256,272,86959,6,0,L|336:240,1,70,4|8,3:1|3:2,0:0:0:0:
384,160,87597,1,2,3:3:0:0:
336,80,87916,1,8,3:2:0:0:
240,96,88236,6,0,L|192:160,1,70,2|2,3:1|3:1,0:0:0:0:
160,240,88874,2,0,L|192:304,1,70,2|2,3:1|3:1,0:0:0:0:
288,320,89512,6,0,L|352:272,1,70,4|8,3:3|3:2,0:0:0:0:
384,192,90151,1,2,3:3:0:0:
320,112,90470,1,8,3:2:0:0:
224,128,90789,6,0,L|144:160,1,70,2|2,3:1|3:1,0:0:0:0:
80,224,91427,1,2,3:1:0:0:
144,288,91746,1,2,3:1:0:0:
240,288,92065,6,0,L|304:256,2,70,4|8|2,3:3|3:2|3:3,0:0:0:0:
144,272,93023,1,8,3:2:0:0:
144,176,93342,1,2,3:1:0:0:
208,112,93661,1,2,3:1:0:0:
304,96,93980,6,0,L|384:96,1,70,2|2,3:1|3:1,0:0:0:0:
464,144,94619,1,4,3:3:0:0:
448,240,94938,1,8,3:2:0:0:
400,320,95257,2,0,L|320:320,1,70,2|8,3:3|3:2,0:0:0:0:
240,288,95895,1,2,3:1:0:0:
144,240,96214,1,2,3:1:0:0:
96,160,96533,6,0,L|96:80,2,70,2|2|4,3:1|3:1|3:3,0:0:0:0:
96,256,97491,1,8,3:2:0:0:
192,304,97810,2,0,L|272:304,1,70,2|8,3:3|3:2,0:0:0:0:
352,272,98448,1,2,3:1:0:0:
384,176,98768,1,2,3:1:0:0:
352,80,99087,6,0,L|272:96,1,70,2|0,3:1|0:0,0:0:0:0:
192,112,99725,1,4,3:3:0:0:
128,192,100044,1,8,3:2:0:0:
96,288,100363,2,0,L|176:304,1,70,2|8,3:3|3:2,0:0:0:0:
256,304,101002,1,2,3:1:0:0:
352,272,101321,1,2,3:1:0:0:
416,192,101640,6,0,L|400:112,1,70,2|2,3:1|3:1,0:0:0:0:
320,64,102278,2,0,L|240:80,1,70,4|8,3:3|3:2,0:0:0:0:
176,128,102916,2,0,L|144:192,1,70,2|8,3:3|3:2,0:0:0:0:
128,288,103555,1,2,3:1:0:0:
224,320,103874,1,2,3:1:0:0:
320,336,104193,2,0,L|400:320,1,70,2|2,3:1|3:1,0:0:0:0:
432,240,104831,2,0,L|448:160,1,70,4|8,3:3|3:2,0:0:0:0:
416,80,105470,2,0,L|336:96,1,70,2|8,3:3|3:2,0:0:0:0:
256,128,106108,1,2,3:1:0:0:
160,176,106427,1,2,3:1:0:0:
144,272,106587,5,2,3:3:0:0:
144,272,106746,2,0,L|224:304,1,70,2|2,3:1|3:1,0:0:0:0:
304,304,107385,1,4,3:3:0:0:
400,272,107704,1,8,3:2:0:0:
432,176,107863,5,0,3:3:0:0:
432,176,108023,2,0,L|416:96,1,70,2|8,3:3|3:2,0:0:0:0:
336,48,108661,1,2,3:1:0:0:
240,80,108980,1,2,3:1:0:0:
176,128,109140,5,2,3:3:0:0:
176,128,109299,2,0,L|160:208,1,70,2|2,3:1|3:1,0:0:0:0:
176,288,109938,1,4,3:3:0:0:
272,304,110257,1,8,3:2:0:0:
336,224,110416,5,0,3:3:0:0:
336,224,110576,2,0,L|368:160,1,70,2|8,3:3|3:2,0:0:0:0:
368,64,111214,1,2,3:1:0:0:
272,48,111533,1,2,3:1:0:0:
192,112,111693,1,2,3:3:0:0:
192,112,111853,2,0,L|160:176,2,70,2|0|0,3:1|0:0|0:0,0:0:0:0:
272,64,112810,1,8,3:2:0:0:
368,96,112970,5,0,3:3:0:0:
368,96,113129,2,0,L|400:160,1,70,2|8,3:3|3:2,0:0:0:0:
416,256,113768,1,2,3:1:0:0:
336,320,114087,1,2,3:1:0:0:
240,304,114406,6,0,L|160:272,1,70,2|2,3:1|3:1,0:0:0:0:
112,208,115044,2,0,L|96:128,1,70,4|8,3:3|3:2,0:0:0:0:
128,48,115682,2,0,L|208:80,1,70,2|8,3:3|3:2,0:0:0:0:
272,128,116321,1,2,3:1:0:0:
352,192,116640,1,2,3:1:0:0:
384,288,116959,6,0,L|320:320,1,70,2|2,3:1|3:1,0:0:0:0:
224,336,117597,2,0,L|144:320,1,70,4|8,3:3|3:2,0:0:0:0:
80,256,118236,1,2,3:3:0:0:
80,160,118555,1,8,3:2:0:0:
160,96,118874,2,0,L|240:112,1,70,2|2,3:1|3:1,0:0:0:0:
304,160,119512,1,2,3:1:0:0:
384,224,119831,1,2,3:1:0:0:
304,288,119991,5,0,3:3:0:0:
304,288,120151,2,0,L|224:304,1,70,4|0,3:3|0:0,0:0:0:0:
144,304,120789,2,0,L|64:272,1,70,2|8,3:3|3:2,0:0:0:0:
16,208,121427,2,0,L|48:128,1,70,2|2,3:1|3:1,0:0:0:0:
112,80,122065,1,2,3:1:0:0:
208,80,122385,1,2,3:1:0:0:
304,128,122704,6,0,L|272:160,32,35,4|0|0|0|2|4|8|0|2|0|2|0|2|4|0|0|0|0|0|0|2|0|8|0|2|0|2|2|2|4|2|0|2,3:3|3:3|0:0|3:3|3:3|3:3|3:2|0:0|3:1|0:0|3:1|0:0|3:1|3:3|0:0|3:3|0:0|3:3|0:0|3:3|3:3|0:0|3:2|0:0|3:1|3:3|3:1|3:3|3:1|3:3|3:1|3:3|3:1,0:0:0:0:
