osu file format v14

[General]
AudioFilename: audio.mp3
AudioLeadIn: 0
PreviewTime: -1
Countdown: 0
SampleSet: None
StackLeniency: 0.7
Mode: 0
LetterboxInBreaks: 0
WidescreenStoryboard: 1

[Editor]
DistanceSpacing: 2
BeatDivisor: 4
GridSize: 32
TimelineZoom: 8

[Metadata]
Title:Saddaynight
TitleUnicode:Saddaynight
Artist:VILUSII
ArtistUnicode:VILUSII
Creator:dima4e4a
Version:test
Source:
Tags:
BeatmapID:2195226
BeatmapSetID:1050240

[Difficulty]
HPDrainRate:5
CircleSize:4
OverallDifficulty:9
ApproachRate:9
SliderMultiplier:1.9
SliderTickRate:1

[Events]
//Background and Video events
0,0,"UjyGEF.jpg",0,0
//Break Periods
//Storyboard Layer 0 (Background)
//Storyboard Layer 1 (Fail)
//Storyboard Layer 2 (Pass)
//Storyboard Layer 3 (Foreground)
//Storyboard Layer 4 (Overlay)
//Storyboard Sound Samples

[TimingPoints]
10,375,4,2,0,32,1,0
12010,-66.6666666666667,4,2,0,32,0,0
12385,-100,4,2,0,32,0,0
14260,-100,4,2,0,32,0,0
15010,-66.6666666666667,4,2,0,32,0,0
15572,-100,4,2,0,32,0,0
18010,-66.6666666666667,4,2,0,32,0,0
18572,-100,4,2,0,32,0,0
21010,-66.6666666666667,4,2,0,32,0,0
22510,-100,4,2,0,32,0,0
26635,-133.333333333333,4,2,0,32,0,0
27010,-100,4,2,0,32,0,0
29072,-100,4,2,0,32,0,0
29260,-66.6666666666667,4,2,0,32,0,0
29635,-100,4,2,0,32,0,0
47260,-200,4,2,0,32,0,0
47916,-100,4,2,0,32,0,0
83260,-200,4,2,0,32,0,0
83635,-100,4,2,0,32,0,0
84385,-200,4,2,0,32,0,0

[HitObjects]
393,157,10,6,0,P|330:184|246:106,1,190
140,304,1135,2,0,P|205:264|201:228,1,95
265,381,1510,2,0,P|269:304|303:291,1,95
474,330,3010,6,0,P|433:262|486:157,1,190
312,177,4135,2,0,P|357:132|341:83,1,95
459,104,4510,2,0,P|414:59|430:10,1,95
295,308,5260,6,0,P|259:349|170:289,1,142.5
177,293,5635,2,0,P|227:238|185:186,1,142.5
295,308,6010,2,0,P|378:343|468:263,1,190
295,308,6572,1,0,0:0:0:0:
45,42,7510,5,0,0:0:0:0:
99,173,7697,1,0,0:0:0:0:
217,119,7885,2,0,P|169:122|124:90,1,95
55,193,8260,2,0,P|114:220|148:209,1,95
263,145,8635,2,0,P|322:118|356:129,1,95
480,179,9010,1,0,0:0:0:0:
480,179,9572,5,0,0:0:0:0:
28,353,10510,5,0,0:0:0:0:
92,226,10697,1,0,0:0:0:0:
268,295,10885,2,0,P|217:303|170:280,1,95
46,161,11260,2,0,P|103:147|157:175,1,95
199,322,11635,2,0,P|270:341|333:311,1,142.5
270,235,12010,2,0,P|327:210|406:368,1,285.000010871888
330,313,12572,5,0,0:0:0:0:
460,63,12947,1,0,0:0:0:0:
397,222,13135,1,0,0:0:0:0:
460,63,13322,1,0,0:0:0:0:
366,135,13510,2,0,L|325:179,1,47.5
241,168,13697,2,0,L|203:119,1,47.5
297,53,13885,2,0,P|339:43|399:55,1,95
485,240,14260,2,0,P|443:250|378:217,1,95
435,82,14635,6,0,P|456:135|440:177,1,95
239,325,15010,6,0,P|205:239|311:98,1,285.000010871888
345,231,15572,5,0,0:0:0:0:
132,54,15947,1,0,0:0:0:0:
166,195,16135,1,0,0:0:0:0:
132,54,16322,1,0,0:0:0:0:
132,54,16416,1,0,0:0:0:0:
132,54,16510,2,0,L|172:100,1,47.5
135,160,16697,2,0,L|175:206,1,47.5
138,284,16885,2,0,L|178:330,1,47.5
302,373,17260,6,0,P|332:318|307:263,1,95
381,127,17635,2,0,P|377:86|415:41,1,95
477,159,18010,2,0,P|381:221|279:106,1,285.000010871888
259,18,18572,1,0,0:0:0:0:
278,115,18947,5,0,0:0:0:0:
118,128,19135,1,0,0:0:0:0:
242,244,19322,1,0,0:0:0:0:
363,264,19510,2,0,L|376:207,1,47.5
435,181,19697,2,0,L|448:124,1,47.5
501,89,19885,1,0,0:0:0:0:
288,24,20260,6,0,P|229:31|191:80,1,95
155,201,20635,2,0,P|114:278|77:289,1,95
203,53,21010,6,0,P|254:162|212:318,1,285.000010871888
292,335,21572,1,0,0:0:0:0:
391,87,21947,5,0,0:0:0:0:
275,171,22135,1,0,0:0:0:0:
417,227,22322,1,0,0:0:0:0:
417,227,22416,1,0,0:0:0:0:
417,227,22510,2,0,L|472:200,1,47.5
391,87,22697,2,0,L|348:64,1,47.5
275,171,22885,1,0,0:0:0:0:
417,227,23260,6,0,P|401:286|335:320,1,95
195,311,23635,2,0,P|152:265|139:211,1,95
175,76,24010,2,0,P|221:117|241:180,1,95
312,241,24572,6,0,L|349:291,1,47.5
380,339,24760,1,0,0:0:0:0:
299,221,24947,1,0,0:0:0:0:
143,134,25135,1,0,0:0:0:0:
282,162,25322,1,0,0:0:0:0:
181,264,25510,2,0,L|137:233,1,47.5
143,134,25697,2,0,L|197:114,1,47.5
282,162,25885,1,0,0:0:0:0:
181,264,26260,6,0,P|163:325|194:370,1,95
181,354,26635,2,0,P|194:303|176:259,1,95
100,133,27010,2,0,P|51:77|49:16,1,95
166,65,27572,5,0,0:0:0:0:
199,202,27760,1,0,0:0:0:0:
166,65,27947,1,0,0:0:0:0:
199,202,28135,1,0,0:0:0:0:
272,80,28322,1,0,0:0:0:0:
272,80,28416,1,0,0:0:0:0:
272,80,28510,1,0,0:0:0:0:
199,202,28697,5,0,0:0:0:0:
287,310,28885,1,0,0:0:0:0:
425,348,29072,1,0,0:0:0:0:
476,139,29260,2,0,P|422:191|353:159,1,142.500005435944
247,91,29635,6,0,P|183:71|125:127,1,142.5
102,236,30010,1,0,0:0:0:0:
28,355,30572,1,0,0:0:0:0:
140,266,30760,2,0,P|83:274|46:247,1,95
116,171,31135,1,0,0:0:0:0:
31,110,31322,1,0,0:0:0:0:
128,70,31510,2,0,L|191:79,1,47.5
294,135,31697,2,0,L|235:128,1,47.5
116,171,31885,1,0,0:0:0:0:
303,251,32260,6,0,P|360:271|402:242,1,95
473,250,32635,2,0,P|422:272|378:245,1,95
221,174,33010,2,0,P|278:154|320:183,1,95
473,250,33572,5,0,0:0:0:0:
221,174,33760,1,0,0:0:0:0:
388,202,33947,1,0,0:0:0:0:
306,167,34135,1,0,0:0:0:0:
292,317,34322,1,0,0:0:0:0:
292,317,34416,1,0,0:0:0:0:
292,317,34510,2,0,L|359:337,1,47.5
366,261,34697,2,0,L|433:281,1,47.5
409,344,34885,2,0,L|476:364,1,47.5
493,297,35072,5,0,0:0:0:0:
103,177,35260,2,0,P|177:157|191:122,1,95
184,207,35635,2,0,P|109:187|95:152,1,95
184,144,36010,2,0,P|252:151|294:195,1,95
389,50,36385,6,0,P|435:100|495:107,1,95
354,309,36760,2,0,P|291:337|244:303,1,95
272,165,37135,2,0,P|209:137|162:171,1,95
13,224,37510,2,0,P|63:272|115:288,1,95
195,149,37885,2,0,P|145:197|93:213,1,95
29,40,38260,2,0,P|79:88|131:104,1,95
278,170,38635,2,0,L|326:140,1,47.5
374,221,38822,2,0,L|418:260,1,47.5
343,322,39010,2,0,P|289:339|246:303,1,95
93,226,39385,6,0,P|151:247|197:216,1,95
442,58,39760,2,0,P|384:79|338:48,1,95
107,136,40135,6,0,P|165:157|211:126,1,95
229,107,40416,1,0,0:0:0:0:
270,77,40510,6,0,P|328:56|374:87,1,95
416,212,40885,6,0,L|419:319,1,95
336,241,41260,2,0,L|334:138,1,95
243,196,41635,1,0,0:0:0:0:
243,196,41822,1,0,0:0:0:0:
123,251,42010,2,0,L|125:148,1,95
38,207,42385,2,0,L|39:311,1,95
211,269,42760,6,0,L|267:307,1,47.5
317,271,42947,1,0,0:0:0:0:
334,129,43135,6,0,L|268:172,1,47.5
232,118,43322,1,0,0:0:0:0:
317,271,43510,6,0,L|383:314,1,47.5
419,260,43697,1,0,0:0:0:0:
232,118,43885,6,0,L|166:161,1,47.5
130,107,44072,1,0,0:0:0:0:
317,271,44260,6,0,L|251:228,1,47.5
215,282,44447,1,0,0:0:0:0:
230,118,44635,6,0,L|272:82,1,47.5
317,149,44822,2,0,L|355:184,1,47.5
425,144,45010,2,0,P|443:198|414:248,1,95
235,205,45385,2,0,P|217:151|246:101,1,95
235,205,45760,6,0,L|188:243,1,47.5
123,202,45947,1,0,0:0:0:0:
317,149,46135,6,0,L|364:187,1,47.5
417,220,46322,1,0,0:0:0:0:
355,265,46510,1,0,0:0:0:0:
280,249,46697,1,0,0:0:0:0:
317,149,46885,1,0,0:0:0:0:
280,249,47072,1,0,0:0:0:0:
353,333,47260,6,0,P|417:365|481:333,1,142.5
417,280,48010,6,0,L|417:184,1,95
287,63,48385,2,0,L|287:191,1,95
320,288,48760,5,0,0:0:0:0:
192,192,48947,1,0,0:0:0:0:
320,64,49135,1,0,0:0:0:0:
448,192,49322,1,0,0:0:0:0:
320,288,49510,2,0,L|192:288,1,95
64,192,49885,6,0,L|160:192,1,95
160,64,50260,5,0,0:0:0:0:
320,192,50447,1,0,0:0:0:0:
160,320,50635,1,0,0:0:0:0:
64,192,50822,1,0,0:0:0:0:
160,320,50916,1,0,0:0:0:0:
160,320,51010,2,0,B|224:256|224:256|192:224|192:224,1,95
320,96,51385,6,0,L|224:96,1,95
32,160,51760,2,0,L|128:160,1,95
192,160,52135,1,0,0:0:0:0:
288,320,52322,5,0,0:0:0:0:
288,256,52416,1,0,0:0:0:0:
288,192,52510,1,0,0:0:0:0:
192,256,52697,1,0,0:0:0:0:
384,192,52885,1,0,0:0:0:0:
192,192,53072,1,0,0:0:0:0:
352,96,53260,2,0,L|448:128,1,95
160,96,53635,1,0,0:0:0:0:
256,96,53822,1,0,0:0:0:0:
256,96,53916,1,0,0:0:0:0:
256,96,54010,2,0,L|288:224,1,95
480,192,54385,6,0,L|384:288,1,95
256,288,54760,2,0,L|160:288,1,95
32,192,55135,2,0,L|128:192,1,95
256,96,55510,6,0,L|160:96,1,95
0,96,55885,1,0,0:0:0:0:
0,256,56072,1,0,0:0:0:0:
128,160,56260,6,0,L|128:256,1,95
256,352,56635,2,0,L|256:256,1,95
256,192,56916,1,0,0:0:0:0:
256,96,57010,6,0,L|352:96,1,95
480,192,57385,2,0,L|384:192,1,95
256,288,57760,6,0,L|352:288,1,95
512,288,58135,1,0,0:0:0:0:
451,158,58322,1,0,0:0:0:0:
403,158,58415,1,0,0:0:0:0:
356,158,58509,1,0,0:0:0:0:
224,192,58697,1,0,0:0:0:0:
74,229,58885,1,0,0:0:0:0:
352,64,59260,6,0,L|352:160,1,95
448,288,59635,2,0,L|448:192,1,95
448,128,59916,1,0,0:0:0:0:
352,64,60010,6,0,L|224:64,1,95
160,192,60385,2,0,L|288:192,1,95
416,192,60760,5,0,0:0:0:0:
352,64,60947,1,0,0:0:0:0:
304,64,61040,1,0,0:0:0:0:
257,64,61134,1,0,0:0:0:0:
96,64,61322,1,0,0:0:0:0:
224,192,61510,6,0,L|320:192,1,95
416,320,61885,2,0,L|320:320,1,95
160,320,62260,1,0,0:0:0:0:
32,192,62447,1,0,0:0:0:0:
160,64,62635,1,0,0:0:0:0:
352,192,62822,5,0,0:0:0:0:
384,192,62916,1,0,0:0:0:0:
416,192,63010,2,0,L|320:192,1,95
256,192,63291,1,0,0:0:0:0:
192,192,63385,2,0,L|288:192,1,95
416,96,63760,1,0,0:0:0:0:
192,192,63947,1,0,0:0:0:0:
239,192,64040,1,0,0:0:0:0:
287,192,64134,1,0,0:0:0:0:
416,288,64322,5,0,0:0:0:0:
368,288,64415,1,0,0:0:0:0:
321,288,64509,1,0,0:0:0:0:
160,288,64697,1,0,0:0:0:0:
321,288,64885,1,0,0:0:0:0:
416,160,65072,1,0,0:0:0:0:
256,160,65260,6,0,L|256:64,1,95
96,96,65635,2,0,L|96:192,1,95
96,256,65916,1,0,0:0:0:0:
160,192,66010,6,0,L|160:288,1,95
320,224,66385,2,0,L|320:128,1,95
320,0,66760,1,0,0:0:0:0:
366,96,66947,1,0,0:0:0:0:
318,96,67040,1,0,0:0:0:0:
271,96,67134,1,0,0:0:0:0:
160,96,67322,1,0,0:0:0:0:
96,192,67510,6,0,L|192:192,1,95
256,288,67885,2,0,L|160:288,1,95
96,192,68260,6,0,L|96:96,1,95
192,64,68635,2,0,L|192:160,1,95
192,224,68916,5,0,0:0:0:0:
256,192,69010,6,0,L|256:288,1,95
354,334,69385,2,0,L|354:238,1,95
354,110,69760,5,0,0:0:0:0:
461,139,69947,1,0,0:0:0:0:
421,165,70040,1,0,0:0:0:0:
381,191,70134,1,0,0:0:0:0:
223,126,70322,1,0,0:0:0:0:
262,99,70415,1,0,0:0:0:0:
302,73,70509,1,0,0:0:0:0:
352,128,70697,1,0,0:0:0:0:
158,202,70885,1,0,0:0:0:0:
162,206,71072,1,0,0:0:0:0:
162,206,71260,6,0,L|66:302,1,95
288,288,71635,2,0,L|192:192,1,95
192,192,71916,5,0,0:0:0:0:
192,128,72010,6,0,L|192:32,1,95
320,96,72385,6,0,L|224:192,1,95
128,160,72760,6,0,L|32:64,1,95
128,64,73041,1,0,0:0:0:0:
160,96,73135,2,0,L|224:160,1,47.5
224,160,73322,1,0,0:0:0:0:
288,64,73510,1,0,0:0:0:0:
352,160,73697,1,0,0:0:0:0:
288,256,73885,1,0,0:0:0:0:
416,160,74072,5,0,0:0:0:0:
288,32,74260,1,0,0:0:0:0:
160,160,74447,1,0,0:0:0:0:
288,320,74635,1,0,0:0:0:0:
480,160,74822,5,0,0:0:0:0:
480,160,74916,1,0,0:0:0:0:
480,160,75010,2,0,L|384:160,1,95
320,160,75291,1,0,0:0:0:0:
224,96,75385,2,0,L|224:224,1,95
224,320,75760,1,0,0:0:0:0:
117,182,75947,5,0,0:0:0:0:
117,134,76040,1,0,0:0:0:0:
117,87,76134,1,0,0:0:0:0:
32,192,76322,5,0,0:0:0:0:
64,256,76416,1,0,0:0:0:0:
32,320,76509,1,0,0:0:0:0:
160,352,76697,5,0,0:0:0:0:
288,288,76885,1,0,0:0:0:0:
416,352,77072,1,0,0:0:0:0:
448,224,77260,6,0,L|352:224,1,95
256,128,77635,2,0,L|352:128,1,95
416,128,77916,1,0,0:0:0:0:
448,224,78010,6,0,L|352:224,1,95
256,320,78385,6,0,L|192:320,1,47.5
128,256,78572,2,0,L|192:256,1,47.5
256,224,78760,2,0,L|256:160,1,47.5
320,96,78947,5,0,0:0:0:0:
320,143,79040,1,0,0:0:0:0:
320,192,79135,2,0,L|384:192,1,47.5
416,256,79322,2,0,L|352:256,1,47.5
256,224,79510,6,0,L|256:288,1,47.5
160,256,79697,2,0,L|160:192,1,47.5
224,128,79885,6,0,L|160:128,1,47.5
96,64,80072,2,0,L|160:64,1,47.5
160,256,80260,6,0,L|158:192,1,47.5
221,126,80447,2,0,L|222:189,1,47.5
350,190,80635,6,0,L|286:189,1,47.5
221,126,80822,2,0,L|285:126,1,47.5
352,192,81010,6,0,L|352:256,1,47.5
416,320,81197,2,0,L|416:256,1,47.5
288,320,81385,6,0,L|192:320,1,95
416,128,81760,5,0,0:0:0:0:
128,288,81947,5,0,0:0:0:0:
101,248,82040,1,0,0:0:0:0:
75,208,82134,1,0,0:0:0:0:
224,96,82322,5,0,0:0:0:0:
257,129,82415,1,0,0:0:0:0:
291,163,82509,1,0,0:0:0:0:
128,128,82697,5,0,0:0:0:0:
224,224,82885,1,0,0:0:0:0:
96,352,83072,1,0,0:0:0:0:
288,320,83260,6,0,L|354:265,1,71.25
406,203,83635,1,0,0:0:0:0:
286,173,83822,1,0,0:0:0:0:
286,173,83916,1,0,0:0:0:0:
213,127,84010,6,0,L|212:5,1,95
64,96,84385,2,0,L|66:163,1,47.5
64,335,84760,5,0,0:0:0:0:
138,249,84947,1,0,0:0:0:0:
137,191,85041,1,0,0:0:0:0:
137,133,85135,1,0,0:0:0:0:
229,198,85322,1,0,0:0:0:0:
320,96,85510,2,0,L|320:192,1,95
