osu file format v14

[General]
AudioFilename: The Sacred Story.ogg
AudioLeadIn: 0
PreviewTime: 78845
Countdown: 0
SampleSet: Soft
StackLeniency: 0.7
Mode: 3
LetterboxInBreaks: 0
SpecialStyle: 0
WidescreenStoryboard: 1

[Editor]
Bookmarks: 25348,103196,204301
DistanceSpacing: 0.8
BeatDivisor: 8
GridSize: 32
TimelineZoom: 1.9

[Metadata]
Title:The Sacred Story
TitleUnicode:The Sacred Story
Artist:VILA
ArtistUnicode:VILA
Creator:Roasted Chicken
Version:The Holy Chicken
Source:Cytus
Tags:unluckycroco chapter m million cranky pico rabpit sanctity saika the riddle story rayark electronic instrumental english piano violin rave-slave 2019 feline groove feln-0018 video game orchestral epic Yoshiko Sumida
BeatmapID:3194797
BeatmapSetID:1564483

[Difficulty]
HPDrainRate:8.5
CircleSize:5
OverallDifficulty:8
ApproachRate:5
SliderMultiplier:1.4
SliderTickRate:1

[Events]
//Background and Video events
0,0,"51295803_p0.jpg",0,0
//Break Periods
//Storyboard Layer 0 (Background)
//Storyboard Layer 1 (Fail)
//Storyboard Layer 2 (Pass)
//Storyboard Layer 3 (Foreground)
//Storyboard Layer 4 (Overlay)
//Storyboard Sound Samples

[TimingPoints]
665,379.746835443038,4,2,1,50,1,0
51551,379.746835443038,4,2,1,50,1,0
179145,-100,4,2,1,50,0,1
189778,-100,4,2,1,50,0,0
191297,-100,4,2,1,50,0,1
201551,-100,4,2,1,50,0,0
203449,-100,4,2,1,50,0,1
215601,-100,4,2,1,50,0,0

[HitObjects]
51,192,665,5,0,0:0:0:0:
460,192,665,1,0,0:0:0:0:
153,192,665,1,0,0:0:0:0:
358,192,854,1,0,0:0:0:0:
153,192,1044,1,0,0:0:0:0:
256,192,1044,1,0,0:0:0:0:
460,192,1234,128,0,1424:0:0:0:0:
358,192,1234,1,0,0:0:0:0:
51,192,1234,1,0,0:0:0:0:
256,192,1329,1,0,0:0:0:0:
153,192,1424,1,0,0:0:0:0:
460,192,1614,128,0,1994:0:0:0:0:
358,192,1614,1,0,0:0:0:0:
256,192,1804,1,0,0:0:0:0:
51,192,1804,1,0,0:0:0:0:
153,192,1994,1,0,0:0:0:0:
256,192,2183,1,0,0:0:0:0:
460,192,2183,128,0,2373:0:0:0:0:
358,192,2373,1,0,0:0:0:0:
153,192,2563,1,0,0:0:0:0:
460,192,2563,1,0,0:0:0:0:
256,192,2753,1,0,0:0:0:0:
358,192,2848,1,0,0:0:0:0:
51,192,2848,1,0,0:0:0:0:
153,192,2943,1,0,0:0:0:0:
256,192,3038,1,0,0:0:0:0:
460,192,3133,1,0,0:0:0:0:
358,192,3133,1,0,0:0:0:0:
51,192,3323,1,0,0:0:0:0:
256,192,3323,1,0,0:0:0:0:
460,192,3513,1,0,0:0:0:0:
51,192,3702,1,0,0:0:0:0:
153,192,3702,1,0,0:0:0:0:
460,192,3702,1,0,0:0:0:0:
358,192,3892,1,0,0:0:0:0:
153,192,4082,1,0,0:0:0:0:
256,192,4082,1,0,0:0:0:0:
51,192,4272,128,0,4462:0:0:0:0:
460,192,4272,1,0,0:0:0:0:
358,192,4367,1,0,0:0:0:0:
256,192,4462,1,0,0:0:0:0:
51,192,4652,128,0,5032:0:0:0:0:
460,192,4652,1,0,0:0:0:0:
358,192,4842,1,0,0:0:0:0:
256,192,4842,1,0,0:0:0:0:
153,192,5032,1,0,0:0:0:0:
51,192,5221,128,0,5601:0:0:0:0:
358,192,5221,1,0,0:0:0:0:
256,192,5411,1,0,0:0:0:0:
460,192,5601,1,0,0:0:0:0:
153,192,5601,1,0,0:0:0:0:
358,192,5791,1,0,0:0:0:0:
256,192,5886,1,0,0:0:0:0:
51,192,5886,1,0,0:0:0:0:
460,192,5981,1,0,0:0:0:0:
153,192,6076,1,0,0:0:0:0:
358,192,6171,1,0,0:0:0:0:
51,192,6171,1,0,0:0:0:0:
256,192,6361,1,0,0:0:0:0:
460,192,6361,1,0,0:0:0:0:
153,192,6456,1,0,0:0:0:0:
358,192,6551,1,0,0:0:0:0:
256,192,6646,1,0,0:0:0:0:
460,192,6740,1,0,0:0:0:0:
153,192,6740,1,0,0:0:0:0:
51,192,6740,1,0,0:0:0:0:
256,192,6930,1,0,0:0:0:0:
358,192,7120,1,0,0:0:0:0:
460,192,7120,1,0,0:0:0:0:
51,192,7310,1,0,0:0:0:0:
256,192,7310,1,0,0:0:0:0:
153,192,7310,128,0,7500:0:0:0:0:
358,192,7405,1,0,0:0:0:0:
460,192,7500,1,0,0:0:0:0:
153,192,7690,128,0,8070:0:0:0:0:
256,192,7690,1,0,0:0:0:0:
358,192,7880,1,0,0:0:0:0:
460,192,7880,1,0,0:0:0:0:
51,192,8070,1,0,0:0:0:0:
153,192,8259,128,0,8449:0:0:0:0:
460,192,8259,1,0,0:0:0:0:
256,192,8449,1,0,0:0:0:0:
358,192,8639,1,0,0:0:0:0:
51,192,8639,1,0,0:0:0:0:
460,192,8829,1,0,0:0:0:0:
256,192,8924,1,0,0:0:0:0:
51,192,8924,1,0,0:0:0:0:
358,192,9019,1,0,0:0:0:0:
153,192,9114,1,0,0:0:0:0:
256,192,9209,1,0,0:0:0:0:
460,192,9209,1,0,0:0:0:0:
358,192,9399,1,0,0:0:0:0:
51,192,9399,1,0,0:0:0:0:
153,192,9399,1,0,0:0:0:0:
256,192,9494,1,0,0:0:0:0:
460,192,9589,1,0,0:0:0:0:
153,192,9683,1,0,0:0:0:0:
358,192,9778,1,0,0:0:0:0:
256,192,9778,1,0,0:0:0:0:
51,192,9778,1,0,0:0:0:0:
460,192,9968,1,0,0:0:0:0:
256,192,10158,1,0,0:0:0:0:
51,192,10158,1,0,0:0:0:0:
153,192,10253,1,0,0:0:0:0:
358,192,10348,128,0,10538:0:0:0:0:
460,192,10348,1,0,0:0:0:0:
256,192,10538,1,0,0:0:0:0:
358,192,10728,128,0,11108:0:0:0:0:
153,192,10728,1,0,0:0:0:0:
51,192,10918,1,0,0:0:0:0:
256,192,10918,1,0,0:0:0:0:
460,192,11108,1,0,0:0:0:0:
256,192,11202,1,0,0:0:0:0:
358,192,11297,128,0,11487:0:0:0:0:
51,192,11297,1,0,0:0:0:0:
153,192,11392,1,0,0:0:0:0:
256,192,11487,1,0,0:0:0:0:
460,192,11582,1,0,0:0:0:0:
51,192,11677,1,0,0:0:0:0:
153,192,11677,1,0,0:0:0:0:
256,192,11867,1,0,0:0:0:0:
460,192,11867,1,0,0:0:0:0:
153,192,12057,1,0,0:0:0:0:
256,192,12104,1,0,0:0:0:0:
358,192,12152,1,0,0:0:0:0:
460,192,12199,1,0,0:0:0:0:
153,192,12247,1,0,0:0:0:0:
51,192,12294,1,0,0:0:0:0:
358,192,12342,1,0,0:0:0:0:
256,192,12389,1,0,0:0:0:0:
460,192,12437,1,0,0:0:0:0:
460,192,12532,1,0,0:0:0:0:
153,192,12627,1,0,0:0:0:0:
460,192,12721,1,0,0:0:0:0:
153,192,12816,1,0,0:0:0:0:
256,192,12816,1,0,0:0:0:0:
51,192,12816,1,0,0:0:0:0:
358,192,13006,1,0,0:0:0:0:
256,192,13101,1,0,0:0:0:0:
51,192,13196,1,0,0:0:0:0:
460,192,13196,1,0,0:0:0:0:
153,192,13196,1,0,0:0:0:0:
256,192,13386,128,0,13576:0:0:0:0:
358,192,13386,1,0,0:0:0:0:
460,192,13576,1,0,0:0:0:0:
153,192,13576,1,0,0:0:0:0:
358,192,13671,1,0,0:0:0:0:
256,192,13766,128,0,14146:0:0:0:0:
51,192,13766,1,0,0:0:0:0:
460,192,13861,1,0,0:0:0:0:
358,192,13956,1,0,0:0:0:0:
153,192,13956,1,0,0:0:0:0:
51,192,13956,1,0,0:0:0:0:
460,192,14146,1,0,0:0:0:0:
256,192,14335,128,0,14525:0:0:0:0:
460,192,14335,1,0,0:0:0:0:
153,192,14525,1,0,0:0:0:0:
358,192,14620,1,0,0:0:0:0:
51,192,14715,1,0,0:0:0:0:
460,192,14715,1,0,0:0:0:0:
256,192,14715,1,0,0:0:0:0:
358,192,14905,1,0,0:0:0:0:
460,192,15095,1,0,0:0:0:0:
153,192,15095,1,0,0:0:0:0:
256,192,15190,1,0,0:0:0:0:
358,192,15285,1,0,0:0:0:0:
51,192,15380,1,0,0:0:0:0:
153,192,15475,1,0,0:0:0:0:
460,192,15475,1,0,0:0:0:0:
256,192,15475,1,0,0:0:0:0:
358,192,15665,1,0,0:0:0:0:
153,192,15759,1,0,0:0:0:0:
358,192,15854,1,0,0:0:0:0:
460,192,15854,1,0,0:0:0:0:
256,192,16044,1,0,0:0:0:0:
358,192,16139,1,0,0:0:0:0:
460,192,16234,128,0,16614:0:0:0:0:
153,192,16234,1,0,0:0:0:0:
51,192,16234,1,0,0:0:0:0:
256,192,16424,1,0,0:0:0:0:
358,192,16614,1,0,0:0:0:0:
153,192,16614,1,0,0:0:0:0:
51,192,16709,1,0,0:0:0:0:
460,192,16804,128,0,17183:0:0:0:0:
256,192,16804,1,0,0:0:0:0:
153,192,16899,1,0,0:0:0:0:
358,192,16994,1,0,0:0:0:0:
51,192,16994,1,0,0:0:0:0:
256,192,16994,1,0,0:0:0:0:
153,192,17183,1,0,0:0:0:0:
460,192,17373,128,0,17563:0:0:0:0:
153,192,17373,1,0,0:0:0:0:
358,192,17563,1,0,0:0:0:0:
256,192,17658,1,0,0:0:0:0:
51,192,17753,1,0,0:0:0:0:
460,192,17753,1,0,0:0:0:0:
153,192,17753,1,0,0:0:0:0:
358,192,17943,1,0,0:0:0:0:
256,192,18133,1,0,0:0:0:0:
51,192,18133,1,0,0:0:0:0:
358,192,18228,1,0,0:0:0:0:
153,192,18323,1,0,0:0:0:0:
256,192,18418,1,0,0:0:0:0:
358,192,18513,1,0,0:0:0:0:
460,192,18513,1,0,0:0:0:0:
51,192,18513,1,0,0:0:0:0:
153,192,18702,1,0,0:0:0:0:
358,192,18797,1,0,0:0:0:0:
153,192,18892,1,0,0:0:0:0:
51,192,18892,1,0,0:0:0:0:
256,192,19082,1,0,0:0:0:0:
51,192,19177,1,0,0:0:0:0:
153,192,19272,1,0,0:0:0:0:
358,192,19272,1,0,0:0:0:0:
460,192,19272,1,0,0:0:0:0:
51,192,19462,128,0,19652:0:0:0:0:
256,192,19462,1,0,0:0:0:0:
460,192,19652,1,0,0:0:0:0:
153,192,19652,1,0,0:0:0:0:
358,192,19747,1,0,0:0:0:0:
51,192,19842,128,0,20221:0:0:0:0:
256,192,19842,1,0,0:0:0:0:
460,192,19937,1,0,0:0:0:0:
358,192,20032,1,0,0:0:0:0:
153,192,20032,1,0,0:0:0:0:
256,192,20032,1,0,0:0:0:0:
460,192,20221,1,0,0:0:0:0:
51,192,20411,128,0,20601:0:0:0:0:
460,192,20411,1,0,0:0:0:0:
256,192,20601,1,0,0:0:0:0:
358,192,20696,1,0,0:0:0:0:
460,192,20791,1,0,0:0:0:0:
153,192,20791,1,0,0:0:0:0:
51,192,20791,1,0,0:0:0:0:
256,192,20981,1,0,0:0:0:0:
358,192,21171,1,0,0:0:0:0:
51,192,21171,1,0,0:0:0:0:
153,192,21266,1,0,0:0:0:0:
460,192,21361,1,0,0:0:0:0:
358,192,21456,1,0,0:0:0:0:
256,192,21551,1,0,0:0:0:0:
51,192,21551,1,0,0:0:0:0:
153,192,21551,1,0,0:0:0:0:
358,192,21740,1,0,0:0:0:0:
153,192,21835,1,0,0:0:0:0:
358,192,21930,1,0,0:0:0:0:
460,192,21930,1,0,0:0:0:0:
256,192,21930,1,0,0:0:0:0:
51,192,21930,1,0,0:0:0:0:
153,192,22025,1,0,0:0:0:0:
460,192,22120,1,0,0:0:0:0:
256,192,22120,1,0,0:0:0:0:
51,192,22215,1,0,0:0:0:0:
153,192,22310,1,0,0:0:0:0:
358,192,22310,1,0,0:0:0:0:
460,192,22310,1,0,0:0:0:0:
256,192,22405,1,0,0:0:0:0:
153,192,22500,1,0,0:0:0:0:
51,192,22500,1,0,0:0:0:0:
256,192,22595,1,0,0:0:0:0:
51,192,22690,1,0,0:0:0:0:
460,192,22690,1,0,0:0:0:0:
358,192,22690,1,0,0:0:0:0:
153,192,22753,1,0,0:0:0:0:
256,192,22816,1,0,0:0:0:0:
358,192,22880,1,0,0:0:0:0:
460,192,22880,1,0,0:0:0:0:
153,192,22975,1,0,0:0:0:0:
256,192,23070,1,0,0:0:0:0:
460,192,23070,1,0,0:0:0:0:
51,192,23070,1,0,0:0:0:0:
358,192,23165,1,0,0:0:0:0:
256,192,23259,1,0,0:0:0:0:
153,192,23259,1,0,0:0:0:0:
51,192,23354,1,0,0:0:0:0:
460,192,23449,1,0,0:0:0:0:
358,192,23449,1,0,0:0:0:0:
153,192,23544,1,0,0:0:0:0:
256,192,23639,1,0,0:0:0:0:
460,192,23639,1,0,0:0:0:0:
51,192,23734,1,0,0:0:0:0:
153,192,23829,1,0,0:0:0:0:
460,192,23829,1,0,0:0:0:0:
358,192,23829,1,0,0:0:0:0:
256,192,23924,1,0,0:0:0:0:
153,192,24019,1,0,0:0:0:0:
51,192,24114,1,0,0:0:0:0:
256,192,24209,1,0,0:0:0:0:
460,192,24209,1,0,0:0:0:0:
358,192,24209,1,0,0:0:0:0:
153,192,24272,1,0,0:0:0:0:
51,192,24335,1,0,0:0:0:0:
358,192,24399,1,0,0:0:0:0:
460,192,24399,1,0,0:0:0:0:
256,192,24494,1,0,0:0:0:0:
153,192,24589,1,0,0:0:0:0:
51,192,24589,1,0,0:0:0:0:
460,192,24589,1,0,0:0:0:0:
256,192,24652,1,0,0:0:0:0:
358,192,24715,1,0,0:0:0:0:
460,192,24778,1,0,0:0:0:0:
153,192,24778,1,0,0:0:0:0:
256,192,24873,1,0,0:0:0:0:
153,192,24968,5,0,0:0:0:0:
460,192,24968,1,0,0:0:0:0:
51,192,24968,1,0,0:0:0:0:
358,192,24968,1,0,0:0:0:0:
51,192,25348,1,0,0:0:0:0:
256,192,25348,128,0,25728:0:0:0:0:
153,192,25348,1,0,0:0:0:0:
358,192,25443,1,0,0:0:0:0:
460,192,25538,1,0,0:0:0:0:
153,192,25633,1,0,0:0:0:0:
51,192,25728,128,0,26108:0:0:0:0:
358,192,25728,1,0,0:0:0:0:
256,192,25823,1,0,0:0:0:0:
153,192,25918,1,0,0:0:0:0:
460,192,26013,1,0,0:0:0:0:
256,192,26108,128,0,26487:0:0:0:0:
153,192,26108,1,0,0:0:0:0:
358,192,26108,1,0,0:0:0:0:
460,192,26202,1,0,0:0:0:0:
51,192,26297,1,0,0:0:0:0:
358,192,26392,1,0,0:0:0:0:
460,192,26487,128,0,26867:0:0:0:0:
153,192,26487,1,0,0:0:0:0:
256,192,26582,1,0,0:0:0:0:
358,192,26677,1,0,0:0:0:0:
51,192,26772,1,0,0:0:0:0:
256,192,26867,128,0,27247:0:0:0:0:
358,192,26867,1,0,0:0:0:0:
153,192,26867,1,0,0:0:0:0:
51,192,26962,1,0,0:0:0:0:
460,192,27057,1,0,0:0:0:0:
153,192,27152,1,0,0:0:0:0:
51,192,27247,128,0,27627:0:0:0:0:
358,192,27247,1,0,0:0:0:0:
256,192,27342,1,0,0:0:0:0:
153,192,27437,1,0,0:0:0:0:
460,192,27532,1,0,0:0:0:0:
153,192,27627,1,0,0:0:0:0:
256,192,27627,128,0,28006:0:0:0:0:
358,192,27627,1,0,0:0:0:0:
51,192,27721,1,0,0:0:0:0:
460,192,27816,1,0,0:0:0:0:
153,192,27911,1,0,0:0:0:0:
460,192,28006,1,0,0:0:0:0:
358,192,28006,1,0,0:0:0:0:
51,192,28101,1,0,0:0:0:0:
153,192,28196,1,0,0:0:0:0:
460,192,28291,1,0,0:0:0:0:
256,192,28386,128,0,28766:0:0:0:0:
153,192,28386,1,0,0:0:0:0:
51,192,28386,1,0,0:0:0:0:
358,192,28481,1,0,0:0:0:0:
460,192,28576,1,0,0:0:0:0:
153,192,28671,1,0,0:0:0:0:
51,192,28766,128,0,29146:0:0:0:0:
358,192,28766,1,0,0:0:0:0:
256,192,28861,1,0,0:0:0:0:
153,192,28956,1,0,0:0:0:0:
460,192,29051,1,0,0:0:0:0:
256,192,29146,128,0,29525:0:0:0:0:
358,192,29146,1,0,0:0:0:0:
153,192,29146,1,0,0:0:0:0:
460,192,29240,1,0,0:0:0:0:
51,192,29335,1,0,0:0:0:0:
358,192,29430,1,0,0:0:0:0:
460,192,29525,128,0,29652:0:0:0:0:
153,192,29525,1,0,0:0:0:0:
358,192,29652,128,0,29778:0:0:0:0:
51,192,29652,1,0,0:0:0:0:
153,192,29778,128,0,29905:0:0:0:0:
460,192,29778,1,0,0:0:0:0:
51,192,29905,128,0,30285:0:0:0:0:
256,192,29905,1,0,0:0:0:0:
358,192,29905,1,0,0:0:0:0:
460,192,30000,1,0,0:0:0:0:
153,192,30095,1,0,0:0:0:0:
256,192,30190,1,0,0:0:0:0:
358,192,30285,128,0,30665:0:0:0:0:
460,192,30285,1,0,0:0:0:0:
153,192,30380,1,0,0:0:0:0:
51,192,30475,1,0,0:0:0:0:
460,192,30570,1,0,0:0:0:0:
153,192,30665,128,0,30854:0:0:0:0:
51,192,30665,1,0,0:0:0:0:
256,192,30665,1,0,0:0:0:0:
460,192,30759,1,0,0:0:0:0:
256,192,30854,128,0,31044:0:0:0:0:
358,192,30854,1,0,0:0:0:0:
51,192,30949,1,0,0:0:0:0:
358,192,31044,128,0,31424:0:0:0:0:
460,192,31044,1,0,0:0:0:0:
153,192,31139,1,0,0:0:0:0:
256,192,31234,1,0,0:0:0:0:
460,192,31329,1,0,0:0:0:0:
153,192,31424,128,0,31804:0:0:0:0:
51,192,31424,1,0,0:0:0:0:
256,192,31424,1,0,0:0:0:0:
460,192,31519,1,0,0:0:0:0:
358,192,31614,1,0,0:0:0:0:
256,192,31709,1,0,0:0:0:0:
358,192,31804,128,0,32183:0:0:0:0:
51,192,31804,1,0,0:0:0:0:
153,192,31899,1,0,0:0:0:0:
256,192,31994,1,0,0:0:0:0:
51,192,32089,1,0,0:0:0:0:
460,192,32183,128,0,32563:0:0:0:0:
153,192,32183,1,0,0:0:0:0:
256,192,32183,1,0,0:0:0:0:
358,192,32278,1,0,0:0:0:0:
153,192,32373,1,0,0:0:0:0:
358,192,32468,1,0,0:0:0:0:
256,192,32563,128,0,33133:0:0:0:0:
51,192,32563,1,0,0:0:0:0:
460,192,32658,1,0,0:0:0:0:
358,192,32753,1,0,0:0:0:0:
153,192,32848,1,0,0:0:0:0:
51,192,32943,1,0,0:0:0:0:
460,192,32943,1,0,0:0:0:0:
358,192,33038,1,0,0:0:0:0:
51,192,33133,128,0,33228:0:0:0:0:
153,192,33133,1,0,0:0:0:0:
460,192,33228,1,0,0:0:0:0:
51,192,33323,128,0,33702:0:0:0:0:
153,192,33323,1,0,0:0:0:0:
256,192,33418,1,0,0:0:0:0:
460,192,33513,1,0,0:0:0:0:
358,192,33608,1,0,0:0:0:0:
153,192,33702,128,0,33892:0:0:0:0:
256,192,33702,1,0,0:0:0:0:
460,192,33702,1,0,0:0:0:0:
51,192,33797,1,0,0:0:0:0:
256,192,33892,128,0,34082:0:0:0:0:
358,192,33892,1,0,0:0:0:0:
153,192,33987,1,0,0:0:0:0:
460,192,34082,128,0,34462:0:0:0:0:
51,192,34082,1,0,0:0:0:0:
358,192,34082,1,0,0:0:0:0:
256,192,34209,1,0,0:0:0:0:
153,192,34335,1,0,0:0:0:0:
358,192,34462,128,0,34842:0:0:0:0:
51,192,34462,1,0,0:0:0:0:
256,192,34462,1,0,0:0:0:0:
153,192,34589,1,0,0:0:0:0:
460,192,34715,1,0,0:0:0:0:
256,192,34842,128,0,35221:0:0:0:0:
51,192,34842,1,0,0:0:0:0:
460,192,34968,1,0,0:0:0:0:
51,192,35095,1,0,0:0:0:0:
153,192,35221,128,0,35601:0:0:0:0:
460,192,35221,1,0,0:0:0:0:
358,192,35221,1,0,0:0:0:0:
51,192,35348,1,0,0:0:0:0:
256,192,35475,1,0,0:0:0:0:
51,192,35601,128,0,35981:0:0:0:0:
460,192,35601,1,0,0:0:0:0:
256,192,35728,1,0,0:0:0:0:
358,192,35728,1,0,0:0:0:0:
358,192,35854,1,0,0:0:0:0:
256,192,35854,1,0,0:0:0:0:
153,192,35981,1,0,0:0:0:0:
460,192,35981,128,0,36361:0:0:0:0:
51,192,36108,1,0,0:0:0:0:
358,192,36108,1,0,0:0:0:0:
358,192,36234,1,0,0:0:0:0:
51,192,36234,1,0,0:0:0:0:
153,192,36361,1,0,0:0:0:0:
256,192,36361,1,0,0:0:0:0:
460,192,36487,1,0,0:0:0:0:
358,192,36487,1,0,0:0:0:0:
358,192,36614,1,0,0:0:0:0:
460,192,36614,1,0,0:0:0:0:
51,192,36740,1,0,0:0:0:0:
153,192,36740,1,0,0:0:0:0:
256,192,36740,1,0,0:0:0:0:
51,192,36867,1,0,0:0:0:0:
153,192,36867,1,0,0:0:0:0:
358,192,36994,1,0,0:0:0:0:
460,192,36994,1,0,0:0:0:0:
153,192,37120,1,0,0:0:0:0:
256,192,37120,1,0,0:0:0:0:
460,192,37120,1,0,0:0:0:0:
51,192,37120,1,0,0:0:0:0:
358,192,37215,1,0,0:0:0:0:
51,192,37310,1,0,0:0:0:0:
153,192,37405,1,0,0:0:0:0:
460,192,37500,1,0,0:0:0:0:
256,192,37500,128,0,37880:0:0:0:0:
358,192,37500,1,0,0:0:0:0:
51,192,37595,1,0,0:0:0:0:
153,192,37690,1,0,0:0:0:0:
460,192,37785,1,0,0:0:0:0:
153,192,37880,128,0,38259:0:0:0:0:
51,192,37880,1,0,0:0:0:0:
358,192,37975,1,0,0:0:0:0:
256,192,38070,1,0,0:0:0:0:
460,192,38165,1,0,0:0:0:0:
256,192,38259,128,0,38639:0:0:0:0:
358,192,38259,1,0,0:0:0:0:
51,192,38259,1,0,0:0:0:0:
460,192,38354,1,0,0:0:0:0:
153,192,38449,1,0,0:0:0:0:
51,192,38544,1,0,0:0:0:0:
358,192,38639,128,0,39019:0:0:0:0:
460,192,38639,1,0,0:0:0:0:
153,192,38734,1,0,0:0:0:0:
256,192,38829,1,0,0:0:0:0:
460,192,38924,1,0,0:0:0:0:
256,192,39019,128,0,39399:0:0:0:0:
153,192,39019,1,0,0:0:0:0:
51,192,39019,1,0,0:0:0:0:
460,192,39114,1,0,0:0:0:0:
358,192,39209,1,0,0:0:0:0:
153,192,39304,1,0,0:0:0:0:
460,192,39399,128,0,39778:0:0:0:0:
51,192,39399,1,0,0:0:0:0:
256,192,39494,1,0,0:0:0:0:
358,192,39589,1,0,0:0:0:0:
51,192,39683,1,0,0:0:0:0:
358,192,39778,128,0,40158:0:0:0:0:
153,192,39778,1,0,0:0:0:0:
256,192,39778,1,0,0:0:0:0:
51,192,39873,1,0,0:0:0:0:
460,192,39968,1,0,0:0:0:0:
256,192,40063,1,0,0:0:0:0:
153,192,40158,1,0,0:0:0:0:
51,192,40158,1,0,0:0:0:0:
460,192,40253,1,0,0:0:0:0:
51,192,40348,1,0,0:0:0:0:
153,192,40443,1,0,0:0:0:0:
256,192,40538,128,0,40918:0:0:0:0:
460,192,40538,1,0,0:0:0:0:
358,192,40538,1,0,0:0:0:0:
153,192,40633,1,0,0:0:0:0:
51,192,40728,1,0,0:0:0:0:
358,192,40823,1,0,0:0:0:0:
153,192,40918,128,0,41297:0:0:0:0:
460,192,40918,1,0,0:0:0:0:
358,192,41013,1,0,0:0:0:0:
256,192,41108,1,0,0:0:0:0:
460,192,41202,1,0,0:0:0:0:
256,192,41297,128,0,41677:0:0:0:0:
51,192,41297,1,0,0:0:0:0:
358,192,41297,1,0,0:0:0:0:
460,192,41392,1,0,0:0:0:0:
153,192,41487,1,0,0:0:0:0:
358,192,41582,1,0,0:0:0:0:
51,192,41677,1,0,0:0:0:0:
460,192,41677,128,0,41804:0:0:0:0:
358,192,41804,128,0,41930:0:0:0:0:
256,192,41804,1,0,0:0:0:0:
153,192,41930,128,0,42057:0:0:0:0:
460,192,41930,1,0,0:0:0:0:
51,192,42057,128,0,42437:0:0:0:0:
256,192,42057,1,0,0:0:0:0:
358,192,42057,1,0,0:0:0:0:
460,192,42152,1,0,0:0:0:0:
153,192,42247,1,0,0:0:0:0:
256,192,42342,1,0,0:0:0:0:
460,192,42437,128,0,42816:0:0:0:0:
358,192,42437,1,0,0:0:0:0:
153,192,42532,1,0,0:0:0:0:
51,192,42627,1,0,0:0:0:0:
358,192,42721,1,0,0:0:0:0:
51,192,42816,1,0,0:0:0:0:
256,192,42816,1,0,0:0:0:0:
153,192,42816,128,0,43006:0:0:0:0:
460,192,42911,1,0,0:0:0:0:
256,192,43006,128,0,43196:0:0:0:0:
358,192,43006,1,0,0:0:0:0:
51,192,43101,1,0,0:0:0:0:
358,192,43196,128,0,43576:0:0:0:0:
460,192,43196,1,0,0:0:0:0:
153,192,43291,1,0,0:0:0:0:
256,192,43386,1,0,0:0:0:0:
460,192,43481,1,0,0:0:0:0:
256,192,43576,128,0,43671:0:0:0:0:
153,192,43576,128,0,43956:0:0:0:0:
51,192,43576,1,0,0:0:0:0:
460,192,43671,128,0,43766:0:0:0:0:
358,192,43766,128,0,43861:0:0:0:0:
51,192,43861,128,0,43956:0:0:0:0:
460,192,43956,1,0,0:0:0:0:
358,192,43956,128,0,44335:0:0:0:0:
51,192,44051,1,0,0:0:0:0:
153,192,44146,1,0,0:0:0:0:
460,192,44240,1,0,0:0:0:0:
256,192,44335,1,0,0:0:0:0:
153,192,44335,128,0,44462:0:0:0:0:
51,192,44335,128,0,44589:0:0:0:0:
460,192,44462,128,0,44589:0:0:0:0:
358,192,44462,1,0,0:0:0:0:
256,192,44589,128,0,44715:0:0:0:0:
153,192,44589,1,0,0:0:0:0:
358,192,44715,128,0,45285:0:0:0:0:
51,192,44715,1,0,0:0:0:0:
460,192,44810,1,0,0:0:0:0:
256,192,44905,1,0,0:0:0:0:
153,192,45000,1,0,0:0:0:0:
460,192,45095,1,0,0:0:0:0:
51,192,45095,1,0,0:0:0:0:
256,192,45190,1,0,0:0:0:0:
51,192,45285,128,0,45380:0:0:0:0:
153,192,45285,1,0,0:0:0:0:
460,192,45380,1,0,0:0:0:0:
51,192,45475,128,0,45854:0:0:0:0:
153,192,45475,1,0,0:0:0:0:
358,192,45570,1,0,0:0:0:0:
460,192,45665,1,0,0:0:0:0:
256,192,45759,1,0,0:0:0:0:
460,192,45854,1,0,0:0:0:0:
358,192,45854,1,0,0:0:0:0:
153,192,45854,128,0,46044:0:0:0:0:
51,192,45949,1,0,0:0:0:0:
358,192,46044,128,0,46234:0:0:0:0:
256,192,46044,1,0,0:0:0:0:
153,192,46139,1,0,0:0:0:0:
460,192,46234,1,0,0:0:0:0:
51,192,46234,1,0,0:0:0:0:
256,192,46329,1,0,0:0:0:0:
460,192,46424,1,0,0:0:0:0:
51,192,46424,1,0,0:0:0:0:
358,192,46519,1,0,0:0:0:0:
256,192,46614,1,0,0:0:0:0:
153,192,46614,1,0,0:0:0:0:
51,192,46614,1,0,0:0:0:0:
358,192,46709,1,0,0:0:0:0:
256,192,46804,1,0,0:0:0:0:
153,192,46804,1,0,0:0:0:0:
460,192,46899,1,0,0:0:0:0:
51,192,46994,1,0,0:0:0:0:
358,192,46994,1,0,0:0:0:0:
256,192,47089,1,0,0:0:0:0:
51,192,47183,1,0,0:0:0:0:
358,192,47183,1,0,0:0:0:0:
153,192,47278,1,0,0:0:0:0:
460,192,47373,1,0,0:0:0:0:
256,192,47373,1,0,0:0:0:0:
358,192,47373,1,0,0:0:0:0:
51,192,47468,1,0,0:0:0:0:
256,192,47563,1,0,0:0:0:0:
460,192,47563,1,0,0:0:0:0:
153,192,47658,1,0,0:0:0:0:
460,192,47753,1,0,0:0:0:0:
358,192,47753,1,0,0:0:0:0:
51,192,47753,1,0,0:0:0:0:
153,192,47848,1,0,0:0:0:0:
256,192,47943,1,0,0:0:0:0:
358,192,47943,1,0,0:0:0:0:
460,192,48038,1,0,0:0:0:0:
153,192,48133,1,0,0:0:0:0:
256,192,48133,1,0,0:0:0:0:
51,192,48133,1,0,0:0:0:0:
358,192,48228,1,0,0:0:0:0:
153,192,48323,1,0,0:0:0:0:
51,192,48323,1,0,0:0:0:0:
256,192,48418,1,0,0:0:0:0:
460,192,48513,1,0,0:0:0:0:
358,192,48513,1,0,0:0:0:0:
51,192,48513,1,0,0:0:0:0:
153,192,48576,1,0,0:0:0:0:
358,192,48639,1,0,0:0:0:0:
460,192,48702,1,0,0:0:0:0:
51,192,48702,1,0,0:0:0:0:
153,192,48797,1,0,0:0:0:0:
460,192,48892,1,0,0:0:0:0:
256,192,48892,1,0,0:0:0:0:
358,192,48892,1,0,0:0:0:0:
153,192,48987,1,0,0:0:0:0:
358,192,49082,1,0,0:0:0:0:
460,192,49082,1,0,0:0:0:0:
51,192,49082,1,0,0:0:0:0:
256,192,49177,1,0,0:0:0:0:
51,192,49272,1,0,0:0:0:0:
358,192,49272,128,0,49652:0:0:0:0:
153,192,49272,128,0,49652:0:0:0:0:
460,192,49272,1,0,0:0:0:0:
256,192,49652,1,0,0:0:0:0:
460,192,49652,128,0,49842:0:0:0:0:
358,192,49842,128,0,50221:0:0:0:0:
153,192,49842,128,0,50221:0:0:0:0:
256,192,50221,128,0,50411:0:0:0:0:
460,192,50221,1,0,0:0:0:0:
51,192,50411,128,0,50791:0:0:0:0:
153,192,50411,128,0,50696:0:0:0:0:
460,192,51551,1,0,0:0:0:0:
358,192,51551,1,0,0:0:0:0:
256,192,51551,1,0,0:0:0:0:
51,192,51551,1,0,0:0:0:0:
153,192,51645,1,0,0:0:0:0:
358,192,51740,1,0,0:0:0:0:
460,192,51835,1,0,0:0:0:0:
153,192,51930,1,0,0:0:0:0:
51,192,51930,1,0,0:0:0:0:
256,192,51930,1,0,0:0:0:0:
358,192,52025,1,0,0:0:0:0:
460,192,52120,1,0,0:0:0:0:
256,192,52215,1,0,0:0:0:0:
51,192,52310,1,0,0:0:0:0:
358,192,52310,1,0,0:0:0:0:
153,192,52405,1,0,0:0:0:0:
256,192,52500,1,0,0:0:0:0:
51,192,52595,1,0,0:0:0:0:
358,192,52690,1,0,0:0:0:0:
460,192,52690,1,0,0:0:0:0:
153,192,52690,1,0,0:0:0:0:
256,192,52785,1,0,0:0:0:0:
51,192,52785,1,0,0:0:0:0:
460,192,52880,1,0,0:0:0:0:
358,192,52975,1,0,0:0:0:0:
153,192,52975,1,0,0:0:0:0:
460,192,53069,1,0,0:0:0:0:
51,192,53069,1,0,0:0:0:0:
256,192,53164,1,0,0:0:0:0:
51,192,53259,1,0,0:0:0:0:
358,192,53354,1,0,0:0:0:0:
460,192,53354,1,0,0:0:0:0:
51,192,53449,1,0,0:0:0:0:
256,192,53449,1,0,0:0:0:0:
153,192,53449,1,0,0:0:0:0:
460,192,53544,1,0,0:0:0:0:
358,192,53639,1,0,0:0:0:0:
153,192,53734,1,0,0:0:0:0:
460,192,53829,1,0,0:0:0:0:
51,192,53829,1,0,0:0:0:0:
256,192,53924,1,0,0:0:0:0:
358,192,54019,1,0,0:0:0:0:
51,192,54114,1,0,0:0:0:0:
256,192,54209,1,0,0:0:0:0:
460,192,54209,1,0,0:0:0:0:
358,192,54209,1,0,0:0:0:0:
153,192,54304,1,0,0:0:0:0:
460,192,54399,1,0,0:0:0:0:
153,192,54494,1,0,0:0:0:0:
460,192,54588,1,0,0:0:0:0:
51,192,54588,1,0,0:0:0:0:
358,192,54588,1,0,0:0:0:0:
256,192,54683,1,0,0:0:0:0:
358,192,54778,1,0,0:0:0:0:
153,192,54873,1,0,0:0:0:0:
256,192,54968,1,0,0:0:0:0:
460,192,54968,1,0,0:0:0:0:
358,192,54968,1,0,0:0:0:0:
51,192,55063,1,0,0:0:0:0:
153,192,55158,1,0,0:0:0:0:
358,192,55253,1,0,0:0:0:0:
460,192,55348,1,0,0:0:0:0:
51,192,55348,1,0,0:0:0:0:
256,192,55443,1,0,0:0:0:0:
358,192,55538,1,0,0:0:0:0:
51,192,55633,1,0,0:0:0:0:
256,192,55728,1,0,0:0:0:0:
460,192,55728,1,0,0:0:0:0:
358,192,55728,1,0,0:0:0:0:
51,192,55823,1,0,0:0:0:0:
153,192,55823,1,0,0:0:0:0:
460,192,55918,1,0,0:0:0:0:
358,192,55918,1,0,0:0:0:0:
153,192,56013,1,0,0:0:0:0:
256,192,56013,1,0,0:0:0:0:
51,192,56107,1,0,0:0:0:0:
460,192,56107,1,0,0:0:0:0:
153,192,56202,1,0,0:0:0:0:
358,192,56202,1,0,0:0:0:0:
51,192,56297,1,0,0:0:0:0:
460,192,56297,1,0,0:0:0:0:
256,192,56392,1,0,0:0:0:0:
153,192,56487,1,0,0:0:0:0:
51,192,56487,1,0,0:0:0:0:
460,192,56487,1,0,0:0:0:0:
358,192,56582,1,0,0:0:0:0:
256,192,56677,1,0,0:0:0:0:
153,192,56772,1,0,0:0:0:0:
460,192,56867,1,0,0:0:0:0:
51,192,56867,1,0,0:0:0:0:
256,192,56962,1,0,0:0:0:0:
358,192,57057,1,0,0:0:0:0:
460,192,57152,1,0,0:0:0:0:
153,192,57247,1,0,0:0:0:0:
51,192,57247,1,0,0:0:0:0:
256,192,57247,1,0,0:0:0:0:
358,192,57342,1,0,0:0:0:0:
460,192,57342,1,0,0:0:0:0:
51,192,57437,1,0,0:0:0:0:
153,192,57437,1,0,0:0:0:0:
358,192,57532,1,0,0:0:0:0:
153,192,57626,1,0,0:0:0:0:
51,192,57626,1,0,0:0:0:0:
460,192,57626,1,0,0:0:0:0:
256,192,57626,1,0,0:0:0:0:
358,192,57721,1,0,0:0:0:0:
153,192,57816,1,0,0:0:0:0:
256,192,57911,1,0,0:0:0:0:
358,192,58006,1,0,0:0:0:0:
460,192,58006,1,0,0:0:0:0:
51,192,58006,1,0,0:0:0:0:
153,192,58101,1,0,0:0:0:0:
256,192,58196,1,0,0:0:0:0:
460,192,58291,1,0,0:0:0:0:
153,192,58386,1,0,0:0:0:0:
51,192,58386,1,0,0:0:0:0:
256,192,58481,1,0,0:0:0:0:
358,192,58576,1,0,0:0:0:0:
51,192,58671,1,0,0:0:0:0:
256,192,58766,1,0,0:0:0:0:
460,192,58766,1,0,0:0:0:0:
358,192,58766,1,0,0:0:0:0:
153,192,58861,1,0,0:0:0:0:
51,192,58861,1,0,0:0:0:0:
358,192,58956,1,0,0:0:0:0:
460,192,58956,1,0,0:0:0:0:
153,192,59051,1,0,0:0:0:0:
256,192,59051,1,0,0:0:0:0:
358,192,59145,1,0,0:0:0:0:
51,192,59145,1,0,0:0:0:0:
460,192,59240,1,0,0:0:0:0:
51,192,59335,1,0,0:0:0:0:
256,192,59430,1,0,0:0:0:0:
358,192,59430,1,0,0:0:0:0:
460,192,59525,1,0,0:0:0:0:
153,192,59525,1,0,0:0:0:0:
51,192,59525,1,0,0:0:0:0:
358,192,59620,1,0,0:0:0:0:
153,192,59715,1,0,0:0:0:0:
460,192,59810,1,0,0:0:0:0:
51,192,59905,1,0,0:0:0:0:
256,192,59905,1,0,0:0:0:0:
358,192,60000,1,0,0:0:0:0:
153,192,60095,1,0,0:0:0:0:
51,192,60190,1,0,0:0:0:0:
358,192,60285,1,0,0:0:0:0:
460,192,60285,1,0,0:0:0:0:
256,192,60285,1,0,0:0:0:0:
153,192,60380,1,0,0:0:0:0:
358,192,60475,1,0,0:0:0:0:
153,192,60569,1,0,0:0:0:0:
51,192,60664,1,0,0:0:0:0:
460,192,60664,1,0,0:0:0:0:
358,192,60664,1,0,0:0:0:0:
256,192,60759,1,0,0:0:0:0:
460,192,60854,1,0,0:0:0:0:
153,192,60949,1,0,0:0:0:0:
51,192,61044,1,0,0:0:0:0:
358,192,61044,1,0,0:0:0:0:
256,192,61044,1,0,0:0:0:0:
460,192,61139,1,0,0:0:0:0:
153,192,61234,1,0,0:0:0:0:
358,192,61329,1,0,0:0:0:0:
256,192,61424,1,0,0:0:0:0:
51,192,61424,1,0,0:0:0:0:
460,192,61519,1,0,0:0:0:0:
256,192,61614,1,0,0:0:0:0:
358,192,61709,1,0,0:0:0:0:
51,192,61804,1,0,0:0:0:0:
153,192,61804,1,0,0:0:0:0:
460,192,61804,1,0,0:0:0:0:
358,192,61899,1,0,0:0:0:0:
256,192,61899,1,0,0:0:0:0:
51,192,61994,1,0,0:0:0:0:
153,192,61994,1,0,0:0:0:0:
358,192,62088,1,0,0:0:0:0:
460,192,62088,1,0,0:0:0:0:
153,192,62183,1,0,0:0:0:0:
256,192,62183,1,0,0:0:0:0:
460,192,62278,1,0,0:0:0:0:
51,192,62278,1,0,0:0:0:0:
153,192,62373,1,0,0:0:0:0:
256,192,62373,1,0,0:0:0:0:
358,192,62468,1,0,0:0:0:0:
51,192,62563,1,0,0:0:0:0:
460,192,62563,1,0,0:0:0:0:
256,192,62563,1,0,0:0:0:0:
153,192,62658,1,0,0:0:0:0:
460,192,62753,1,0,0:0:0:0:
358,192,62753,1,0,0:0:0:0:
256,192,62848,1,0,0:0:0:0:
358,192,62943,1,0,0:0:0:0:
51,192,62943,1,0,0:0:0:0:
256,192,63038,1,0,0:0:0:0:
460,192,63133,1,0,0:0:0:0:
153,192,63133,1,0,0:0:0:0:
358,192,63228,1,0,0:0:0:0:
256,192,63323,1,0,0:0:0:0:
51,192,63323,1,0,0:0:0:0:
153,192,63323,1,0,0:0:0:0:
460,192,63418,1,0,0:0:0:0:
358,192,63418,1,0,0:0:0:0:
51,192,63513,1,0,0:0:0:0:
153,192,63513,1,0,0:0:0:0:
460,192,63607,1,0,0:0:0:0:
51,192,63702,1,0,0:0:0:0:
153,192,63702,1,0,0:0:0:0:
256,192,63702,1,0,0:0:0:0:
358,192,63702,128,0,64082:0:0:0:0:
460,192,63797,1,0,0:0:0:0:
153,192,63892,1,0,0:0:0:0:
256,192,63987,1,0,0:0:0:0:
51,192,64082,128,0,64462:0:0:0:0:
460,192,64082,1,0,0:0:0:0:
153,192,64177,1,0,0:0:0:0:
358,192,64272,1,0,0:0:0:0:
256,192,64367,1,0,0:0:0:0:
153,192,64462,128,0,64842:0:0:0:0:
358,192,64462,1,0,0:0:0:0:
460,192,64557,1,0,0:0:0:0:
256,192,64652,1,0,0:0:0:0:
358,192,64747,1,0,0:0:0:0:
460,192,64842,128,0,65221:0:0:0:0:
51,192,64842,1,0,0:0:0:0:
358,192,64937,1,0,0:0:0:0:
256,192,64937,1,0,0:0:0:0:
153,192,65032,1,0,0:0:0:0:
51,192,65032,1,0,0:0:0:0:
256,192,65126,1,0,0:0:0:0:
358,192,65221,128,0,65601:0:0:0:0:
51,192,65221,1,0,0:0:0:0:
460,192,65316,1,0,0:0:0:0:
153,192,65316,1,0,0:0:0:0:
256,192,65411,1,0,0:0:0:0:
460,192,65506,1,0,0:0:0:0:
153,192,65506,1,0,0:0:0:0:
51,192,65601,128,0,65981:0:0:0:0:
256,192,65601,1,0,0:0:0:0:
358,192,65696,1,0,0:0:0:0:
153,192,65791,1,0,0:0:0:0:
460,192,65886,1,0,0:0:0:0:
153,192,65981,128,0,66361:0:0:0:0:
256,192,65981,1,0,0:0:0:0:
358,192,66076,1,0,0:0:0:0:
460,192,66171,1,0,0:0:0:0:
256,192,66266,1,0,0:0:0:0:
358,192,66361,1,0,0:0:0:0:
460,192,66361,1,0,0:0:0:0:
51,192,66361,1,0,0:0:0:0:
153,192,66456,1,0,0:0:0:0:
358,192,66551,1,0,0:0:0:0:
153,192,66645,1,0,0:0:0:0:
51,192,66740,1,0,0:0:0:0:
256,192,66740,1,0,0:0:0:0:
460,192,66740,1,0,0:0:0:0:
358,192,66740,1,0,0:0:0:0:
153,192,66835,1,0,0:0:0:0:
460,192,66930,1,0,0:0:0:0:
256,192,67025,1,0,0:0:0:0:
358,192,67120,1,0,0:0:0:0:
51,192,67120,1,0,0:0:0:0:
460,192,67120,1,0,0:0:0:0:
153,192,67215,1,0,0:0:0:0:
358,192,67310,1,0,0:0:0:0:
256,192,67405,1,0,0:0:0:0:
51,192,67500,1,0,0:0:0:0:
460,192,67500,1,0,0:0:0:0:
153,192,67595,1,0,0:0:0:0:
358,192,67690,1,0,0:0:0:0:
51,192,67785,1,0,0:0:0:0:
358,192,67880,1,0,0:0:0:0:
460,192,67880,1,0,0:0:0:0:
153,192,67880,1,0,0:0:0:0:
256,192,67975,1,0,0:0:0:0:
51,192,67975,1,0,0:0:0:0:
153,192,68069,1,0,0:0:0:0:
460,192,68069,1,0,0:0:0:0:
358,192,68164,1,0,0:0:0:0:
256,192,68164,1,0,0:0:0:0:
153,192,68259,1,0,0:0:0:0:
51,192,68259,1,0,0:0:0:0:
358,192,68354,1,0,0:0:0:0:
460,192,68354,1,0,0:0:0:0:
51,192,68449,1,0,0:0:0:0:
153,192,68449,1,0,0:0:0:0:
460,192,68544,1,0,0:0:0:0:
358,192,68639,1,0,0:0:0:0:
256,192,68639,1,0,0:0:0:0:
51,192,68639,1,0,0:0:0:0:
153,192,68734,1,0,0:0:0:0:
460,192,68829,1,0,0:0:0:0:
256,192,68924,1,0,0:0:0:0:
51,192,69019,1,0,0:0:0:0:
153,192,69019,1,0,0:0:0:0:
358,192,69114,1,0,0:0:0:0:
460,192,69209,1,0,0:0:0:0:
256,192,69304,1,0,0:0:0:0:
358,192,69399,1,0,0:0:0:0:
460,192,69399,1,0,0:0:0:0:
51,192,69399,1,0,0:0:0:0:
153,192,69494,1,0,0:0:0:0:
256,192,69494,1,0,0:0:0:0:
358,192,69588,1,0,0:0:0:0:
460,192,69588,1,0,0:0:0:0:
153,192,69683,1,0,0:0:0:0:
358,192,69778,1,0,0:0:0:0:
460,192,69778,1,0,0:0:0:0:
256,192,69778,1,0,0:0:0:0:
51,192,69778,1,0,0:0:0:0:
153,192,69873,1,0,0:0:0:0:
460,192,69968,1,0,0:0:0:0:
256,192,70063,1,0,0:0:0:0:
358,192,70158,1,0,0:0:0:0:
51,192,70158,1,0,0:0:0:0:
460,192,70158,1,0,0:0:0:0:
153,192,70253,1,0,0:0:0:0:
256,192,70348,1,0,0:0:0:0:
51,192,70443,1,0,0:0:0:0:
153,192,70538,1,0,0:0:0:0:
358,192,70538,1,0,0:0:0:0:
460,192,70633,1,0,0:0:0:0:
51,192,70728,1,0,0:0:0:0:
358,192,70823,1,0,0:0:0:0:
460,192,70918,1,0,0:0:0:0:
153,192,70918,1,0,0:0:0:0:
256,192,70918,1,0,0:0:0:0:
51,192,71013,1,0,0:0:0:0:
358,192,71013,1,0,0:0:0:0:
256,192,71107,1,0,0:0:0:0:
153,192,71107,1,0,0:0:0:0:
460,192,71202,1,0,0:0:0:0:
358,192,71202,1,0,0:0:0:0:
153,192,71297,1,0,0:0:0:0:
51,192,71297,1,0,0:0:0:0:
256,192,71392,1,0,0:0:0:0:
51,192,71487,1,0,0:0:0:0:
358,192,71582,1,0,0:0:0:0:
460,192,71582,1,0,0:0:0:0:
256,192,71677,1,0,0:0:0:0:
153,192,71677,1,0,0:0:0:0:
51,192,71677,1,0,0:0:0:0:
460,192,71772,1,0,0:0:0:0:
358,192,71867,1,0,0:0:0:0:
256,192,71962,1,0,0:0:0:0:
153,192,72057,1,0,0:0:0:0:
460,192,72057,1,0,0:0:0:0:
358,192,72152,1,0,0:0:0:0:
51,192,72247,1,0,0:0:0:0:
256,192,72342,1,0,0:0:0:0:
460,192,72437,1,0,0:0:0:0:
358,192,72437,1,0,0:0:0:0:
51,192,72437,1,0,0:0:0:0:
153,192,72532,1,0,0:0:0:0:
358,192,72626,1,0,0:0:0:0:
256,192,72721,1,0,0:0:0:0:
51,192,72816,1,0,0:0:0:0:
460,192,72816,1,0,0:0:0:0:
153,192,72816,1,0,0:0:0:0:
358,192,72816,1,0,0:0:0:0:
256,192,72911,1,0,0:0:0:0:
51,192,73006,1,0,0:0:0:0:
153,192,73101,1,0,0:0:0:0:
358,192,73196,1,0,0:0:0:0:
460,192,73196,1,0,0:0:0:0:
51,192,73196,1,0,0:0:0:0:
256,192,73291,1,0,0:0:0:0:
153,192,73386,1,0,0:0:0:0:
358,192,73481,1,0,0:0:0:0:
256,192,73576,1,0,0:0:0:0:
51,192,73576,1,0,0:0:0:0:
460,192,73671,1,0,0:0:0:0:
358,192,73766,1,0,0:0:0:0:
153,192,73861,1,0,0:0:0:0:
51,192,73956,1,0,0:0:0:0:
460,192,73956,1,0,0:0:0:0:
358,192,73956,1,0,0:0:0:0:
256,192,74051,1,0,0:0:0:0:
460,192,74145,1,0,0:0:0:0:
256,192,74240,1,0,0:0:0:0:
358,192,74335,1,0,0:0:0:0:
51,192,74335,1,0,0:0:0:0:
153,192,74430,1,0,0:0:0:0:
256,192,74525,1,0,0:0:0:0:
153,192,74620,1,0,0:0:0:0:
51,192,74715,1,0,0:0:0:0:
358,192,74715,1,0,0:0:0:0:
460,192,74715,1,0,0:0:0:0:
256,192,74810,1,0,0:0:0:0:
153,192,74905,1,0,0:0:0:0:
358,192,75000,1,0,0:0:0:0:
256,192,75095,1,0,0:0:0:0:
51,192,75095,1,0,0:0:0:0:
460,192,75190,1,0,0:0:0:0:
358,192,75285,1,0,0:0:0:0:
153,192,75380,1,0,0:0:0:0:
256,192,75475,1,0,0:0:0:0:
460,192,75475,1,0,0:0:0:0:
358,192,75475,1,0,0:0:0:0:
51,192,75569,1,0,0:0:0:0:
153,192,75664,1,0,0:0:0:0:
256,192,75759,1,0,0:0:0:0:
358,192,75854,1,0,0:0:0:0:
460,192,75854,1,0,0:0:0:0:
51,192,75854,1,0,0:0:0:0:
153,192,75854,1,0,0:0:0:0:
256,192,76044,1,0,0:0:0:0:
358,192,76139,1,0,0:0:0:0:
460,192,76234,1,0,0:0:0:0:
153,192,76234,1,0,0:0:0:0:
256,192,76424,1,0,0:0:0:0:
153,192,76519,1,0,0:0:0:0:
51,192,76614,1,0,0:0:0:0:
460,192,76614,1,0,0:0:0:0:
358,192,76614,1,0,0:0:0:0:
153,192,76804,1,0,0:0:0:0:
358,192,76899,1,0,0:0:0:0:
460,192,76899,1,0,0:0:0:0:
256,192,76994,1,0,0:0:0:0:
153,192,76994,1,0,0:0:0:0:
51,192,76994,1,0,0:0:0:0:
358,192,77088,1,0,0:0:0:0:
460,192,77183,1,0,0:0:0:0:
51,192,77183,1,0,0:0:0:0:
256,192,77278,1,0,0:0:0:0:
358,192,77278,1,0,0:0:0:0:
460,192,77373,1,0,0:0:0:0:
51,192,77373,1,0,0:0:0:0:
153,192,77373,1,0,0:0:0:0:
256,192,77468,1,0,0:0:0:0:
358,192,77563,1,0,0:0:0:0:
460,192,77563,1,0,0:0:0:0:
153,192,77658,1,0,0:0:0:0:
51,192,77658,1,0,0:0:0:0:
256,192,77753,1,0,0:0:0:0:
358,192,77753,1,0,0:0:0:0:
460,192,77753,1,0,0:0:0:0:
153,192,77848,1,0,0:0:0:0:
51,192,77943,1,0,0:0:0:0:
358,192,77943,1,0,0:0:0:0:
256,192,78038,1,0,0:0:0:0:
153,192,78038,1,0,0:0:0:0:
358,192,78133,1,0,0:0:0:0:
460,192,78133,1,0,0:0:0:0:
51,192,78133,1,0,0:0:0:0:
256,192,78228,1,0,0:0:0:0:
153,192,78323,1,0,0:0:0:0:
460,192,78418,1,0,0:0:0:0:
51,192,78513,1,0,0:0:0:0:
358,192,78513,1,0,0:0:0:0:
153,192,78576,1,0,0:0:0:0:
256,192,78639,1,0,0:0:0:0:
358,192,78702,1,0,0:0:0:0:
153,192,78797,1,0,0:0:0:0:
256,192,78892,1,0,0:0:0:0:
358,192,78892,1,0,0:0:0:0:
460,192,78892,1,0,0:0:0:0:
51,192,78892,128,0,79652:0:0:0:0:
153,192,79082,1,0,0:0:0:0:
460,192,79272,1,0,0:0:0:0:
358,192,79272,1,0,0:0:0:0:
256,192,79462,1,0,0:0:0:0:
460,192,79652,128,0,80411:0:0:0:0:
358,192,79652,1,0,0:0:0:0:
153,192,79652,1,0,0:0:0:0:
51,192,79842,1,0,0:0:0:0:
256,192,80032,1,0,0:0:0:0:
358,192,80032,1,0,0:0:0:0:
153,192,80221,1,0,0:0:0:0:
256,192,80411,1,0,0:0:0:0:
358,192,80411,128,0,80791:0:0:0:0:
51,192,80411,1,0,0:0:0:0:
460,192,80601,1,0,0:0:0:0:
256,192,80791,128,0,81171:0:0:0:0:
51,192,80791,1,0,0:0:0:0:
153,192,80791,1,0,0:0:0:0:
358,192,80981,1,0,0:0:0:0:
153,192,81171,128,0,81551:0:0:0:0:
460,192,81171,1,0,0:0:0:0:
51,192,81171,1,0,0:0:0:0:
358,192,81361,1,0,0:0:0:0:
256,192,81551,128,0,81930:0:0:0:0:
460,192,81551,1,0,0:0:0:0:
51,192,81551,1,0,0:0:0:0:
358,192,81740,1,0,0:0:0:0:
153,192,81930,128,0,82500:0:0:0:0:
460,192,81930,1,0,0:0:0:0:
51,192,81930,1,0,0:0:0:0:
256,192,82120,1,0,0:0:0:0:
460,192,82310,1,0,0:0:0:0:
358,192,82310,1,0,0:0:0:0:
51,192,82500,128,0,82595:0:0:0:0:
256,192,82500,1,0,0:0:0:0:
51,192,82690,128,0,83639:0:0:0:0:
460,192,82690,1,0,0:0:0:0:
256,192,82690,1,0,0:0:0:0:
153,192,82880,1,0,0:0:0:0:
460,192,83069,1,0,0:0:0:0:
358,192,83069,1,0,0:0:0:0:
256,192,83259,1,0,0:0:0:0:
460,192,83449,1,0,0:0:0:0:
153,192,83449,1,0,0:0:0:0:
358,192,83639,1,0,0:0:0:0:
460,192,83829,1,0,0:0:0:0:
51,192,83829,128,0,84209:0:0:0:0:
153,192,83829,1,0,0:0:0:0:
358,192,84019,1,0,0:0:0:0:
256,192,84114,128,0,84304:0:0:0:0:
153,192,84209,1,0,0:0:0:0:
460,192,84209,1,0,0:0:0:0:
358,192,84209,128,0,84588:0:0:0:0:
51,192,84399,1,0,0:0:0:0:
153,192,84588,128,0,84968:0:0:0:0:
460,192,84588,1,0,0:0:0:0:
256,192,84588,1,0,0:0:0:0:
51,192,84778,1,0,0:0:0:0:
256,192,84968,1,0,0:0:0:0:
460,192,84968,128,0,86107:0:0:0:0:
358,192,84968,1,0,0:0:0:0:
153,192,85158,1,0,0:0:0:0:
256,192,85348,1,0,0:0:0:0:
51,192,85348,1,0,0:0:0:0:
358,192,85538,1,0,0:0:0:0:
51,192,85728,1,0,0:0:0:0:
153,192,85728,1,0,0:0:0:0:
256,192,85918,1,0,0:0:0:0:
153,192,86107,128,0,86392:0:0:0:0:
358,192,86107,1,0,0:0:0:0:
51,192,86107,1,0,0:0:0:0:
256,192,86297,1,0,0:0:0:0:
153,192,86487,128,0,86867:0:0:0:0:
358,192,86487,1,0,0:0:0:0:
51,192,86487,1,0,0:0:0:0:
256,192,86677,1,0,0:0:0:0:
51,192,86867,1,0,0:0:0:0:
460,192,86867,128,0,87247:0:0:0:0:
358,192,86867,1,0,0:0:0:0:
153,192,87057,1,0,0:0:0:0:
358,192,87152,128,0,87342:0:0:0:0:
51,192,87247,1,0,0:0:0:0:
256,192,87247,128,0,87626:0:0:0:0:
153,192,87247,1,0,0:0:0:0:
51,192,87437,1,0,0:0:0:0:
153,192,87626,128,0,87911:0:0:0:0:
460,192,87626,1,0,0:0:0:0:
358,192,87626,1,0,0:0:0:0:
51,192,87816,1,0,0:0:0:0:
153,192,88006,128,0,88576:0:0:0:0:
460,192,88006,1,0,0:0:0:0:
358,192,88006,1,0,0:0:0:0:
51,192,88196,1,0,0:0:0:0:
256,192,88386,1,0,0:0:0:0:
460,192,88386,1,0,0:0:0:0:
51,192,88576,128,0,88671:0:0:0:0:
358,192,88576,1,0,0:0:0:0:
51,192,88766,128,0,89145:0:0:0:0:
153,192,88766,1,0,0:0:0:0:
358,192,88766,1,0,0:0:0:0:
460,192,88861,1,0,0:0:0:0:
256,192,88956,1,0,0:0:0:0:
358,192,89051,1,0,0:0:0:0:
460,192,89145,1,0,0:0:0:0:
153,192,89145,1,0,0:0:0:0:
256,192,89240,1,0,0:0:0:0:
358,192,89335,1,0,0:0:0:0:
153,192,89430,1,0,0:0:0:0:
460,192,89525,1,0,0:0:0:0:
256,192,89525,1,0,0:0:0:0:
51,192,89620,1,0,0:0:0:0:
358,192,89715,1,0,0:0:0:0:
460,192,89715,1,0,0:0:0:0:
153,192,89810,1,0,0:0:0:0:
51,192,89810,1,0,0:0:0:0:
358,192,89905,1,0,0:0:0:0:
460,192,89905,1,0,0:0:0:0:
256,192,89905,1,0,0:0:0:0:
51,192,90095,1,0,0:0:0:0:
153,192,90190,1,0,0:0:0:0:
460,192,90285,1,0,0:0:0:0:
358,192,90285,1,0,0:0:0:0:
256,192,90348,1,0,0:0:0:0:
153,192,90411,1,0,0:0:0:0:
51,192,90475,1,0,0:0:0:0:
460,192,90569,1,0,0:0:0:0:
51,192,90664,1,0,0:0:0:0:
153,192,90664,1,0,0:0:0:0:
256,192,90728,1,0,0:0:0:0:
358,192,90791,1,0,0:0:0:0:
51,192,90854,1,0,0:0:0:0:
460,192,90854,1,0,0:0:0:0:
153,192,90918,1,0,0:0:0:0:
256,192,90981,1,0,0:0:0:0:
153,192,91044,128,0,92563:0:0:0:0:
358,192,91044,1,0,0:0:0:0:
51,192,91044,1,0,0:0:0:0:
460,192,91044,1,0,0:0:0:0:
256,192,91234,1,0,0:0:0:0:
460,192,91424,1,0,0:0:0:0:
51,192,91424,1,0,0:0:0:0:
358,192,91614,1,0,0:0:0:0:
460,192,91804,128,0,92468:0:0:0:0:
51,192,91804,1,0,0:0:0:0:
256,192,91994,1,0,0:0:0:0:
51,192,92183,1,0,0:0:0:0:
358,192,92183,128,0,92468:0:0:0:0:
256,192,92373,1,0,0:0:0:0:
460,192,92563,1,0,0:0:0:0:
51,192,92563,128,0,93133:0:0:0:0:
358,192,92563,1,0,0:0:0:0:
256,192,92753,1,0,0:0:0:0:
153,192,92943,1,0,0:0:0:0:
358,192,92943,128,0,93513:0:0:0:0:
460,192,92943,1,0,0:0:0:0:
256,192,93133,1,0,0:0:0:0:
51,192,93323,1,0,0:0:0:0:
153,192,93323,128,0,93892:0:0:0:0:
460,192,93323,1,0,0:0:0:0:
256,192,93513,1,0,0:0:0:0:
358,192,93702,128,0,94272:0:0:0:0:
460,192,93702,1,0,0:0:0:0:
51,192,93702,1,0,0:0:0:0:
256,192,93892,1,0,0:0:0:0:
460,192,93987,1,0,0:0:0:0:
256,192,94082,1,0,0:0:0:0:
153,192,94082,128,0,94747:0:0:0:0:
51,192,94082,1,0,0:0:0:0:
460,192,94272,1,0,0:0:0:0:
358,192,94462,1,0,0:0:0:0:
256,192,94462,1,0,0:0:0:0:
51,192,94652,128,0,94747:0:0:0:0:
460,192,94652,1,0,0:0:0:0:
51,192,94842,128,0,95791:0:0:0:0:
256,192,94842,1,0,0:0:0:0:
460,192,94842,1,0,0:0:0:0:
153,192,95032,1,0,0:0:0:0:
358,192,95095,1,0,0:0:0:0:
460,192,95095,1,0,0:0:0:0:
153,192,95221,1,0,0:0:0:0:
358,192,95348,1,0,0:0:0:0:
256,192,95348,1,0,0:0:0:0:
460,192,95411,1,0,0:0:0:0:
256,192,95601,1,0,0:0:0:0:
358,192,95601,1,0,0:0:0:0:
460,192,95601,1,0,0:0:0:0:
358,192,95791,1,0,0:0:0:0:
153,192,95854,1,0,0:0:0:0:
256,192,95854,1,0,0:0:0:0:
358,192,95981,1,0,0:0:0:0:
51,192,95981,128,0,96361:0:0:0:0:
460,192,96107,1,0,0:0:0:0:
256,192,96107,1,0,0:0:0:0:
153,192,96171,1,0,0:0:0:0:
460,192,96361,1,0,0:0:0:0:
256,192,96361,1,0,0:0:0:0:
153,192,96361,128,0,96740:0:0:0:0:
358,192,96551,1,0,0:0:0:0:
51,192,96614,1,0,0:0:0:0:
460,192,96614,1,0,0:0:0:0:
256,192,96740,128,0,97120:0:0:0:0:
358,192,96740,1,0,0:0:0:0:
51,192,96867,1,0,0:0:0:0:
153,192,96867,1,0,0:0:0:0:
460,192,96930,1,0,0:0:0:0:
358,192,97025,1,0,0:0:0:0:
51,192,97120,1,0,0:0:0:0:
153,192,97120,1,0,0:0:0:0:
460,192,97120,128,0,98449:0:0:0:0:
256,192,97310,1,0,0:0:0:0:
51,192,97500,1,0,0:0:0:0:
358,192,97500,1,0,0:0:0:0:
153,192,97690,1,0,0:0:0:0:
358,192,97880,128,0,98164:0:0:0:0:
256,192,97880,1,0,0:0:0:0:
51,192,98069,1,0,0:0:0:0:
358,192,98259,1,0,0:0:0:0:
153,192,98259,1,0,0:0:0:0:
256,192,98259,128,0,98544:0:0:0:0:
51,192,98449,1,0,0:0:0:0:
153,192,98639,1,0,0:0:0:0:
256,192,98639,128,0,99209:0:0:0:0:
358,192,98639,1,0,0:0:0:0:
460,192,98829,1,0,0:0:0:0:
153,192,99019,128,0,99494:0:0:0:0:
51,192,99019,1,0,0:0:0:0:
358,192,99019,1,0,0:0:0:0:
460,192,99209,1,0,0:0:0:0:
358,192,99399,1,0,0:0:0:0:
51,192,99399,128,0,99778:0:0:0:0:
256,192,99399,1,0,0:0:0:0:
460,192,99494,1,0,0:0:0:0:
153,192,99588,1,0,0:0:0:0:
256,192,99683,1,0,0:0:0:0:
358,192,99778,1,0,0:0:0:0:
460,192,99778,1,0,0:0:0:0:
153,192,99778,1,0,0:0:0:0:
51,192,99873,1,0,0:0:0:0:
256,192,99968,1,0,0:0:0:0:
358,192,99968,1,0,0:0:0:0:
460,192,100063,1,0,0:0:0:0:
256,192,100158,1,0,0:0:0:0:
153,192,100158,1,0,0:0:0:0:
51,192,100158,1,0,0:0:0:0:
358,192,100253,1,0,0:0:0:0:
460,192,100348,1,0,0:0:0:0:
153,192,100443,1,0,0:0:0:0:
256,192,100538,1,0,0:0:0:0:
358,192,100538,1,0,0:0:0:0:
51,192,100633,1,0,0:0:0:0:
153,192,100728,1,0,0:0:0:0:
358,192,100823,1,0,0:0:0:0:
460,192,100918,1,0,0:0:0:0:
153,192,100918,1,0,0:0:0:0:
51,192,100918,1,0,0:0:0:0:
256,192,101013,1,0,0:0:0:0:
358,192,101107,1,0,0:0:0:0:
153,192,101202,1,0,0:0:0:0:
256,192,101297,1,0,0:0:0:0:
460,192,101297,1,0,0:0:0:0:
51,192,101297,1,0,0:0:0:0:
358,192,101392,1,0,0:0:0:0:
153,192,101487,1,0,0:0:0:0:
358,192,101582,1,0,0:0:0:0:
460,192,101677,1,0,0:0:0:0:
256,192,101677,1,0,0:0:0:0:
51,192,101677,1,0,0:0:0:0:
153,192,101772,1,0,0:0:0:0:
358,192,101867,1,0,0:0:0:0:
256,192,101962,1,0,0:0:0:0:
153,192,102057,1,0,0:0:0:0:
51,192,102057,1,0,0:0:0:0:
460,192,102057,1,0,0:0:0:0:
358,192,102247,1,0,0:0:0:0:
256,192,102342,1,0,0:0:0:0:
51,192,102437,1,0,0:0:0:0:
460,192,102437,1,0,0:0:0:0:
153,192,102500,1,0,0:0:0:0:
256,192,102563,1,0,0:0:0:0:
358,192,102626,1,0,0:0:0:0:
51,192,102626,1,0,0:0:0:0:
153,192,102721,1,0,0:0:0:0:
256,192,102816,1,0,0:0:0:0:
460,192,102816,1,0,0:0:0:0:
358,192,102816,1,0,0:0:0:0:
51,192,102911,1,0,0:0:0:0:
153,192,103006,1,0,0:0:0:0:
460,192,103006,1,0,0:0:0:0:
256,192,103101,1,0,0:0:0:0:
358,192,103196,1,0,0:0:0:0:
460,192,103196,1,0,0:0:0:0:
153,192,103196,1,0,0:0:0:0:
51,192,103196,1,0,0:0:0:0:
256,192,103386,1,0,0:0:0:0:
460,192,103576,1,0,0:0:0:0:
153,192,103576,1,0,0:0:0:0:
358,192,103576,1,0,0:0:0:0:
51,192,103766,1,0,0:0:0:0:
460,192,103956,1,0,0:0:0:0:
358,192,103956,1,0,0:0:0:0:
153,192,104051,1,0,0:0:0:0:
358,192,104145,1,0,0:0:0:0:
460,192,104240,1,0,0:0:0:0:
256,192,104335,1,0,0:0:0:0:
153,192,104335,1,0,0:0:0:0:
51,192,104335,1,0,0:0:0:0:
358,192,104430,1,0,0:0:0:0:
460,192,104525,1,0,0:0:0:0:
256,192,104620,1,0,0:0:0:0:
460,192,104715,1,0,0:0:0:0:
153,192,104715,1,0,0:0:0:0:
51,192,104715,1,0,0:0:0:0:
358,192,104810,1,0,0:0:0:0:
51,192,104905,1,0,0:0:0:0:
153,192,105000,1,0,0:0:0:0:
460,192,105095,1,0,0:0:0:0:
256,192,105095,1,0,0:0:0:0:
358,192,105095,1,0,0:0:0:0:
153,192,105190,1,0,0:0:0:0:
358,192,105285,1,0,0:0:0:0:
256,192,105380,1,0,0:0:0:0:
358,192,105475,1,0,0:0:0:0:
460,192,105475,1,0,0:0:0:0:
51,192,105475,1,0,0:0:0:0:
153,192,105569,1,0,0:0:0:0:
460,192,105664,1,0,0:0:0:0:
153,192,105759,1,0,0:0:0:0:
358,192,105854,1,0,0:0:0:0:
51,192,105854,1,0,0:0:0:0:
256,192,105854,1,0,0:0:0:0:
153,192,106044,1,0,0:0:0:0:
256,192,106107,1,0,0:0:0:0:
358,192,106171,1,0,0:0:0:0:
460,192,106234,1,0,0:0:0:0:
51,192,106234,1,0,0:0:0:0:
153,192,106234,1,0,0:0:0:0:
256,192,106424,1,0,0:0:0:0:
460,192,106424,1,0,0:0:0:0:
358,192,106614,1,0,0:0:0:0:
256,192,106614,1,0,0:0:0:0:
51,192,106614,1,0,0:0:0:0:
153,192,106804,1,0,0:0:0:0:
358,192,106804,1,0,0:0:0:0:
153,192,106994,1,0,0:0:0:0:
256,192,106994,1,0,0:0:0:0:
460,192,106994,1,0,0:0:0:0:
256,192,107183,1,0,0:0:0:0:
51,192,107183,1,0,0:0:0:0:
153,192,107373,1,0,0:0:0:0:
51,192,107373,1,0,0:0:0:0:
358,192,107373,1,0,0:0:0:0:
256,192,107563,1,0,0:0:0:0:
460,192,107563,1,0,0:0:0:0:
51,192,107753,1,0,0:0:0:0:
153,192,107753,1,0,0:0:0:0:
460,192,107753,1,0,0:0:0:0:
256,192,107848,1,0,0:0:0:0:
153,192,107943,1,0,0:0:0:0:
460,192,108038,1,0,0:0:0:0:
256,192,108133,1,0,0:0:0:0:
51,192,108133,1,0,0:0:0:0:
358,192,108133,1,0,0:0:0:0:
460,192,108228,1,0,0:0:0:0:
51,192,108323,1,0,0:0:0:0:
256,192,108418,1,0,0:0:0:0:
460,192,108513,1,0,0:0:0:0:
358,192,108513,1,0,0:0:0:0:
153,192,108607,1,0,0:0:0:0:
358,192,108702,1,0,0:0:0:0:
460,192,108797,1,0,0:0:0:0:
51,192,108892,1,0,0:0:0:0:
256,192,108892,1,0,0:0:0:0:
153,192,108892,1,0,0:0:0:0:
358,192,108987,1,0,0:0:0:0:
460,192,109082,1,0,0:0:0:0:
153,192,109177,1,0,0:0:0:0:
51,192,109272,1,0,0:0:0:0:
256,192,109272,1,0,0:0:0:0:
460,192,109272,1,0,0:0:0:0:
358,192,109367,1,0,0:0:0:0:
153,192,109462,1,0,0:0:0:0:
358,192,109557,1,0,0:0:0:0:
460,192,109652,1,0,0:0:0:0:
153,192,109652,1,0,0:0:0:0:
256,192,109652,1,0,0:0:0:0:
358,192,109747,1,0,0:0:0:0:
153,192,109842,1,0,0:0:0:0:
358,192,109937,1,0,0:0:0:0:
460,192,110032,1,0,0:0:0:0:
256,192,110032,1,0,0:0:0:0:
358,192,110126,1,0,0:0:0:0:
153,192,110221,1,0,0:0:0:0:
358,192,110316,1,0,0:0:0:0:
153,192,110411,1,0,0:0:0:0:
460,192,110411,1,0,0:0:0:0:
256,192,110411,1,0,0:0:0:0:
358,192,110506,1,0,0:0:0:0:
153,192,110601,1,0,0:0:0:0:
358,192,110696,1,0,0:0:0:0:
460,192,110791,1,0,0:0:0:0:
51,192,110791,1,0,0:0:0:0:
256,192,110791,1,0,0:0:0:0:
153,192,110981,1,0,0:0:0:0:
358,192,111076,1,0,0:0:0:0:
256,192,111171,1,0,0:0:0:0:
460,192,111171,1,0,0:0:0:0:
51,192,111171,1,0,0:0:0:0:
358,192,111361,1,0,0:0:0:0:
153,192,111551,1,0,0:0:0:0:
256,192,111551,1,0,0:0:0:0:
460,192,111740,128,0,111835:0:0:0:0:
358,192,111740,128,0,111835:0:0:0:0:
153,192,111930,1,0,0:0:0:0:
358,192,111930,128,0,112025:0:0:0:0:
460,192,111930,128,0,112025:0:0:0:0:
256,192,112120,128,0,112215:0:0:0:0:
51,192,112120,128,0,112215:0:0:0:0:
460,192,112310,128,0,112690:0:0:0:0:
358,192,112310,1,0,0:0:0:0:
153,192,112310,1,0,0:0:0:0:
51,192,112500,1,0,0:0:0:0:
256,192,112690,128,0,113069:0:0:0:0:
153,192,112690,1,0,0:0:0:0:
358,192,112690,1,0,0:0:0:0:
460,192,112880,1,0,0:0:0:0:
51,192,113069,128,0,113449:0:0:0:0:
358,192,113069,1,0,0:0:0:0:
153,192,113069,1,0,0:0:0:0:
256,192,113259,1,0,0:0:0:0:
460,192,113449,1,0,0:0:0:0:
358,192,113449,1,0,0:0:0:0:
153,192,113449,1,0,0:0:0:0:
256,192,113544,1,0,0:0:0:0:
460,192,113639,1,0,0:0:0:0:
51,192,113639,1,0,0:0:0:0:
358,192,113734,1,0,0:0:0:0:
256,192,113829,1,0,0:0:0:0:
51,192,113829,1,0,0:0:0:0:
153,192,113829,1,0,0:0:0:0:
358,192,114019,1,0,0:0:0:0:
153,192,114019,1,0,0:0:0:0:
256,192,114114,1,0,0:0:0:0:
460,192,114209,1,0,0:0:0:0:
358,192,114209,1,0,0:0:0:0:
51,192,114209,1,0,0:0:0:0:
460,192,114399,1,0,0:0:0:0:
153,192,114399,1,0,0:0:0:0:
256,192,114494,1,0,0:0:0:0:
153,192,114588,1,0,0:0:0:0:
358,192,114588,1,0,0:0:0:0:
51,192,114588,1,0,0:0:0:0:
358,192,114778,1,0,0:0:0:0:
256,192,114778,1,0,0:0:0:0:
460,192,114873,1,0,0:0:0:0:
256,192,114968,1,0,0:0:0:0:
51,192,114968,1,0,0:0:0:0:
153,192,114968,1,0,0:0:0:0:
358,192,115158,1,0,0:0:0:0:
460,192,115158,1,0,0:0:0:0:
153,192,115253,1,0,0:0:0:0:
256,192,115348,1,0,0:0:0:0:
460,192,115348,1,0,0:0:0:0:
51,192,115348,1,0,0:0:0:0:
358,192,115348,1,0,0:0:0:0:
153,192,115443,1,0,0:0:0:0:
358,192,115538,1,0,0:0:0:0:
153,192,115633,1,0,0:0:0:0:
256,192,115728,1,0,0:0:0:0:
460,192,115728,1,0,0:0:0:0:
51,192,115728,1,0,0:0:0:0:
153,192,115823,1,0,0:0:0:0:
358,192,115918,1,0,0:0:0:0:
153,192,116013,1,0,0:0:0:0:
256,192,116107,1,0,0:0:0:0:
460,192,116107,1,0,0:0:0:0:
153,192,116202,1,0,0:0:0:0:
358,192,116297,1,0,0:0:0:0:
153,192,116392,1,0,0:0:0:0:
256,192,116487,1,0,0:0:0:0:
460,192,116487,1,0,0:0:0:0:
51,192,116487,1,0,0:0:0:0:
153,192,116582,1,0,0:0:0:0:
358,192,116677,1,0,0:0:0:0:
153,192,116772,1,0,0:0:0:0:
460,192,116867,1,0,0:0:0:0:
51,192,116867,1,0,0:0:0:0:
256,192,116962,1,0,0:0:0:0:
358,192,117057,1,0,0:0:0:0:
256,192,117152,1,0,0:0:0:0:
51,192,117247,1,0,0:0:0:0:
460,192,117247,1,0,0:0:0:0:
153,192,117247,1,0,0:0:0:0:
256,192,117342,1,0,0:0:0:0:
358,192,117437,1,0,0:0:0:0:
256,192,117532,1,0,0:0:0:0:
153,192,117626,1,0,0:0:0:0:
51,192,117626,1,0,0:0:0:0:
358,192,117721,1,0,0:0:0:0:
460,192,117816,1,0,0:0:0:0:
153,192,117911,1,0,0:0:0:0:
256,192,118006,1,0,0:0:0:0:
460,192,118006,1,0,0:0:0:0:
51,192,118006,1,0,0:0:0:0:
358,192,118101,1,0,0:0:0:0:
153,192,118196,1,0,0:0:0:0:
460,192,118291,1,0,0:0:0:0:
51,192,118386,1,0,0:0:0:0:
153,192,118386,1,0,0:0:0:0:
358,192,118386,1,0,0:0:0:0:
256,192,118576,1,0,0:0:0:0:
460,192,118639,1,0,0:0:0:0:
358,192,118702,1,0,0:0:0:0:
256,192,118766,1,0,0:0:0:0:
51,192,118766,1,0,0:0:0:0:
153,192,118766,1,0,0:0:0:0:
153,192,118956,1,0,0:0:0:0:
358,192,119019,1,0,0:0:0:0:
256,192,119082,1,0,0:0:0:0:
153,192,119145,1,0,0:0:0:0:
460,192,119145,1,0,0:0:0:0:
51,192,119335,1,0,0:0:0:0:
256,192,119399,1,0,0:0:0:0:
153,192,119462,1,0,0:0:0:0:
51,192,119525,1,0,0:0:0:0:
358,192,119525,1,0,0:0:0:0:
460,192,119525,1,0,0:0:0:0:
256,192,119715,1,0,0:0:0:0:
358,192,119905,1,0,0:0:0:0:
51,192,119905,1,0,0:0:0:0:
153,192,120000,1,0,0:0:0:0:
358,192,120095,1,0,0:0:0:0:
460,192,120190,1,0,0:0:0:0:
256,192,120285,1,0,0:0:0:0:
51,192,120285,1,0,0:0:0:0:
153,192,120285,1,0,0:0:0:0:
358,192,120380,1,0,0:0:0:0:
460,192,120475,1,0,0:0:0:0:
256,192,120569,1,0,0:0:0:0:
460,192,120664,1,0,0:0:0:0:
51,192,120664,1,0,0:0:0:0:
153,192,120664,1,0,0:0:0:0:
358,192,120854,1,0,0:0:0:0:
153,192,120949,1,0,0:0:0:0:
256,192,120949,1,0,0:0:0:0:
460,192,121044,1,0,0:0:0:0:
51,192,121044,1,0,0:0:0:0:
256,192,121234,1,0,0:0:0:0:
358,192,121234,1,0,0:0:0:0:
358,192,121424,1,0,0:0:0:0:
460,192,121424,1,0,0:0:0:0:
51,192,121424,1,0,0:0:0:0:
153,192,121614,1,0,0:0:0:0:
256,192,121804,1,0,0:0:0:0:
460,192,121804,1,0,0:0:0:0:
51,192,121804,1,0,0:0:0:0:
153,192,121994,1,0,0:0:0:0:
358,192,122057,1,0,0:0:0:0:
153,192,122120,1,0,0:0:0:0:
460,192,122183,1,0,0:0:0:0:
256,192,122183,1,0,0:0:0:0:
358,192,122373,1,0,0:0:0:0:
51,192,122373,1,0,0:0:0:0:
256,192,122563,1,0,0:0:0:0:
153,192,122563,1,0,0:0:0:0:
51,192,122563,1,0,0:0:0:0:
256,192,122753,1,0,0:0:0:0:
358,192,122753,1,0,0:0:0:0:
358,192,122943,1,0,0:0:0:0:
460,192,122943,1,0,0:0:0:0:
153,192,122943,1,0,0:0:0:0:
51,192,123133,1,0,0:0:0:0:
256,192,123228,1,0,0:0:0:0:
358,192,123228,1,0,0:0:0:0:
153,192,123323,1,0,0:0:0:0:
51,192,123323,1,0,0:0:0:0:
358,192,123513,1,0,0:0:0:0:
460,192,123513,1,0,0:0:0:0:
51,192,123631,1,0,0:0:0:0:
153,192,123631,1,0,0:0:0:0:
358,192,123702,1,0,0:0:0:0:
153,192,123750,1,0,0:0:0:0:
51,192,123750,1,0,0:0:0:0:
460,192,123892,1,0,0:0:0:0:
256,192,123987,1,0,0:0:0:0:
153,192,123987,1,0,0:0:0:0:
51,192,124082,1,0,0:0:0:0:
358,192,124082,1,0,0:0:0:0:
256,192,124272,1,0,0:0:0:0:
460,192,124272,1,0,0:0:0:0:
51,192,124462,1,0,0:0:0:0:
358,192,124462,1,0,0:0:0:0:
153,192,124462,1,0,0:0:0:0:
256,192,124652,1,0,0:0:0:0:
358,192,124842,1,0,0:0:0:0:
460,192,124842,1,0,0:0:0:0:
153,192,124842,1,0,0:0:0:0:
51,192,125032,1,0,0:0:0:0:
256,192,125221,1,0,0:0:0:0:
460,192,125221,1,0,0:0:0:0:
51,192,125316,1,0,0:0:0:0:
153,192,125411,1,0,0:0:0:0:
358,192,125506,1,0,0:0:0:0:
460,192,125601,1,0,0:0:0:0:
51,192,125601,1,0,0:0:0:0:
153,192,125601,1,0,0:0:0:0:
256,192,125696,1,0,0:0:0:0:
358,192,125791,1,0,0:0:0:0:
153,192,125886,1,0,0:0:0:0:
256,192,125981,1,0,0:0:0:0:
460,192,125981,1,0,0:0:0:0:
358,192,125981,1,0,0:0:0:0:
51,192,126076,1,0,0:0:0:0:
460,192,126171,1,0,0:0:0:0:
51,192,126266,1,0,0:0:0:0:
460,192,126361,1,0,0:0:0:0:
153,192,126361,1,0,0:0:0:0:
358,192,126424,1,0,0:0:0:0:
51,192,126456,1,0,0:0:0:0:
256,192,126487,1,0,0:0:0:0:
460,192,126551,1,0,0:0:0:0:
51,192,126645,1,0,0:0:0:0:
460,192,126740,1,0,0:0:0:0:
153,192,126740,1,0,0:0:0:0:
358,192,126804,1,0,0:0:0:0:
256,192,126867,1,0,0:0:0:0:
460,192,126930,1,0,0:0:0:0:
358,192,126978,1,0,0:0:0:0:
153,192,127025,1,0,0:0:0:0:
51,192,127073,1,0,0:0:0:0:
460,192,127120,1,0,0:0:0:0:
256,192,127168,1,0,0:0:0:0:
153,192,127215,1,0,0:0:0:0:
51,192,127263,1,0,0:0:0:0:
358,192,127310,1,0,0:0:0:0:
256,192,127357,1,0,0:0:0:0:
153,192,127405,1,0,0:0:0:0:
51,192,127452,1,0,0:0:0:0:
256,192,127500,1,0,0:0:0:0:
358,192,127500,1,0,0:0:0:0:
460,192,127500,128,0,129019:0:0:0:0:
153,192,127595,1,0,0:0:0:0:
51,192,127690,1,0,0:0:0:0:
256,192,127785,1,0,0:0:0:0:
358,192,127880,1,0,0:0:0:0:
153,192,127975,1,0,0:0:0:0:
51,192,128069,1,0,0:0:0:0:
256,192,128164,1,0,0:0:0:0:
358,192,128259,1,0,0:0:0:0:
51,192,128354,1,0,0:0:0:0:
153,192,128449,1,0,0:0:0:0:
256,192,128544,1,0,0:0:0:0:
358,192,128639,1,0,0:0:0:0:
51,192,128734,1,0,0:0:0:0:
153,192,128829,1,0,0:0:0:0:
256,192,128924,1,0,0:0:0:0:
358,192,129019,1,0,0:0:0:0:
51,192,129019,128,0,129588:0:0:0:0:
256,192,129114,1,0,0:0:0:0:
153,192,129209,1,0,0:0:0:0:
358,192,129304,1,0,0:0:0:0:
460,192,129399,1,0,0:0:0:0:
256,192,129494,1,0,0:0:0:0:
358,192,129588,1,0,0:0:0:0:
460,192,129588,128,0,130158:0:0:0:0:
153,192,129683,1,0,0:0:0:0:
256,192,129778,1,0,0:0:0:0:
51,192,129873,1,0,0:0:0:0:
358,192,129968,1,0,0:0:0:0:
51,192,130063,1,0,0:0:0:0:
256,192,130158,128,0,130538:0:0:0:0:
358,192,130158,1,0,0:0:0:0:
153,192,130253,1,0,0:0:0:0:
51,192,130348,1,0,0:0:0:0:
358,192,130443,1,0,0:0:0:0:
460,192,130538,1,0,0:0:0:0:
153,192,130538,128,0,131107:0:0:0:0:
358,192,130728,1,0,0:0:0:0:
256,192,130918,1,0,0:0:0:0:
460,192,131107,1,0,0:0:0:0:
51,192,131107,128,0,131677:0:0:0:0:
358,192,131297,1,0,0:0:0:0:
256,192,131487,1,0,0:0:0:0:
153,192,131677,1,0,0:0:0:0:
460,192,131677,128,0,132057:0:0:0:0:
256,192,131867,1,0,0:0:0:0:
153,192,132057,128,0,132626:0:0:0:0:
358,192,132057,1,0,0:0:0:0:
51,192,132152,1,0,0:0:0:0:
256,192,132247,1,0,0:0:0:0:
358,192,132342,1,0,0:0:0:0:
460,192,132437,1,0,0:0:0:0:
256,192,132532,1,0,0:0:0:0:
51,192,132626,128,0,133006:0:0:0:0:
358,192,132626,1,0,0:0:0:0:
460,192,132721,1,0,0:0:0:0:
256,192,132816,1,0,0:0:0:0:
153,192,132911,1,0,0:0:0:0:
358,192,133006,1,0,0:0:0:0:
460,192,133101,1,0,0:0:0:0:
153,192,133196,1,0,0:0:0:0:
256,192,133291,1,0,0:0:0:0:
51,192,133386,1,0,0:0:0:0:
358,192,133481,1,0,0:0:0:0:
460,192,133576,128,0,134905:0:0:0:0:
256,192,133576,1,0,0:0:0:0:
153,192,133671,1,0,0:0:0:0:
51,192,133766,1,0,0:0:0:0:
153,192,133861,1,0,0:0:0:0:
256,192,133956,1,0,0:0:0:0:
153,192,134051,1,0,0:0:0:0:
51,192,134145,1,0,0:0:0:0:
153,192,134240,1,0,0:0:0:0:
358,192,134335,1,0,0:0:0:0:
153,192,134430,1,0,0:0:0:0:
51,192,134525,1,0,0:0:0:0:
153,192,134620,1,0,0:0:0:0:
256,192,134715,1,0,0:0:0:0:
153,192,134810,1,0,0:0:0:0:
51,192,134905,1,0,0:0:0:0:
256,192,135000,1,0,0:0:0:0:
51,192,135095,128,0,135664:0:0:0:0:
460,192,135095,1,0,0:0:0:0:
358,192,135190,1,0,0:0:0:0:
256,192,135285,1,0,0:0:0:0:
358,192,135380,1,0,0:0:0:0:
153,192,135475,1,0,0:0:0:0:
358,192,135569,1,0,0:0:0:0:
153,192,135664,128,0,136234:0:0:0:0:
256,192,135664,1,0,0:0:0:0:
358,192,135759,1,0,0:0:0:0:
460,192,135854,1,0,0:0:0:0:
358,192,135949,1,0,0:0:0:0:
51,192,136044,1,0,0:0:0:0:
358,192,136139,1,0,0:0:0:0:
256,192,136234,128,0,136614:0:0:0:0:
460,192,136234,1,0,0:0:0:0:
51,192,136329,1,0,0:0:0:0:
358,192,136424,1,0,0:0:0:0:
153,192,136519,1,0,0:0:0:0:
358,192,136614,128,0,137943:0:0:0:0:
460,192,136614,1,0,0:0:0:0:
256,192,136709,1,0,0:0:0:0:
51,192,136804,1,0,0:0:0:0:
256,192,136899,1,0,0:0:0:0:
460,192,136994,1,0,0:0:0:0:
256,192,137088,1,0,0:0:0:0:
51,192,137183,1,0,0:0:0:0:
256,192,137278,1,0,0:0:0:0:
460,192,137373,1,0,0:0:0:0:
153,192,137468,1,0,0:0:0:0:
51,192,137563,1,0,0:0:0:0:
153,192,137658,1,0,0:0:0:0:
256,192,137753,1,0,0:0:0:0:
51,192,137848,1,0,0:0:0:0:
153,192,137943,1,0,0:0:0:0:
256,192,138038,1,0,0:0:0:0:
460,192,138133,128,0,138513:0:0:0:0:
51,192,138133,1,0,0:0:0:0:
153,192,138323,1,0,0:0:0:0:
358,192,138513,128,0,138892:0:0:0:0:
256,192,138513,1,0,0:0:0:0:
51,192,138702,1,0,0:0:0:0:
256,192,138892,128,0,139272:0:0:0:0:
460,192,138892,1,0,0:0:0:0:
153,192,139082,1,0,0:0:0:0:
153,192,139272,128,0,139652:0:0:0:0:
460,192,139272,1,0,0:0:0:0:
51,192,139462,1,0,0:0:0:0:
460,192,139652,1,0,0:0:0:0:
51,192,139652,1,0,0:0:0:0:
256,192,139652,1,0,0:0:0:0:
358,192,139652,1,0,0:0:0:0:
153,192,139747,1,0,0:0:0:0:
358,192,139842,1,0,0:0:0:0:
153,192,139937,1,0,0:0:0:0:
460,192,140032,1,0,0:0:0:0:
153,192,140126,1,0,0:0:0:0:
256,192,140221,1,0,0:0:0:0:
358,192,140221,1,0,0:0:0:0:
51,192,140221,1,0,0:0:0:0:
153,192,140316,1,0,0:0:0:0:
460,192,140411,1,0,0:0:0:0:
153,192,140506,1,0,0:0:0:0:
358,192,140601,1,0,0:0:0:0:
153,192,140696,1,0,0:0:0:0:
460,192,140791,1,0,0:0:0:0:
153,192,140886,1,0,0:0:0:0:
358,192,140981,1,0,0:0:0:0:
153,192,141076,1,0,0:0:0:0:
51,192,141171,1,0,0:0:0:0:
358,192,141266,1,0,0:0:0:0:
460,192,141361,1,0,0:0:0:0:
358,192,141456,1,0,0:0:0:0:
51,192,141551,1,0,0:0:0:0:
358,192,141645,1,0,0:0:0:0:
460,192,141740,1,0,0:0:0:0:
358,192,141835,1,0,0:0:0:0:
51,192,141930,1,0,0:0:0:0:
358,192,142025,1,0,0:0:0:0:
460,192,142120,1,0,0:0:0:0:
358,192,142215,1,0,0:0:0:0:
51,192,142310,1,0,0:0:0:0:
358,192,142405,1,0,0:0:0:0:
460,192,142500,1,0,0:0:0:0:
358,192,142595,1,0,0:0:0:0:
256,192,142690,1,0,0:0:0:0:
460,192,142690,1,0,0:0:0:0:
153,192,142690,1,0,0:0:0:0:
51,192,142785,1,0,0:0:0:0:
358,192,142880,1,0,0:0:0:0:
51,192,142975,1,0,0:0:0:0:
460,192,143069,1,0,0:0:0:0:
51,192,143164,1,0,0:0:0:0:
358,192,143259,1,0,0:0:0:0:
51,192,143354,1,0,0:0:0:0:
460,192,143449,1,0,0:0:0:0:
51,192,143544,1,0,0:0:0:0:
358,192,143639,1,0,0:0:0:0:
51,192,143734,1,0,0:0:0:0:
460,192,143829,1,0,0:0:0:0:
51,192,143924,1,0,0:0:0:0:
358,192,144019,1,0,0:0:0:0:
51,192,144114,1,0,0:0:0:0:
256,192,144209,1,0,0:0:0:0:
460,192,144304,1,0,0:0:0:0:
153,192,144399,1,0,0:0:0:0:
460,192,144494,1,0,0:0:0:0:
256,192,144588,1,0,0:0:0:0:
460,192,144683,1,0,0:0:0:0:
153,192,144778,1,0,0:0:0:0:
460,192,144873,1,0,0:0:0:0:
256,192,144968,1,0,0:0:0:0:
460,192,145063,1,0,0:0:0:0:
153,192,145158,1,0,0:0:0:0:
460,192,145253,1,0,0:0:0:0:
256,192,145348,1,0,0:0:0:0:
460,192,145443,1,0,0:0:0:0:
153,192,145538,1,0,0:0:0:0:
460,192,145633,1,0,0:0:0:0:
256,192,145728,1,0,0:0:0:0:
153,192,145728,1,0,0:0:0:0:
51,192,145728,1,0,0:0:0:0:
358,192,145823,1,0,0:0:0:0:
460,192,145918,1,0,0:0:0:0:
358,192,146013,1,0,0:0:0:0:
51,192,146107,1,0,0:0:0:0:
358,192,146202,1,0,0:0:0:0:
256,192,146297,1,0,0:0:0:0:
460,192,146297,1,0,0:0:0:0:
153,192,146297,1,0,0:0:0:0:
358,192,146392,1,0,0:0:0:0:
51,192,146487,1,0,0:0:0:0:
358,192,146582,1,0,0:0:0:0:
460,192,146677,1,0,0:0:0:0:
358,192,146772,1,0,0:0:0:0:
51,192,146867,1,0,0:0:0:0:
358,192,146962,1,0,0:0:0:0:
460,192,147057,1,0,0:0:0:0:
358,192,147152,1,0,0:0:0:0:
256,192,147247,1,0,0:0:0:0:
153,192,147342,1,0,0:0:0:0:
460,192,147437,1,0,0:0:0:0:
153,192,147532,1,0,0:0:0:0:
256,192,147626,1,0,0:0:0:0:
153,192,147721,1,0,0:0:0:0:
460,192,147816,1,0,0:0:0:0:
153,192,147911,1,0,0:0:0:0:
256,192,148006,1,0,0:0:0:0:
153,192,148101,1,0,0:0:0:0:
460,192,148196,1,0,0:0:0:0:
153,192,148291,1,0,0:0:0:0:
256,192,148386,1,0,0:0:0:0:
358,192,148386,1,0,0:0:0:0:
51,192,148386,1,0,0:0:0:0:
153,192,148481,1,0,0:0:0:0:
460,192,148576,1,0,0:0:0:0:
153,192,148671,1,0,0:0:0:0:
256,192,148766,1,0,0:0:0:0:
51,192,148766,1,0,0:0:0:0:
358,192,148766,1,0,0:0:0:0:
460,192,148861,1,0,0:0:0:0:
153,192,148956,1,0,0:0:0:0:
358,192,149051,1,0,0:0:0:0:
256,192,149145,1,0,0:0:0:0:
460,192,149240,1,0,0:0:0:0:
153,192,149335,1,0,0:0:0:0:
358,192,149430,1,0,0:0:0:0:
256,192,149525,1,0,0:0:0:0:
460,192,149620,1,0,0:0:0:0:
153,192,149715,1,0,0:0:0:0:
358,192,149810,1,0,0:0:0:0:
256,192,149905,1,0,0:0:0:0:
460,192,150000,1,0,0:0:0:0:
153,192,150095,1,0,0:0:0:0:
358,192,150190,1,0,0:0:0:0:
51,192,150285,128,0,151709:0:0:0:0:
256,192,150285,1,0,0:0:0:0:
460,192,150475,1,0,0:0:0:0:
153,192,150664,128,0,151709:0:0:0:0:
460,192,151234,128,0,151424:0:0:0:0:
256,192,151424,128,0,151709:0:0:0:0:
460,192,151614,128,0,151804:0:0:0:0:
256,192,151804,128,0,152183:0:0:0:0:
51,192,151804,128,0,152373:0:0:0:0:
153,192,151804,1,0,0:0:0:0:
358,192,151804,128,0,151867:0:0:0:0:
460,192,151994,1,0,0:0:0:0:
358,192,152183,128,0,152373:0:0:0:0:
153,192,152183,1,0,0:0:0:0:
256,192,152373,128,0,152943:0:0:0:0:
153,192,152373,128,0,153323:0:0:0:0:
460,192,152373,128,0,152437:0:0:0:0:
51,192,152563,1,0,0:0:0:0:
51,192,152753,1,0,0:0:0:0:
358,192,152943,128,0,153323:0:0:0:0:
460,192,152943,1,0,0:0:0:0:
51,192,153133,1,0,0:0:0:0:
460,192,153323,128,0,153892:0:0:0:0:
256,192,153323,128,0,153702:0:0:0:0:
51,192,153323,1,0,0:0:0:0:
153,192,153513,1,0,0:0:0:0:
358,192,153702,128,0,153892:0:0:0:0:
51,192,153702,1,0,0:0:0:0:
153,192,153892,128,0,154462:0:0:0:0:
51,192,153892,128,0,154842:0:0:0:0:
256,192,153892,1,0,0:0:0:0:
358,192,154082,1,0,0:0:0:0:
358,192,154272,1,0,0:0:0:0:
460,192,154462,128,0,154842:0:0:0:0:
256,192,154462,1,0,0:0:0:0:
358,192,154652,1,0,0:0:0:0:
153,192,154652,128,0,154715:0:0:0:0:
256,192,154842,128,0,155411:0:0:0:0:
153,192,154842,128,0,155221:0:0:0:0:
358,192,154842,128,0,154905:0:0:0:0:
460,192,155032,1,0,0:0:0:0:
358,192,155221,128,0,155411:0:0:0:0:
51,192,155221,1,0,0:0:0:0:
460,192,155411,128,0,155981:0:0:0:0:
51,192,155411,128,0,155981:0:0:0:0:
153,192,155411,1,0,0:0:0:0:
358,192,155601,1,0,0:0:0:0:
358,192,155791,1,0,0:0:0:0:
153,192,155981,1,0,0:0:0:0:
256,192,155981,128,0,156361:0:0:0:0:
358,192,156171,1,0,0:0:0:0:
460,192,156361,128,0,156740:0:0:0:0:
153,192,156361,1,0,0:0:0:0:
51,192,156361,128,0,157690:0:0:0:0:
256,192,156551,1,0,0:0:0:0:
358,192,156740,128,0,157120:0:0:0:0:
153,192,156740,1,0,0:0:0:0:
460,192,156930,1,0,0:0:0:0:
256,192,157120,128,0,157500:0:0:0:0:
153,192,157120,1,0,0:0:0:0:
460,192,157310,1,0,0:0:0:0:
358,192,157500,1,0,0:0:0:0:
153,192,157500,128,0,157880:0:0:0:0:
460,192,157595,1,0,0:0:0:0:
256,192,157690,1,0,0:0:0:0:
358,192,157785,1,0,0:0:0:0:
256,192,157880,128,0,160158:0:0:0:0:
51,192,157880,128,0,157943:0:0:0:0:
460,192,157880,1,0,0:0:0:0:
153,192,158069,1,0,0:0:0:0:
153,192,158259,1,0,0:0:0:0:
460,192,158449,128,0,158513:0:0:0:0:
358,192,158449,1,0,0:0:0:0:
51,192,158449,1,0,0:0:0:0:
153,192,158615,1,0,0:0:0:0:
51,192,158639,128,0,160348:0:0:0:0:
460,192,158639,1,0,0:0:0:0:
358,192,158829,1,0,0:0:0:0:
153,192,159019,1,0,0:0:0:0:
358,192,159209,1,0,0:0:0:0:
460,192,159399,1,0,0:0:0:0:
153,192,159588,1,0,0:0:0:0:
358,192,159778,1,0,0:0:0:0:
460,192,159968,1,0,0:0:0:0:
153,192,159968,1,0,0:0:0:0:
358,192,160158,1,0,0:0:0:0:
153,192,160348,1,0,0:0:0:0:
358,192,160395,1,0,0:0:0:0:
460,192,160443,128,0,160918:0:0:0:0:
51,192,160538,1,0,0:0:0:0:
256,192,160538,1,0,0:0:0:0:
153,192,160633,1,0,0:0:0:0:
358,192,160728,1,0,0:0:0:0:
256,192,160918,1,0,0:0:0:0:
153,192,160918,1,0,0:0:0:0:
51,192,160918,128,0,160981:0:0:0:0:
358,192,161013,1,0,0:0:0:0:
460,192,161060,128,0,161369:0:0:0:0:
153,192,161107,1,0,0:0:0:0:
51,192,161297,1,0,0:0:0:0:
358,192,161369,1,0,0:0:0:0:
256,192,161416,1,0,0:0:0:0:
153,192,161463,1,0,0:0:0:0:
460,192,161511,1,0,0:0:0:0:
256,192,161606,1,0,0:0:0:0:
460,192,161677,128,0,163861:0:0:0:0:
51,192,161677,1,0,0:0:0:0:
153,192,161867,1,0,0:0:0:0:
358,192,162057,1,0,0:0:0:0:
256,192,162247,1,0,0:0:0:0:
153,192,162437,1,0,0:0:0:0:
51,192,162437,128,0,163861:0:0:0:0:
256,192,162626,1,0,0:0:0:0:
153,192,162816,128,0,163386:0:0:0:0:
358,192,163006,1,0,0:0:0:0:
256,192,163196,128,0,163861:0:0:0:0:
358,192,163386,128,0,163576:0:0:0:0:
153,192,163576,128,0,163861:0:0:0:0:
358,192,163766,128,0,163956:0:0:0:0:
153,192,163956,1,0,0:0:0:0:
256,192,163956,128,0,164019:0:0:0:0:
460,192,163956,128,0,164525:0:0:0:0:
51,192,163956,128,0,164335:0:0:0:0:
358,192,164145,1,0,0:0:0:0:
256,192,164335,128,0,164525:0:0:0:0:
153,192,164335,1,0,0:0:0:0:
153,192,164525,128,0,165475:0:0:0:0:
358,192,164525,128,0,164588:0:0:0:0:
51,192,164525,128,0,165095:0:0:0:0:
460,192,164715,1,0,0:0:0:0:
460,192,164905,1,0,0:0:0:0:
256,192,165095,128,0,165475:0:0:0:0:
358,192,165095,1,0,0:0:0:0:
51,192,165285,1,0,0:0:0:0:
358,192,165475,128,0,165854:0:0:0:0:
460,192,165475,128,0,166044:0:0:0:0:
51,192,165475,1,0,0:0:0:0:
256,192,165664,1,0,0:0:0:0:
153,192,165854,128,0,166044:0:0:0:0:
51,192,165854,1,0,0:0:0:0:
256,192,166044,1,0,0:0:0:0:
358,192,166044,128,0,166614:0:0:0:0:
51,192,166044,128,0,166994:0:0:0:0:
153,192,166234,1,0,0:0:0:0:
153,192,166424,1,0,0:0:0:0:
256,192,166614,1,0,0:0:0:0:
460,192,166614,128,0,166994:0:0:0:0:
153,192,166804,128,0,166867:0:0:0:0:
358,192,166804,1,0,0:0:0:0:
256,192,166994,128,0,167057:0:0:0:0:
358,192,166994,128,0,167563:0:0:0:0:
153,192,166994,128,0,167373:0:0:0:0:
51,192,167183,1,0,0:0:0:0:
256,192,167373,1,0,0:0:0:0:
460,192,167373,128,0,167563:0:0:0:0:
153,192,167563,1,0,0:0:0:0:
256,192,167563,128,0,168133:0:0:0:0:
51,192,167563,128,0,168133:0:0:0:0:
358,192,167753,1,0,0:0:0:0:
358,192,167943,1,0,0:0:0:0:
460,192,168133,128,0,168513:0:0:0:0:
153,192,168133,1,0,0:0:0:0:
358,192,168323,1,0,0:0:0:0:
51,192,168513,128,0,168892:0:0:0:0:
153,192,168513,1,0,0:0:0:0:
256,192,168513,128,0,169842:0:0:0:0:
358,192,168702,1,0,0:0:0:0:
460,192,168892,128,0,169272:0:0:0:0:
153,192,168892,1,0,0:0:0:0:
358,192,169082,1,0,0:0:0:0:
51,192,169272,1,0,0:0:0:0:
153,192,169272,128,0,169652:0:0:0:0:
460,192,169462,1,0,0:0:0:0:
51,192,169652,128,0,170032:0:0:0:0:
358,192,169652,1,0,0:0:0:0:
460,192,169842,1,0,0:0:0:0:
358,192,169937,1,0,0:0:0:0:
256,192,170032,128,0,172690:0:0:0:0:
460,192,170032,128,0,170095:0:0:0:0:
153,192,170032,1,0,0:0:0:0:
358,192,170221,1,0,0:0:0:0:
358,192,170411,1,0,0:0:0:0:
51,192,170601,128,0,170664:0:0:0:0:
153,192,170601,1,0,0:0:0:0:
460,192,170601,1,0,0:0:0:0:
358,192,170649,1,0,0:0:0:0:
153,192,170744,1,0,0:0:0:0:
51,192,170838,1,0,0:0:0:0:
358,192,170933,1,0,0:0:0:0:
51,192,170981,128,0,172690:0:0:0:0:
460,192,170981,1,0,0:0:0:0:
153,192,171171,1,0,0:0:0:0:
358,192,171361,1,0,0:0:0:0:
153,192,171551,1,0,0:0:0:0:
460,192,171551,1,0,0:0:0:0:
358,192,171740,1,0,0:0:0:0:
460,192,171930,1,0,0:0:0:0:
153,192,172120,1,0,0:0:0:0:
358,192,172120,1,0,0:0:0:0:
460,192,172310,1,0,0:0:0:0:
358,192,172500,1,0,0:0:0:0:
153,192,172690,128,0,172753:0:0:0:0:
460,192,172690,1,0,0:0:0:0:
358,192,172737,128,0,173069:0:0:0:0:
256,192,172880,1,0,0:0:0:0:
51,192,172880,1,0,0:0:0:0:
256,192,173069,128,0,173259:0:0:0:0:
460,192,173069,128,0,173133:0:0:0:0:
51,192,173069,1,0,0:0:0:0:
358,192,173259,1,0,0:0:0:0:
153,192,173259,1,0,0:0:0:0:
460,192,173354,1,0,0:0:0:0:
256,192,173449,128,0,174280:0:0:0:0:
51,192,173449,1,0,0:0:0:0:
153,192,173639,1,0,0:0:0:0:
358,192,173639,1,0,0:0:0:0:
460,192,173829,1,0,0:0:0:0:
51,192,174019,1,0,0:0:0:0:
460,192,174209,1,0,0:0:0:0:
153,192,174209,1,0,0:0:0:0:
358,192,174280,1,0,0:0:0:0:
256,192,174351,1,0,0:0:0:0:
51,192,174399,1,0,0:0:0:0:
256,192,174541,1,0,0:0:0:0:
153,192,174588,1,0,0:0:0:0:
460,192,174683,128,0,177342:0:0:0:0:
51,192,174683,128,0,175918:0:0:0:0:
358,192,174778,1,0,0:0:0:0:
153,192,174873,1,0,0:0:0:0:
256,192,174968,1,0,0:0:0:0:
358,192,175063,1,0,0:0:0:0:
153,192,175158,1,0,0:0:0:0:
358,192,175253,1,0,0:0:0:0:
256,192,175348,1,0,0:0:0:0:
153,192,175443,1,0,0:0:0:0:
358,192,175538,1,0,0:0:0:0:
256,192,175633,1,0,0:0:0:0:
153,192,175728,1,0,0:0:0:0:
358,192,175823,1,0,0:0:0:0:
153,192,175918,1,0,0:0:0:0:
358,192,177532,5,0,0:0:0:0:
460,192,177532,1,0,0:0:0:0:
153,192,177626,1,0,0:0:0:0:
51,192,177626,1,0,0:0:0:0:
153,192,177721,1,0,0:0:0:0:
51,192,177721,1,0,0:0:0:0:
256,192,177816,1,0,0:0:0:0:
358,192,177911,1,0,0:0:0:0:
460,192,177911,1,0,0:0:0:0:
358,192,178006,1,0,0:0:0:0:
460,192,178006,1,0,0:0:0:0:
153,192,178101,1,0,0:0:0:0:
51,192,178101,1,0,0:0:0:0:
153,192,178196,1,0,0:0:0:0:
51,192,178196,1,0,0:0:0:0:
358,192,178291,1,0,0:0:0:0:
460,192,178291,1,0,0:0:0:0:
153,192,178386,1,0,0:0:0:0:
256,192,178433,1,0,0:0:0:0:
358,192,178481,1,0,0:0:0:0:
460,192,178528,1,0,0:0:0:0:
153,192,178576,1,0,0:0:0:0:
51,192,178576,1,0,0:0:0:0:
358,192,178623,1,0,0:0:0:0:
256,192,178671,1,0,0:0:0:0:
153,192,178718,1,0,0:0:0:0:
460,192,178766,1,0,0:0:0:0:
460,192,178861,1,0,0:0:0:0:
51,192,178956,1,0,0:0:0:0:
153,192,178956,1,0,0:0:0:0:
358,192,179051,1,0,0:0:0:0:
51,192,179145,128,0,179525:0:0:0:0:
153,192,179145,128,0,179209:0:0:0:0:
256,192,179145,128,0,179209:0:0:0:0:
460,192,179145,128,0,179209:0:0:0:0:
358,192,179240,1,0,0:0:0:0:
460,192,179335,1,0,0:0:0:0:
153,192,179430,1,0,0:0:0:0:
358,192,179525,1,0,0:0:0:0:
256,192,179525,1,0,0:0:0:0:
460,192,179525,1,0,0:0:0:0:
51,192,179620,1,0,0:0:0:0:
256,192,179715,128,0,180285:0:0:0:0:
153,192,179715,128,0,179778:0:0:0:0:
460,192,179715,128,0,179778:0:0:0:0:
358,192,179810,1,0,0:0:0:0:
51,192,179905,1,0,0:0:0:0:
153,192,179905,1,0,0:0:0:0:
358,192,180000,1,0,0:0:0:0:
51,192,180095,1,0,0:0:0:0:
460,192,180190,1,0,0:0:0:0:
358,192,180285,128,0,180664:0:0:0:0:
51,192,180285,1,0,0:0:0:0:
153,192,180285,1,0,0:0:0:0:
460,192,180380,1,0,0:0:0:0:
153,192,180475,1,0,0:0:0:0:
256,192,180569,1,0,0:0:0:0:
460,192,180664,128,0,181044:0:0:0:0:
153,192,180664,128,0,180759:0:0:0:0:
51,192,180664,128,0,180759:0:0:0:0:
256,192,180759,128,0,180854:0:0:0:0:
358,192,180854,128,0,180949:0:0:0:0:
153,192,180949,128,0,181044:0:0:0:0:
358,192,181044,1,0,0:0:0:0:
51,192,181044,1,0,0:0:0:0:
256,192,181044,1,0,0:0:0:0:
460,192,181139,1,0,0:0:0:0:
51,192,181234,128,0,181804:0:0:0:0:
153,192,181234,1,0,0:0:0:0:
358,192,181329,1,0,0:0:0:0:
460,192,181424,1,0,0:0:0:0:
256,192,181424,1,0,0:0:0:0:
153,192,181519,1,0,0:0:0:0:
460,192,181614,1,0,0:0:0:0:
358,192,181709,1,0,0:0:0:0:
256,192,181804,128,0,181994:0:0:0:0:
460,192,181804,1,0,0:0:0:0:
153,192,181804,1,0,0:0:0:0:
51,192,181899,1,0,0:0:0:0:
358,192,181994,1,0,0:0:0:0:
153,192,182088,1,0,0:0:0:0:
51,192,182183,128,0,182563:0:0:0:0:
256,192,182183,128,0,182247:0:0:0:0:
460,192,182183,128,0,182247:0:0:0:0:
358,192,182278,1,0,0:0:0:0:
153,192,182373,1,0,0:0:0:0:
256,192,182468,1,0,0:0:0:0:
358,192,182563,1,0,0:0:0:0:
153,192,182563,1,0,0:0:0:0:
460,192,182563,1,0,0:0:0:0:
51,192,182658,1,0,0:0:0:0:
256,192,182753,128,0,183323:0:0:0:0:
358,192,182753,1,0,0:0:0:0:
153,192,182848,1,0,0:0:0:0:
51,192,182943,1,0,0:0:0:0:
460,192,182943,1,0,0:0:0:0:
358,192,183038,1,0,0:0:0:0:
153,192,183133,1,0,0:0:0:0:
51,192,183228,1,0,0:0:0:0:
460,192,183323,128,0,183702:0:0:0:0:
153,192,183323,1,0,0:0:0:0:
358,192,183323,1,0,0:0:0:0:
256,192,183418,1,0,0:0:0:0:
51,192,183513,1,0,0:0:0:0:
153,192,183607,1,0,0:0:0:0:
358,192,183702,1,0,0:0:0:0:
256,192,183702,128,0,184082:0:0:0:0:
153,192,183797,1,0,0:0:0:0:
51,192,183892,1,0,0:0:0:0:
358,192,183987,1,0,0:0:0:0:
51,192,184082,128,0,184462:0:0:0:0:
460,192,184082,1,0,0:0:0:0:
153,192,184082,1,0,0:0:0:0:
358,192,184177,1,0,0:0:0:0:
256,192,184272,1,0,0:0:0:0:
153,192,184367,1,0,0:0:0:0:
358,192,184462,128,0,184842:0:0:0:0:
460,192,184462,1,0,0:0:0:0:
256,192,184557,1,0,0:0:0:0:
51,192,184652,1,0,0:0:0:0:
460,192,184747,1,0,0:0:0:0:
153,192,184842,128,0,185221:0:0:0:0:
256,192,184842,1,0,0:0:0:0:
51,192,184842,1,0,0:0:0:0:
460,192,184937,1,0,0:0:0:0:
358,192,185032,1,0,0:0:0:0:
51,192,185126,1,0,0:0:0:0:
256,192,185221,128,0,185316:0:0:0:0:
460,192,185221,128,0,185285:0:0:0:0:
358,192,185221,128,0,185285:0:0:0:0:
51,192,185316,128,0,185411:0:0:0:0:
460,192,185411,1,0,0:0:0:0:
256,192,185411,128,0,186171:0:0:0:0:
153,192,185506,1,0,0:0:0:0:
460,192,185601,1,0,0:0:0:0:
358,192,185601,1,0,0:0:0:0:
51,192,185601,1,0,0:0:0:0:
153,192,185696,1,0,0:0:0:0:
460,192,185791,128,0,185854:0:0:0:0:
358,192,185791,128,0,185854:0:0:0:0:
51,192,185886,1,0,0:0:0:0:
153,192,185981,1,0,0:0:0:0:
358,192,185981,1,0,0:0:0:0:
51,192,186076,1,0,0:0:0:0:
460,192,186171,1,0,0:0:0:0:
256,192,186266,1,0,0:0:0:0:
460,192,186361,1,0,0:0:0:0:
358,192,186361,1,0,0:0:0:0:
51,192,186361,128,0,186740:0:0:0:0:
153,192,186456,1,0,0:0:0:0:
358,192,186551,1,0,0:0:0:0:
460,192,186645,1,0,0:0:0:0:
153,192,186740,128,0,187310:0:0:0:0:
256,192,186740,1,0,0:0:0:0:
358,192,186835,1,0,0:0:0:0:
51,192,186930,1,0,0:0:0:0:
256,192,187025,1,0,0:0:0:0:
358,192,187120,1,0,0:0:0:0:
460,192,187120,1,0,0:0:0:0:
51,192,187120,1,0,0:0:0:0:
256,192,187215,1,0,0:0:0:0:
358,192,187310,128,0,187690:0:0:0:0:
460,192,187310,1,0,0:0:0:0:
51,192,187405,1,0,0:0:0:0:
153,192,187500,1,0,0:0:0:0:
256,192,187500,1,0,0:0:0:0:
460,192,187595,1,0,0:0:0:0:
256,192,187690,128,0,188069:0:0:0:0:
51,192,187690,1,0,0:0:0:0:
153,192,187785,1,0,0:0:0:0:
460,192,187880,1,0,0:0:0:0:
51,192,187880,128,0,187943:0:0:0:0:
153,192,187975,1,0,0:0:0:0:
460,192,188069,128,0,189778:0:0:0:0:
358,192,188069,128,0,188164:0:0:0:0:
51,192,188164,128,0,188259:0:0:0:0:
256,192,188259,128,0,188354:0:0:0:0:
358,192,188259,128,0,188354:0:0:0:0:
153,192,188259,128,0,188354:0:0:0:0:
51,192,188354,128,0,188449:0:0:0:0:
153,192,188449,128,0,188544:0:0:0:0:
256,192,188544,128,0,188639:0:0:0:0:
153,192,188639,128,0,188734:0:0:0:0:
358,192,188639,128,0,188734:0:0:0:0:
51,192,188734,128,0,188829:0:0:0:0:
256,192,188829,128,0,188924:0:0:0:0:
153,192,188924,128,0,189019:0:0:0:0:
256,192,189019,128,0,189114:0:0:0:0:
358,192,189019,128,0,189114:0:0:0:0:
51,192,189019,128,0,189114:0:0:0:0:
153,192,189114,128,0,189209:0:0:0:0:
358,192,189209,128,0,189304:0:0:0:0:
51,192,189304,128,0,189399:0:0:0:0:
358,192,189399,128,0,189494:0:0:0:0:
256,192,189399,128,0,189494:0:0:0:0:
153,192,189494,128,0,189588:0:0:0:0:
51,192,189588,128,0,189683:0:0:0:0:
358,192,189683,128,0,189778:0:0:0:0:
256,192,189778,128,0,189873:0:0:0:0:
153,192,189778,128,0,189873:0:0:0:0:
51,192,189778,128,0,189873:0:0:0:0:
358,192,189873,128,0,189968:0:0:0:0:
460,192,189873,128,0,189968:0:0:0:0:
153,192,189968,128,0,190063:0:0:0:0:
358,192,190063,128,0,190158:0:0:0:0:
256,192,190063,128,0,190158:0:0:0:0:
153,192,190158,128,0,190253:0:0:0:0:
460,192,190158,128,0,190253:0:0:0:0:
51,192,190158,128,0,190253:0:0:0:0:
358,192,190253,128,0,190348:0:0:0:0:
256,192,190253,128,0,190348:0:0:0:0:
51,192,190348,128,0,190443:0:0:0:0:
358,192,190443,128,0,190538:0:0:0:0:
460,192,190538,128,0,190633:0:0:0:0:
153,192,190538,128,0,190633:0:0:0:0:
256,192,190601,128,0,190696:0:0:0:0:
51,192,190633,128,0,190728:0:0:0:0:
358,192,190664,128,0,190759:0:0:0:0:
460,192,190728,128,0,190918:0:0:0:0:
153,192,190728,128,0,190823:0:0:0:0:
358,192,190823,128,0,190918:0:0:0:0:
256,192,190823,128,0,190918:0:0:0:0:
51,192,190918,128,0,191107:0:0:0:0:
153,192,190918,128,0,191013:0:0:0:0:
358,192,190981,128,0,191076:0:0:0:0:
256,192,191044,128,0,191139:0:0:0:0:
460,192,191107,128,0,191297:0:0:0:0:
153,192,191107,128,0,191202:0:0:0:0:
358,192,191202,128,0,191297:0:0:0:0:
51,192,191297,128,0,191677:0:0:0:0:
153,192,191297,128,0,191361:0:0:0:0:
256,192,191297,128,0,191361:0:0:0:0:
460,192,191392,1,0,0:0:0:0:
358,192,191487,1,0,0:0:0:0:
256,192,191582,1,0,0:0:0:0:
153,192,191677,1,0,0:0:0:0:
460,192,191677,1,0,0:0:0:0:
358,192,191677,1,0,0:0:0:0:
51,192,191772,1,0,0:0:0:0:
256,192,191867,128,0,192437:0:0:0:0:
358,192,191867,128,0,191930:0:0:0:0:
460,192,191867,128,0,191930:0:0:0:0:
153,192,191962,1,0,0:0:0:0:
460,192,192057,1,0,0:0:0:0:
51,192,192057,1,0,0:0:0:0:
358,192,192152,1,0,0:0:0:0:
153,192,192247,1,0,0:0:0:0:
460,192,192342,1,0,0:0:0:0:
358,192,192437,128,0,192816:0:0:0:0:
51,192,192437,1,0,0:0:0:0:
153,192,192437,1,0,0:0:0:0:
460,192,192532,1,0,0:0:0:0:
51,192,192626,1,0,0:0:0:0:
256,192,192721,1,0,0:0:0:0:
460,192,192816,128,0,193196:0:0:0:0:
153,192,192816,128,0,192911:0:0:0:0:
51,192,192816,128,0,192911:0:0:0:0:
256,192,192911,128,0,193006:0:0:0:0:
358,192,193006,128,0,193101:0:0:0:0:
51,192,193101,128,0,193196:0:0:0:0:
153,192,193196,1,0,0:0:0:0:
358,192,193196,1,0,0:0:0:0:
256,192,193196,1,0,0:0:0:0:
460,192,193291,1,0,0:0:0:0:
153,192,193386,128,0,193956:0:0:0:0:
51,192,193386,1,0,0:0:0:0:
358,192,193481,1,0,0:0:0:0:
256,192,193576,1,0,0:0:0:0:
460,192,193576,1,0,0:0:0:0:
51,192,193671,1,0,0:0:0:0:
358,192,193766,1,0,0:0:0:0:
51,192,193861,1,0,0:0:0:0:
256,192,193956,128,0,194335:0:0:0:0:
358,192,193956,1,0,0:0:0:0:
460,192,193956,1,0,0:0:0:0:
153,192,194051,1,0,0:0:0:0:
51,192,194145,1,0,0:0:0:0:
358,192,194240,1,0,0:0:0:0:
51,192,194335,128,0,194715:0:0:0:0:
153,192,194335,128,0,194399:0:0:0:0:
460,192,194335,128,0,194399:0:0:0:0:
358,192,194430,1,0,0:0:0:0:
256,192,194525,1,0,0:0:0:0:
460,192,194620,1,0,0:0:0:0:
256,192,194715,1,0,0:0:0:0:
153,192,194715,1,0,0:0:0:0:
358,192,194715,1,0,0:0:0:0:
460,192,194810,1,0,0:0:0:0:
153,192,194905,128,0,195475:0:0:0:0:
51,192,194905,1,0,0:0:0:0:
256,192,195000,1,0,0:0:0:0:
358,192,195095,1,0,0:0:0:0:
460,192,195095,1,0,0:0:0:0:
256,192,195190,1,0,0:0:0:0:
51,192,195285,1,0,0:0:0:0:
460,192,195380,1,0,0:0:0:0:
358,192,195475,128,0,195854:0:0:0:0:
256,192,195475,1,0,0:0:0:0:
51,192,195475,1,0,0:0:0:0:
460,192,195569,1,0,0:0:0:0:
153,192,195664,1,0,0:0:0:0:
256,192,195759,1,0,0:0:0:0:
153,192,195854,128,0,196234:0:0:0:0:
51,192,195854,1,0,0:0:0:0:
460,192,195949,1,0,0:0:0:0:
358,192,196044,1,0,0:0:0:0:
256,192,196139,1,0,0:0:0:0:
460,192,196234,128,0,196614:0:0:0:0:
51,192,196234,1,0,0:0:0:0:
358,192,196234,1,0,0:0:0:0:
153,192,196329,1,0,0:0:0:0:
256,192,196424,1,0,0:0:0:0:
51,192,196519,1,0,0:0:0:0:
256,192,196614,128,0,196994:0:0:0:0:
358,192,196614,1,0,0:0:0:0:
153,192,196709,1,0,0:0:0:0:
51,192,196804,1,0,0:0:0:0:
358,192,196899,1,0,0:0:0:0:
51,192,196994,128,0,197373:0:0:0:0:
153,192,196994,1,0,0:0:0:0:
460,192,196994,1,0,0:0:0:0:
256,192,197088,1,0,0:0:0:0:
358,192,197183,1,0,0:0:0:0:
153,192,197278,1,0,0:0:0:0:
358,192,197373,128,0,197437:0:0:0:0:
460,192,197373,128,0,197437:0:0:0:0:
256,192,197373,128,0,197468:0:0:0:0:
153,192,197468,128,0,197563:0:0:0:0:
256,192,197563,128,0,198323:0:0:0:0:
460,192,197563,1,0,0:0:0:0:
51,192,197658,1,0,0:0:0:0:
358,192,197753,1,0,0:0:0:0:
460,192,197753,1,0,0:0:0:0:
153,192,197753,1,0,0:0:0:0:
51,192,197848,1,0,0:0:0:0:
460,192,197943,128,0,198006:0:0:0:0:
358,192,197943,128,0,198006:0:0:0:0:
153,192,198038,1,0,0:0:0:0:
358,192,198133,1,0,0:0:0:0:
51,192,198133,1,0,0:0:0:0:
460,192,198228,1,0,0:0:0:0:
153,192,198323,1,0,0:0:0:0:
51,192,198418,1,0,0:0:0:0:
256,192,198513,1,0,0:0:0:0:
460,192,198513,1,0,0:0:0:0:
358,192,198513,128,0,198892:0:0:0:0:
51,192,198607,1,0,0:0:0:0:
153,192,198702,1,0,0:0:0:0:
256,192,198797,1,0,0:0:0:0:
51,192,198892,128,0,199462:0:0:0:0:
460,192,198892,1,0,0:0:0:0:
358,192,198987,1,0,0:0:0:0:
153,192,199082,1,0,0:0:0:0:
256,192,199177,1,0,0:0:0:0:
153,192,199272,1,0,0:0:0:0:
358,192,199272,1,0,0:0:0:0:
460,192,199272,1,0,0:0:0:0:
256,192,199367,1,0,0:0:0:0:
358,192,199462,128,0,199842:0:0:0:0:
460,192,199462,1,0,0:0:0:0:
153,192,199557,1,0,0:0:0:0:
51,192,199652,1,0,0:0:0:0:
256,192,199652,1,0,0:0:0:0:
460,192,199747,1,0,0:0:0:0:
153,192,199842,128,0,200221:0:0:0:0:
51,192,199842,1,0,0:0:0:0:
256,192,199937,1,0,0:0:0:0:
460,192,200032,1,0,0:0:0:0:
358,192,200032,128,0,200095:0:0:0:0:
256,192,200126,1,0,0:0:0:0:
460,192,200221,128,0,201551:0:0:0:0:
51,192,200221,128,0,200316:0:0:0:0:
358,192,200316,128,0,200411:0:0:0:0:
256,192,200411,128,0,200506:0:0:0:0:
153,192,200411,128,0,200506:0:0:0:0:
51,192,200411,128,0,200506:0:0:0:0:
358,192,200506,128,0,200601:0:0:0:0:
153,192,200601,128,0,200696:0:0:0:0:
256,192,200696,128,0,200791:0:0:0:0:
358,192,200791,128,0,200886:0:0:0:0:
51,192,200791,128,0,200886:0:0:0:0:
153,192,200886,128,0,200981:0:0:0:0:
256,192,200981,128,0,201076:0:0:0:0:
51,192,201076,128,0,201171:0:0:0:0:
153,192,201171,128,0,201266:0:0:0:0:
256,192,201171,128,0,201266:0:0:0:0:
358,192,201171,128,0,201266:0:0:0:0:
51,192,201266,128,0,201361:0:0:0:0:
358,192,201361,128,0,201456:0:0:0:0:
256,192,201456,128,0,201551:0:0:0:0:
153,192,201551,128,0,201645:0:0:0:0:
51,192,201551,128,0,201930:0:0:0:0:
358,192,201645,128,0,201740:0:0:0:0:
256,192,201740,128,0,201835:0:0:0:0:
460,192,201835,128,0,201930:0:0:0:0:
358,192,201930,1,0,0:0:0:0:
153,192,201930,128,0,202310:0:0:0:0:
256,192,201930,1,0,0:0:0:0:
460,192,202025,1,0,0:0:0:0:
51,192,202120,1,0,0:0:0:0:
358,192,202215,1,0,0:0:0:0:
256,192,202310,128,0,202690:0:0:0:0:
460,192,202310,128,0,202405:0:0:0:0:
51,192,202405,128,0,202500:0:0:0:0:
153,192,202500,128,0,202595:0:0:0:0:
460,192,202595,128,0,202690:0:0:0:0:
51,192,202690,128,0,202880:0:0:0:0:
358,192,202690,128,0,203069:0:0:0:0:
256,192,202785,128,0,202975:0:0:0:0:
153,192,202880,128,0,203069:0:0:0:0:
51,192,202975,128,0,203069:0:0:0:0:
256,192,203069,128,0,203354:0:0:0:0:
460,192,203069,128,0,203449:0:0:0:0:
51,192,203164,128,0,203354:0:0:0:0:
153,192,203259,128,0,203354:0:0:0:0:
358,192,203354,128,0,203449:0:0:0:0:
256,192,203449,1,0,0:0:0:0:
153,192,203449,128,0,203544:0:0:0:0:
51,192,203449,1,0,0:0:0:0:
358,192,203544,128,0,203639:0:0:0:0:
153,192,203639,128,0,203734:0:0:0:0:
358,192,203734,128,0,203829:0:0:0:0:
153,192,203829,1,0,0:0:0:0:
460,192,203829,128,0,203924:0:0:0:0:
51,192,203829,128,0,204209:0:0:0:0:
256,192,203924,128,0,204019:0:0:0:0:
460,192,204019,128,0,204114:0:0:0:0:
256,192,204114,128,0,204209:0:0:0:0:
358,192,204209,128,0,204304:0:0:0:0:
460,192,204209,1,0,0:0:0:0:
153,192,204304,128,0,204399:0:0:0:0:
358,192,204399,128,0,204494:0:0:0:0:
153,192,204494,128,0,204588:0:0:0:0:
358,192,204588,1,0,0:0:0:0:
460,192,204588,128,0,204683:0:0:0:0:
51,192,204588,128,0,204968:0:0:0:0:
256,192,204683,128,0,204778:0:0:0:0:
460,192,204778,128,0,204873:0:0:0:0:
256,192,204873,128,0,204968:0:0:0:0:
358,192,204968,128,0,205063:0:0:0:0:
153,192,204968,1,0,0:0:0:0:
51,192,205063,128,0,205158:0:0:0:0:
358,192,205158,128,0,205253:0:0:0:0:
51,192,205253,128,0,205348:0:0:0:0:
256,192,205348,1,0,0:0:0:0:
153,192,205348,128,0,205443:0:0:0:0:
460,192,205348,128,0,205538:0:0:0:0:
358,192,205443,128,0,205538:0:0:0:0:
51,192,205538,128,0,205633:0:0:0:0:
153,192,205538,1,0,0:0:0:0:
460,192,205633,128,0,205728:0:0:0:0:
51,192,205728,128,0,205823:0:0:0:0:
256,192,205728,1,0,0:0:0:0:
460,192,205823,128,0,205918:0:0:0:0:
51,192,205918,128,0,206013:0:0:0:0:
460,192,206013,128,0,206107:0:0:0:0:
153,192,206107,128,0,206202:0:0:0:0:
256,192,206107,1,0,0:0:0:0:
51,192,206107,1,0,0:0:0:0:
358,192,206202,128,0,206297:0:0:0:0:
153,192,206297,128,0,206392:0:0:0:0:
358,192,206392,128,0,206487:0:0:0:0:
460,192,206487,128,0,206582:0:0:0:0:
51,192,206487,1,0,0:0:0:0:
153,192,206487,128,0,206867:0:0:0:0:
256,192,206582,128,0,206677:0:0:0:0:
460,192,206677,128,0,206772:0:0:0:0:
256,192,206772,128,0,206867:0:0:0:0:
358,192,206867,128,0,206962:0:0:0:0:
460,192,206867,1,0,0:0:0:0:
51,192,206867,1,0,0:0:0:0:
153,192,206962,128,0,207057:0:0:0:0:
358,192,207057,128,0,207152:0:0:0:0:
153,192,207152,128,0,207247:0:0:0:0:
256,192,207247,128,0,207342:0:0:0:0:
460,192,207247,1,0,0:0:0:0:
51,192,207342,128,0,207437:0:0:0:0:
256,192,207437,128,0,207532:0:0:0:0:
51,192,207532,128,0,207626:0:0:0:0:
358,192,207626,128,0,207721:0:0:0:0:
256,192,207626,1,0,0:0:0:0:
460,192,207626,1,0,0:0:0:0:
153,192,207721,128,0,207816:0:0:0:0:
358,192,207816,128,0,207911:0:0:0:0:
153,192,207911,128,0,208006:0:0:0:0:
51,192,208006,128,0,208101:0:0:0:0:
460,192,208006,1,0,0:0:0:0:
358,192,208101,128,0,208196:0:0:0:0:
51,192,208196,128,0,208291:0:0:0:0:
358,192,208291,128,0,208386:0:0:0:0:
51,192,208386,128,0,208481:0:0:0:0:
256,192,208386,1,0,0:0:0:0:
153,192,208386,1,0,0:0:0:0:
358,192,208481,128,0,208576:0:0:0:0:
51,192,208576,128,0,208671:0:0:0:0:
358,192,208671,128,0,208766:0:0:0:0:
51,192,208766,128,0,208861:0:0:0:0:
460,192,208766,1,0,0:0:0:0:
358,192,208861,128,0,208956:0:0:0:0:
256,192,208956,128,0,209051:0:0:0:0:
153,192,208956,1,0,0:0:0:0:
460,192,209051,128,0,209145:0:0:0:0:
153,192,209145,128,0,209240:0:0:0:0:
51,192,209145,1,0,0:0:0:0:
358,192,209145,1,0,0:0:0:0:
460,192,209240,128,0,209335:0:0:0:0:
256,192,209335,128,0,209430:0:0:0:0:
460,192,209430,128,0,209525:0:0:0:0:
51,192,209525,128,0,209620:0:0:0:0:
153,192,209525,1,0,0:0:0:0:
358,192,209525,1,0,0:0:0:0:
256,192,209620,128,0,209715:0:0:0:0:
51,192,209715,128,0,209810:0:0:0:0:
256,192,209810,128,0,209905:0:0:0:0:
358,192,209905,1,0,0:0:0:0:
460,192,209905,128,0,210095:0:0:0:0:
153,192,209905,128,0,210000:0:0:0:0:
51,192,210000,128,0,210095:0:0:0:0:
256,192,210095,128,0,210190:0:0:0:0:
358,192,210095,1,0,0:0:0:0:
460,192,210190,128,0,210285:0:0:0:0:
256,192,210285,128,0,210380:0:0:0:0:
153,192,210285,1,0,0:0:0:0:
460,192,210380,128,0,210475:0:0:0:0:
256,192,210475,128,0,210569:0:0:0:0:
460,192,210569,128,0,210664:0:0:0:0:
51,192,210664,1,0,0:0:0:0:
153,192,210664,1,0,0:0:0:0:
358,192,210664,128,0,210759:0:0:0:0:
256,192,210759,128,0,210854:0:0:0:0:
358,192,210854,128,0,210949:0:0:0:0:
256,192,210949,128,0,211044:0:0:0:0:
460,192,211044,128,0,211139:0:0:0:0:
51,192,211044,128,0,211424:0:0:0:0:
153,192,211139,128,0,211234:0:0:0:0:
460,192,211234,128,0,211329:0:0:0:0:
153,192,211329,128,0,211424:0:0:0:0:
256,192,211424,128,0,211519:0:0:0:0:
460,192,211424,128,0,211614:0:0:0:0:
358,192,211424,1,0,0:0:0:0:
51,192,211519,128,0,211614:0:0:0:0:
153,192,211614,128,0,211709:0:0:0:0:
358,192,211709,128,0,211804:0:0:0:0:
153,192,211804,128,0,211899:0:0:0:0:
51,192,211804,1,0,0:0:0:0:
358,192,211899,128,0,211994:0:0:0:0:
153,192,211994,128,0,212088:0:0:0:0:
358,192,212088,128,0,212183:0:0:0:0:
51,192,212183,128,0,212278:0:0:0:0:
256,192,212183,128,0,212563:0:0:0:0:
153,192,212183,1,0,0:0:0:0:
358,192,212278,128,0,212373:0:0:0:0:
51,192,212373,128,0,212468:0:0:0:0:
358,192,212468,128,0,212563:0:0:0:0:
51,192,212563,128,0,212848:0:0:0:0:
460,192,212563,128,0,212658:0:0:0:0:
153,192,212563,1,0,0:0:0:0:
358,192,212626,128,0,212721:0:0:0:0:
256,192,212690,128,0,212785:0:0:0:0:
153,192,212753,128,0,212848:0:0:0:0:
460,192,212848,128,0,212943:0:0:0:0:
153,192,212943,128,0,213038:0:0:0:0:
51,192,212943,128,0,213038:0:0:0:0:
256,192,212943,128,0,213038:0:0:0:0:
358,192,213038,128,0,213133:0:0:0:0:
153,192,213133,128,0,213228:0:0:0:0:
256,192,213228,128,0,213323:0:0:0:0:
51,192,213323,128,0,213418:0:0:0:0:
460,192,213323,128,0,213607:0:0:0:0:
358,192,213323,1,0,0:0:0:0:
153,192,213386,128,0,213481:0:0:0:0:
256,192,213449,128,0,213544:0:0:0:0:
358,192,213513,128,0,213607:0:0:0:0:
153,192,213607,128,0,213702:0:0:0:0:
460,192,213702,128,0,213797:0:0:0:0:
256,192,213702,128,0,213797:0:0:0:0:
51,192,213702,128,0,213797:0:0:0:0:
358,192,213797,128,0,213892:0:0:0:0:
153,192,213892,128,0,213987:0:0:0:0:
256,192,213987,128,0,214082:0:0:0:0:
358,192,214082,128,0,214177:0:0:0:0:
460,192,214082,1,0,0:0:0:0:
51,192,214082,128,0,214367:0:0:0:0:
153,192,214177,128,0,214272:0:0:0:0:
460,192,214272,128,0,214367:0:0:0:0:
256,192,214272,128,0,214367:0:0:0:0:
358,192,214367,128,0,214462:0:0:0:0:
256,192,214462,128,0,214747:0:0:0:0:
153,192,214462,128,0,214557:0:0:0:0:
51,192,214462,1,0,0:0:0:0:
460,192,214557,128,0,214652:0:0:0:0:
358,192,214652,128,0,214747:0:0:0:0:
51,192,214652,128,0,214747:0:0:0:0:
153,192,214747,128,0,214842:0:0:0:0:
358,192,214842,1,0,0:0:0:0:
460,192,214842,128,0,215126:0:0:0:0:
51,192,214842,1,0,0:0:0:0:
256,192,214905,1,0,0:0:0:0:
153,192,214968,1,0,0:0:0:0:
51,192,215032,1,0,0:0:0:0:
358,192,215032,128,0,215126:0:0:0:0:
256,192,215126,1,0,0:0:0:0:
153,192,215221,1,0,0:0:0:0:
460,192,215221,1,0,0:0:0:0:
51,192,215221,128,0,215506:0:0:0:0:
256,192,215285,1,0,0:0:0:0:
358,192,215348,1,0,0:0:0:0:
460,192,215411,1,0,0:0:0:0:
153,192,215411,128,0,215506:0:0:0:0:
256,192,215506,1,0,0:0:0:0:
153,192,215601,1,0,0:0:0:0:
51,192,215601,128,0,215981:0:0:0:0:
358,192,215601,128,0,217120:0:0:0:0:
460,192,215601,128,0,215664:0:0:0:0:
460,192,215981,128,0,216361:0:0:0:0:
51,192,216171,1,0,0:0:0:0:
256,192,216171,128,0,216234:0:0:0:0:
153,192,216361,128,0,216740:0:0:0:0:
460,192,216740,128,0,217120:0:0:0:0:
51,192,217120,128,0,217500:0:0:0:0:
153,192,217120,128,0,218639:0:0:0:0:
358,192,217500,1,0,0:0:0:0:
256,192,217690,128,0,218259:0:0:0:0:
358,192,218259,128,0,218639:0:0:0:0:
460,192,218449,1,0,0:0:0:0:
51,192,218449,1,0,0:0:0:0:
460,192,218639,128,0,219019:0:0:0:0:
51,192,218639,128,0,218702:0:0:0:0:
256,192,218639,128,0,220158:0:0:0:0:
358,192,219019,128,0,219399:0:0:0:0:
153,192,219399,128,0,219778:0:0:0:0:
358,192,219778,128,0,220158:0:0:0:0:
51,192,220158,128,0,220918:0:0:0:0:
460,192,220158,128,0,221107:0:0:0:0:
358,192,221107,1,0,0:0:0:0:
153,192,221297,1,0,0:0:0:0:
358,192,221487,1,0,0:0:0:0:
256,192,221582,1,0,0:0:0:0:
51,192,221677,128,0,222057:0:0:0:0:
153,192,221677,128,0,223196:0:0:0:0:
460,192,221677,128,0,221740:0:0:0:0:
460,192,222057,1,0,0:0:0:0:
256,192,222247,128,0,222816:0:0:0:0:
358,192,222247,128,0,222310:0:0:0:0:
358,192,222816,128,0,223196:0:0:0:0:
460,192,223196,128,0,223576:0:0:0:0:
256,192,223196,128,0,224715:0:0:0:0:
153,192,223576,1,0,0:0:0:0:
51,192,223766,128,0,224335:0:0:0:0:
358,192,224335,128,0,224715:0:0:0:0:
153,192,224335,1,0,0:0:0:0:
51,192,224525,1,0,0:0:0:0:
460,192,224525,1,0,0:0:0:0:
153,192,224715,128,0,225095:0:0:0:0:
51,192,224715,128,0,226234:0:0:0:0:
460,192,224715,128,0,224778:0:0:0:0:
460,192,225095,1,0,0:0:0:0:
256,192,225285,128,0,225854:0:0:0:0:
358,192,225854,128,0,226234:0:0:0:0:
460,192,226234,128,0,226994:0:0:0:0:
256,192,226234,128,0,227753:0:0:0:0:
358,192,226614,128,0,227373:0:0:0:0:
153,192,226994,128,0,227753:0:0:0:0:
51,192,227373,128,0,227753:0:0:0:0:
358,192,228133,128,0,230791:0:0:0:0:
51,192,228133,128,0,231076:0:0:0:0:
256,192,228133,128,0,230886:0:0:0:0:
153,192,228133,128,0,230981:0:0:0:0:
460,192,230791,1,0,0:0:0:0:
358,192,230886,1,0,0:0:0:0:
256,192,230981,1,0,0:0:0:0:
153,192,231076,1,0,0:0:0:0:
51,192,231171,1,0,0:0:0:0:
358,192,231171,1,0,0:0:0:0:
460,192,231171,1,0,0:0:0:0:
