osu file format v14

[General]
AudioFilename: audio.mp3
AudioLeadIn: 0
PreviewTime: 338782
Countdown: 0
SampleSet: Soft
StackLeniency: 0.7
Mode: 3
LetterboxInBreaks: 0
SpecialStyle: 0
WidescreenStoryboard: 0

[Editor]
DistanceSpacing: 1
BeatDivisor: 4
GridSize: 4
TimelineZoom: 1.8

[Metadata]
Title:Another Halcyon
TitleUnicode:Another Halcyon
Artist:VILA
ArtistUnicode:VILA
Creator:BossMadWolf
Version:Hidden Paradise
Source:
Tags:xi 7K stream LN sv
BeatmapID:2165145
BeatmapSetID:1035628

[Difficulty]
HPDrainRate:8
CircleSize:7
OverallDifficulty:8
ApproachRate:5
SliderMultiplier:1.4
SliderTickRate:1

[Events]
//Background and Video events
0,0,"bg.png",0,0
//Break Periods
//Storyboard Layer 0 (Background)
//Storyboard Layer 1 (Fail)
//Storyboard Layer 2 (Pass)
//Storyboard Layer 3 (Foreground)
//Storyboard Layer 4 (Overlay)
//Storyboard Sound Samples

[TimingPoints]
1020,533.333333333333,4,2,0,10,1,0
1020,-107.52688172043,4,2,0,10,0,0
3153,544.464609800363,4,2,0,10,1,0
3153,-105.263157894737,4,2,0,10,0,0
4241,542.49547920434,4,2,0,10,1,0
4241,-105.263157894737,4,2,0,10,0,0
10750,543.970988213962,4,2,0,10,1,0
10750,-105.263157894737,4,2,0,10,0,0
12925,545.454545454546,4,2,0,10,1,0
12925,-105.263157894737,4,2,0,10,0,0
30400,544.21768707483,4,2,0,10,1,0
30400,-105.263157894737,4,2,0,10,0,0
36930,545.454545454546,4,2,0,10,1,0
36930,-105.263157894737,4,2,0,10,0,0
62293,-98.0392156862745,4,2,0,10,0,0
62430,-91.743119266055,4,2,0,10,0,0
62566,-86.2068965517241,4,2,0,10,0,0
62702,-81.3008130081301,4,2,0,10,0,0
62839,-76.9230769230769,4,2,0,10,0,0
62975,-73.5294117647059,4,2,0,10,0,0
63111,-69.9300699300699,4,2,0,10,0,0
63248,-66.6666666666667,4,2,0,10,0,0
63384,-63.6942675159236,4,2,0,10,0,0
63520,-60.9756097560976,4,2,0,10,0,0
63657,-58.8235294117647,4,2,0,10,0,0
64762,400,4,2,0,10,1,0
64762,-100,4,2,0,10,0,0
71162,-100,4,2,0,10,0,1
96762,-100,4,2,0,10,0,0
173562,-500,4,2,0,10,0,0
173862,-50,4,2,0,10,0,0
173962,-62.5,4,2,0,10,0,0
174012,-68.9655172413793,4,2,0,10,0,0
174062,-76.9230769230769,4,2,0,10,0,0
174112,-86.9565217391304,4,2,0,10,0,0
174162,-100,4,2,0,10,0,0
174212,-117.647058823529,4,2,0,10,0,0
174262,-142.857142857143,4,2,0,10,0,0
174312,-181.818181818182,4,2,0,10,0,0
174362,-100,4,2,0,10,0,0
175162,-500,4,2,0,10,0,0
175462,-50,4,2,0,10,0,0
175562,-500,4,2,0,10,0,0
175862,-50,4,2,0,10,0,0
175962,-500,4,2,0,10,0,0
176262,-50,4,2,0,10,0,0
176362,-500,4,2,0,10,0,0
176662,-50,4,2,0,10,0,0
176762,-500,4,2,0,10,0,0
177062,-50,4,2,0,10,0,0
177162,-62.5,4,2,0,10,0,0
177212,-68.9655172413793,4,2,0,10,0,0
177262,-76.9230769230769,4,2,0,10,0,0
177312,-86.9565217391304,4,2,0,10,0,0
177362,-100,4,2,0,10,0,0
177412,-117.647058823529,4,2,0,10,0,0
177462,-142.857142857143,4,2,0,10,0,0
177512,-181.818181818182,4,2,0,10,0,0
177562,-100,4,2,0,10,0,0
178362,-500,4,2,0,10,0,0
178662,-50,4,2,0,10,0,0
178762,-500,4,2,0,10,0,0
179062,-50,4,2,0,10,0,0
179162,-500,4,2,0,10,0,0
179462,-50,4,2,0,10,0,0
179562,-500,4,2,0,10,0,0
179862,-50,4,2,0,10,0,0
179962,-500,4,2,0,10,0,0
180262,-50,4,2,0,10,0,0
180362,-500,4,2,0,10,0,0
180662,-50,4,2,0,10,0,0
180762,-500,4,2,0,10,0,0
181062,-50,4,2,0,10,0,0
181162,-500,4,2,0,10,0,0
181462,-50,4,2,0,10,0,0
181562,-500,4,2,0,10,0,0
181862,-50,4,2,0,10,0,0
181962,-500,4,2,0,10,0,0
182262,-50,4,2,0,10,0,0
182362,-500,4,2,0,10,0,0
182662,-50,4,2,0,10,0,0
182762,-500,4,2,0,10,0,0
183062,-50,4,2,0,10,0,0
183162,-100,4,2,0,10,0,0
183562,-333.333333333333,4,2,0,10,0,0
183762,-55.5555555555556,4,2,0,10,0,0
183862,-100,4,2,0,10,0,0
183962,-62.5,4,2,0,10,0,0
184012,-68.9655172413793,4,2,0,10,0,0
184062,-76.9230769230769,4,2,0,10,0,0
184112,-86.9565217391304,4,2,0,10,0,0
184162,-100,4,2,0,10,0,0
184212,-117.647058823529,4,2,0,10,0,0
184262,-142.857142857143,4,2,0,10,0,0
184312,-181.818181818182,4,2,0,10,0,0
184362,-100,4,2,0,10,0,0
185162,-333.333333333333,4,2,0,10,0,0
185362,-55.5555555555556,4,2,0,10,0,0
185562,-62.5,4,2,0,10,0,0
185612,-68.9655172413793,4,2,0,10,0,0
185662,-76.9230769230769,4,2,0,10,0,0
185712,-86.9565217391304,4,2,0,10,0,0
185762,-100,4,2,0,10,0,0
185812,-117.647058823529,4,2,0,10,0,0
185862,-142.857142857143,4,2,0,10,0,0
185912,-181.818181818182,4,2,0,10,0,0
185962,-100,4,2,0,10,0,0
186762,-333.333333333333,4,2,0,10,0,0
186962,-55.5555555555556,4,2,0,10,0,0
187162,-62.5,4,2,0,10,0,0
187212,-68.9655172413793,4,2,0,10,0,0
187262,-76.9230769230769,4,2,0,10,0,0
187312,-86.9565217391304,4,2,0,10,0,0
187362,-100,4,2,0,10,0,0
187412,-117.647058823529,4,2,0,10,0,0
187462,-142.857142857143,4,2,0,10,0,0
187512,-181.818181818182,4,2,0,10,0,0
187562,-100,4,2,0,10,0,0
196362,425.531914893617,4,2,0,10,1,0
196362,-94,4,2,0,10,0,0
199340,-94.3396226415094,4,2,0,10,0,0
199552.75,-96.7741935483871,4,2,0,10,0,0
199765.5,-99.3377483443709,4,2,0,10,0,0
199978.25,-102.040816326531,4,2,0,10,0,0
200191,-104.895104895105,4,2,0,10,0,0
200403.75,-107.913669064748,4,2,0,10,0,0
200616.5,-111.111111111111,4,2,0,10,0,0
200829.25,-114.503816793893,4,2,0,10,0,0
201042,-118.110236220472,4,2,0,10,0,0
201254.75,-121.951219512195,4,2,0,10,0,0
201467.5,-126.050420168067,4,2,0,10,0,0
201680.25,-130.434782608696,4,2,0,10,0,0
201893,-135.135135135135,4,2,0,10,0,0
202807,425.531914893617,4,2,0,10,1,0
202807,-135.135135135135,4,2,0,10,0,0
209189,454.545454545455,4,2,0,10,1,0
209189,-125,4,2,0,10,0,0
209643,425.531914893617,4,2,0,10,1,0
209643,-135.135135135135,4,2,0,10,0,0
216025,454.545454545455,4,2,0,10,1,0
216025,-125,4,2,0,10,0,0
216934,425.531914893617,4,2,0,10,1,0
216934,-135.135135135135,4,2,0,10,0,0
226295,461.538461538462,4,2,0,10,1,0
226295,-123.456790123457,4,2,0,10,0,0
226756,425.531914893617,4,2,0,10,1,0
226756,-135.135135135135,4,2,0,10,0,0
229309,461.538461538462,4,2,0,10,1,0
229309,-123.456790123457,4,2,0,10,0,0
231155,425.531914893617,4,2,0,10,1,0
231155,-135.135135135135,4,2,0,10,0,0
237537,454.545454545455,4,2,0,10,1,0
237537,-125,4,2,0,10,0,0
237991,444.444444444444,4,2,0,10,1,0
237991,-128.205128205128,4,2,0,10,0,0
238435,461.538461538462,4,2,0,10,1,0
238435,-123.456790123457,4,2,0,10,0,0
239358,425.531914893617,4,2,0,10,1,0
239358,-135.135135135135,4,2,0,10,0,0
243613,444.444444444444,4,2,0,10,1,0
243613,-128.205128205128,4,2,0,10,0,0
244501,480,4,2,0,10,1,0
244501,-119.047619047619,4,2,0,10,0,0
245461,428.571428571429,4,2,0,10,1,0
245461,-133.333333333333,4,2,0,10,0,0
248032,454.545454545455,4,2,0,10,1,0
248032,-125,4,2,0,10,0,0
248941,425.531914893617,4,2,0,10,1,0
248941,-135.135135135135,4,2,0,10,0,0
249366,454.545454545455,4,2,0,10,1,0
249366,-125,4,2,0,10,0,0
249820,480,4,2,0,10,1,0
249820,-119.047619047619,4,2,0,10,0,0
250300,428.571428571429,4,2,0,10,1,0
250300,-133.333333333333,4,2,0,10,0,0
252014,444.444444444444,4,2,0,10,1,0
252014,-128.205128205128,4,2,0,10,0,0
252902,434.782608695652,4,2,0,10,1,0
252902,-131.578947368421,4,2,0,10,0,0
256815,500,4,2,0,10,1,0
256815,-113.636363636364,4,2,0,10,0,0
257315,461.538461538462,4,2,0,10,1,0
257315,-125,4,2,0,10,0,0
257776,428.571428571429,4,2,0,10,1,0
257776,-133.333333333333,4,2,0,10,0,0
259061,454.545454545455,4,2,0,10,1,0
259061,-125,4,2,0,10,0,0
259515,428.571428571429,4,2,0,10,1,0
259515,-133.333333333333,4,2,0,10,0,0
260800,441.176470588235,4,2,0,10,1,0
260800,-129.87012987013,4,2,0,10,0,0
263005,434.782608695652,4,2,0,10,1,0
263005,-131.578947368421,4,2,0,10,0,0
270831,454.545454545455,4,2,0,10,1,0
270831,-125,4,2,0,10,0,0
271740,428.571428571429,4,2,0,10,1,0
271740,-133.333333333333,4,2,0,10,0,0
274311,451.127819548872,4,2,0,10,1,0
274311,-126.582278481013,4,2,0,10,0,0
275213,428.571428571429,4,2,0,10,1,0
275213,-133.333333333333,4,2,0,10,0,0
278213,444.444444444444,4,2,0,10,1,0
278213,-128.205128205128,4,2,0,10,0,0
279546,428.571428571429,4,2,0,10,1,0
279546,-133.333333333333,4,2,0,10,0,0
281260,434.782608695652,4,2,0,10,1,0
281260,-131.578947368421,4,2,0,10,0,0
281694,461.538461538462,4,2,0,10,1,0
281694,-123.456790123457,4,2,0,10,0,0
282617,434.782608695652,4,2,0,10,1,0
282617,-131.578947368421,4,2,0,10,0,0
284790,480,4,2,0,10,1,0
284790,-119.047619047619,4,2,0,10,0,0
285750,431.654676258993,4,2,0,10,1,0
285750,-131.578947368421,4,2,0,10,0,0
289634,428.571428571429,4,2,0,10,1,0
289634,-133.333333333333,4,2,0,10,0,0
291776,491.803278688525,4,2,0,10,1,0
291776,-116.279069767442,4,2,0,10,0,0
292759,461.538461538462,4,2,0,10,1,0
292759,-123.456790123457,4,2,0,10,0,0
293220,434.782608695652,4,2,0,10,1,0
293220,-131.578947368421,4,2,0,10,0,0
295828,461.538461538462,4,2,0,10,1,0
295828,-123.456790123457,4,2,0,10,0,0
297674,413.793103448276,4,2,0,10,1,0
297674,-138.888888888889,4,2,0,10,0,0
298087,434.782608695652,4,2,0,10,1,0
298087,-131.578947368421,4,2,0,10,0,0
299391,461.538461538462,4,2,0,10,1,0
299391,-123.456790123457,4,2,0,10,0,0
299852,468.75,4,2,0,10,1,0
299852,-121.951219512195,4,2,0,10,0,0
300789,434.782608695652,4,2,0,10,1,0
300789,-131.578947368421,4,2,0,10,0,0
302962,428.571428571429,4,2,0,10,1,0
302962,-133.333333333333,4,2,0,10,0,0
303390,444.444444444444,4,2,0,10,1,0
303390,-128.205128205128,4,2,0,10,0,0
305612,461.538461538462,4,2,0,10,1,0
305612,-125,4,2,0,10,0,0
306535,444.444444444444,4,2,0,10,1,0
306535,-128.205128205128,4,2,0,10,0,0
310090,428.571428571429,4,2,0,10,1,0
310090,-133.333333333333,4,2,0,10,0,0
315661,-133.333333333333,4,2,0,10,0,0
315714.5625,-129.975629569456,4,2,0,10,0,0
315768.125,-126.782884310618,4,2,0,10,0,0
315821.6875,-123.743232791957,4,2,0,10,0,0
315875.25,-120.845921450151,4,2,0,10,0,0
315928.8125,-118.081180811808,4,2,0,10,0,0
315982.375,-115.440115440115,4,2,0,10,0,0
316035.9375,-112.914608327452,4,2,0,10,0,0
316089.5,-110.497237569061,4,2,0,10,0,0
316143.0625,-108.181203515889,4,2,0,10,0,0
316196.625,-105.960264900662,4,2,0,10,0,0
316250.1875,-103.828682673589,4,2,0,10,0,0
316303.75,-101.781170483461,4,2,0,10,0,0
316357.3125,-99.812850904554,4,2,0,10,0,0
316410.875,-97.9192166462668,4,2,0,10,0,0
316464.4375,-96.0960960960961,4,2,0,10,0,0
316518,-94.3396226415094,4,2,0,10,0,0
316714,344.827586206897,4,2,0,10,1,0
316714,-125,4,2,0,10,0,0
328438,-120.481927710843,4,2,0,10,0,0
336714,-116.279069767442,4,2,0,10,0,0
339472,-116,4,2,0,10,0,1
340162,-128.205128205128,4,2,0,10,0,1
340248,-105.263157894737,4,2,0,10,0,1
340334,-116.279069767442,4,2,0,10,0,1
340507,-128.205128205128,4,2,0,10,0,1
340593,-105.263157894737,4,2,0,10,0,1
340679,-116.279069767442,4,2,0,10,0,1
340851,-128.205128205128,4,2,0,10,0,1
340938,-105.263157894737,4,2,0,10,0,1
341024,-116.279069767442,4,2,0,10,0,1
341196,-128.205128205128,4,2,0,10,0,1
341282,-105.263157894737,4,2,0,10,0,1
341369,-116.279069767442,4,2,0,10,0,1
341541,-128.205128205128,4,2,0,10,0,1
341627,-105.263157894737,4,2,0,10,0,1
341714,-116.279069767442,4,2,0,10,0,1
342920,-128.205128205128,4,2,0,10,0,1
343007,-105.263157894737,4,2,0,10,0,1
343093,-116.279069767442,4,2,0,10,0,1
343265,-128.205128205128,4,2,0,10,0,1
343351,-105.263157894737,4,2,0,10,0,1
343438,-116.279069767442,4,2,0,10,0,1
343610,-128.205128205128,4,2,0,10,0,1
343696,-105.263157894737,4,2,0,10,0,1
343782,-116.279069767442,4,2,0,10,0,1
343955,-128.205128205128,4,2,0,10,0,1
344041,-105.263157894737,4,2,0,10,0,1
344127,-116.279069767442,4,2,0,10,0,1
344300,-128.205128205128,4,2,0,10,0,1
344386,-105.263157894737,4,2,0,10,0,1
344472,-116.279069767442,4,2,0,10,0,1
344645,-128.205128205128,4,2,0,10,0,1
344731,-105.263157894737,4,2,0,10,0,1
344817,-116.279069767442,4,2,0,10,0,1
351196,-128.205128205128,4,2,0,10,0,1
351282,-105.263157894737,4,2,0,10,0,1
351369,-116.279069767442,4,2,0,10,0,1
351541,-128.205128205128,4,2,0,10,0,1
351627,-105.263157894737,4,2,0,10,0,1
351714,-116.279069767442,4,2,0,10,0,1
351886,-128.205128205128,4,2,0,10,0,1
351972,-105.263157894737,4,2,0,10,0,1
352058,-116.279069767442,4,2,0,10,0,1
352231,-128.205128205128,4,2,0,10,0,1
352317,-105.263157894737,4,2,0,10,0,1
352403,-116.279069767442,4,2,0,10,0,1
352576,-128.205128205128,4,2,0,10,0,1
352662,-105.263157894737,4,2,0,10,0,1
352748,-116.279069767442,4,2,0,10,0,1
353955,-128.205128205128,4,2,0,10,0,1
354041,-105.263157894737,4,2,0,10,0,1
354127,-116.279069767442,4,2,0,10,0,1
354300,-128.205128205128,4,2,0,10,0,1
354386,-105.263157894737,4,2,0,10,0,1
354472,-116.279069767442,4,2,0,10,0,1
354645,-128.205128205128,4,2,0,10,0,1
354731,-105.263157894737,4,2,0,10,0,1
354817,-116.279069767442,4,2,0,10,0,1
354989,-128.205128205128,4,2,0,10,0,1
355075,-105.263157894737,4,2,0,10,0,1
355161,-116.279069767442,4,2,0,10,0,1
355334,-128.205128205128,4,2,0,10,0,1
355420,-105.263157894737,4,2,0,10,0,1
355506,-116.279069767442,4,2,0,10,0,1
362231,-128.205128205128,4,2,0,10,0,1
362317,-105.263157894737,4,2,0,10,0,1
362403,-116.279069767442,4,2,0,10,0,1
362576,-128.205128205128,4,2,0,10,0,1
362662,-105.263157894737,4,2,0,10,0,1
362748,-116.279069767442,4,2,0,10,0,1
362920,-128.205128205128,4,2,0,10,0,1
363006,-105.263157894737,4,2,0,10,0,1
363092,-116.279069767442,4,2,0,10,0,1
363265,-128.205128205128,4,2,0,10,0,1
363351,-105.263157894737,4,2,0,10,0,1
363437,-116.279069767442,4,2,0,10,0,1
363610,-128.205128205128,4,2,0,10,0,1
363696,-105.263157894737,4,2,0,10,0,1
363782,-116.279069767442,4,2,0,10,0,1
365679,-588.235294117647,4,2,0,10,0,1
365851,-48.3091787439614,4,2,0,10,0,1
365909,-588.235294117647,4,2,0,10,0,1
366081,-48.3091787439614,4,2,0,10,0,1
366139,-588.235294117647,4,2,0,10,0,1
366311,-48.3091787439614,4,2,0,10,0,1
366369,-588.235294117647,4,2,0,10,0,1
366541,-48.3091787439614,4,2,0,10,0,1
366599,-588.235294117647,4,2,0,10,0,1
366771,-48.3091787439614,4,2,0,10,0,1
366828,-588.235294117647,4,2,0,10,0,1
367000,-48.3091787439614,4,2,0,10,0,1
367058,-116.279069767442,4,2,0,10,0,1
373265,-128.205128205128,4,2,0,10,0,1
373351,-105.263157894737,4,2,0,10,0,1
373437,-116.279069767442,4,2,0,10,0,1
373610,-128.205128205128,4,2,0,10,0,1
373696,-105.263157894737,4,2,0,10,0,1
373782,-116.279069767442,4,2,0,10,0,1
373955,-128.205128205128,4,2,0,10,0,1
374041,-105.263157894737,4,2,0,10,0,1
374127,-116.279069767442,4,2,0,10,0,1
374300,-128.205128205128,4,2,0,10,0,1
374386,-105.263157894737,4,2,0,10,0,1
374472,-116.279069767442,4,2,0,10,0,1
374645,-128.205128205128,4,2,0,10,0,1
374731,-105.263157894737,4,2,0,10,0,1
374817,-116.279069767442,4,2,0,10,0,1
376024,-128.205128205128,4,2,0,10,0,1
376110,-105.263157894737,4,2,0,10,0,1
376196,-116.279069767442,4,2,0,10,0,1
376369,-128.205128205128,4,2,0,10,0,1
376455,-105.263157894737,4,2,0,10,0,1
376541,-116.279069767442,4,2,0,10,0,1
376714,-128.205128205128,4,2,0,10,0,1
376800,-105.263157894737,4,2,0,10,0,1
376886,-116.279069767442,4,2,0,10,0,1
377058,-128.205128205128,4,2,0,10,0,1
377144,-105.263157894737,4,2,0,10,0,1
377230,-116.279069767442,4,2,0,10,0,1
377403,-128.205128205128,4,2,0,10,0,1
377489,-105.263157894737,4,2,0,10,0,1
377575,-116.279069767442,4,2,0,10,0,1
383610,-109.89010989011,4,2,0,10,0,1
384300,-105.263157894737,4,2,0,10,0,1
384989,-101.010101010101,4,2,0,10,0,1
386369,-294.117647058824,4,2,0,10,0,1
386627,-64.5161290322581,4,2,0,10,0,1
386714,-131.578947368421,4,2,0,10,0,0

[HitObjects]
109,192,1020,128,0,2086:0:0:0:0:
256,192,1020,128,0,1553:0:0:0:0:
329,192,1553,128,0,2086:0:0:0:0:
182,192,1553,128,0,2619:0:0:0:0:
256,192,2086,128,0,2619:0:0:0:0:
402,192,2086,128,0,2619:0:0:0:0:
36,192,2619,128,0,3697:0:0:0:0:
329,192,2619,128,0,3153:0:0:0:0:
475,192,2619,128,0,3153:0:0:0:0:
109,192,3153,128,0,4241:0:0:0:0:
256,192,3153,128,0,3697:0:0:0:0:
402,192,3153,128,0,3697:0:0:0:0:
329,192,3697,128,0,4241:0:0:0:0:
475,192,3697,128,0,4241:0:0:0:0:
182,192,3697,128,0,4241:0:0:0:0:
402,192,3969,128,0,4241:0:0:0:0:
36,192,4241,128,0,5325:0:0:0:0:
256,192,4241,128,0,5325:0:0:0:0:
182,192,4783,1,0,0:0:0:0:
109,192,5325,1,0,0:0:0:0:
402,192,5325,1,0,0:0:0:0:
475,192,5325,128,0,6410:0:0:0:0:
329,192,5325,128,0,6410:0:0:0:0:
256,192,5868,1,0,0:0:0:0:
109,192,6410,128,0,6953:0:0:0:0:
402,192,6410,128,0,6953:0:0:0:0:
182,192,6953,128,0,7495:0:0:0:0:
329,192,6953,128,0,7495:0:0:0:0:
256,192,7495,128,0,8580:0:0:0:0:
36,192,7495,1,0,0:0:0:0:
109,192,8038,1,0,0:0:0:0:
402,192,8038,1,0,0:0:0:0:
475,192,8580,1,0,0:0:0:0:
182,192,8580,128,0,9665:0:0:0:0:
329,192,8852,1,0,0:0:0:0:
402,192,9123,1,0,0:0:0:0:
109,192,9665,128,0,10750:0:0:0:0:
402,192,9665,128,0,10208:0:0:0:0:
329,192,9665,1,0,0:0:0:0:
329,192,10208,128,0,10750:0:0:0:0:
36,192,10208,1,0,0:0:0:0:
182,192,10479,1,0,0:0:0:0:
402,192,10750,128,0,11837:0:0:0:0:
256,192,10750,128,0,11837:0:0:0:0:
475,192,10750,1,0,0:0:0:0:
109,192,11021,1,0,0:0:0:0:
329,192,11293,1,0,0:0:0:0:
182,192,11837,128,0,12925:0:0:0:0:
36,192,11837,128,0,12925:0:0:0:0:
475,192,11837,1,0,0:0:0:0:
329,192,12109,1,0,0:0:0:0:
402,192,12381,1,0,0:0:0:0:
109,192,12653,1,0,0:0:0:0:
256,192,12925,128,0,13470:0:0:0:0:
475,192,12925,128,0,14015:0:0:0:0:
329,192,12925,1,0,0:0:0:0:
402,192,13470,128,0,14015:0:0:0:0:
109,192,13470,128,0,14015:0:0:0:0:
182,192,13470,1,0,0:0:0:0:
256,192,14015,128,0,16743:0:0:0:0:
182,192,14015,128,0,15652:0:0:0:0:
36,192,14015,1,0,0:0:0:0:
109,192,14561,1,0,0:0:0:0:
329,192,15106,1,0,0:0:0:0:
402,192,15652,128,0,16743:0:0:0:0:
36,192,15652,1,0,0:0:0:0:
475,192,16197,1,0,0:0:0:0:
109,192,16743,1,0,0:0:0:0:
36,192,16743,128,0,20015:0:0:0:0:
475,192,17288,128,0,20015:0:0:0:0:
182,192,17288,1,0,0:0:0:0:
109,192,17834,1,0,0:0:0:0:
402,192,18379,1,0,0:0:0:0:
329,192,18925,1,0,0:0:0:0:
256,192,19470,1,0,0:0:0:0:
182,192,20015,128,0,20561:0:0:0:0:
329,192,20015,128,0,20561:0:0:0:0:
256,192,20561,128,0,22061:0:0:0:0:
36,192,20561,1,0,0:0:0:0:
475,192,20561,1,0,0:0:0:0:
109,192,21106,1,0,0:0:0:0:
402,192,21652,1,0,0:0:0:0:
256,192,22197,128,0,23834:0:0:0:0:
475,192,22197,1,0,0:0:0:0:
402,192,22743,1,0,0:0:0:0:
182,192,23288,128,0,25470:0:0:0:0:
329,192,23288,128,0,25470:0:0:0:0:
109,192,23288,1,0,0:0:0:0:
109,192,23834,128,0,26561:0:0:0:0:
402,192,23834,128,0,26561:0:0:0:0:
36,192,23834,1,0,0:0:0:0:
256,192,24379,1,0,0:0:0:0:
475,192,24925,1,0,0:0:0:0:
256,192,25470,128,0,27106:0:0:0:0:
36,192,25470,1,0,0:0:0:0:
182,192,26015,1,0,0:0:0:0:
329,192,26561,128,0,28743:0:0:0:0:
475,192,26561,1,0,0:0:0:0:
182,192,26561,128,0,28743:0:0:0:0:
36,192,27106,128,0,28743:0:0:0:0:
475,192,27106,128,0,28743:0:0:0:0:
402,192,27106,1,0,0:0:0:0:
256,192,27652,1,0,0:0:0:0:
109,192,28197,1,0,0:0:0:0:
256,192,28743,128,0,30400:0:0:0:0:
402,192,28743,1,0,0:0:0:0:
182,192,29288,1,0,0:0:0:0:
109,192,29834,1,0,0:0:0:0:
475,192,30400,128,0,31488:0:0:0:0:
329,192,30400,128,0,30944:0:0:0:0:
36,192,30400,128,0,31488:0:0:0:0:
402,192,30944,128,0,31488:0:0:0:0:
182,192,30944,1,0,0:0:0:0:
109,192,31488,128,0,32576:0:0:0:0:
329,192,31488,128,0,32032:0:0:0:0:
256,192,31488,128,0,32576:0:0:0:0:
36,192,32032,1,0,0:0:0:0:
475,192,32032,128,0,32576:0:0:0:0:
182,192,32576,128,0,33665:0:0:0:0:
402,192,32576,128,0,33121:0:0:0:0:
36,192,32576,128,0,33665:0:0:0:0:
329,192,33121,128,0,34209:0:0:0:0:
475,192,33121,128,0,33665:0:0:0:0:
256,192,33665,128,0,34753:0:0:0:0:
109,192,33665,128,0,34753:0:0:0:0:
402,192,33665,128,0,34209:0:0:0:0:
182,192,34209,128,0,34753:0:0:0:0:
36,192,34209,1,0,0:0:0:0:
475,192,34753,128,0,35842:0:0:0:0:
329,192,34753,128,0,35297:0:0:0:0:
36,192,34753,128,0,35842:0:0:0:0:
182,192,35297,128,0,35842:0:0:0:0:
256,192,35297,1,0,0:0:0:0:
109,192,35842,128,0,36930:0:0:0:0:
256,192,35842,128,0,36930:0:0:0:0:
402,192,35842,128,0,36386:0:0:0:0:
329,192,36386,128,0,36930:0:0:0:0:
182,192,36386,128,0,37475:0:0:0:0:
402,192,36930,128,0,38020:0:0:0:0:
475,192,36930,128,0,38020:0:0:0:0:
36,192,36930,128,0,37475:0:0:0:0:
329,192,37475,128,0,38020:0:0:0:0:
109,192,37475,128,0,38020:0:0:0:0:
256,192,38020,128,0,39111:0:0:0:0:
36,192,38020,128,0,39111:0:0:0:0:
182,192,38020,128,0,38566:0:0:0:0:
475,192,38566,128,0,39111:0:0:0:0:
329,192,38566,1,0,0:0:0:0:
109,192,39111,128,0,40202:0:0:0:0:
329,192,39111,128,0,40202:0:0:0:0:
182,192,39111,128,0,39657:0:0:0:0:
256,192,39657,128,0,40748:0:0:0:0:
36,192,39657,128,0,40202:0:0:0:0:
475,192,40202,128,0,41839:0:0:0:0:
402,192,40202,128,0,40748:0:0:0:0:
182,192,40202,128,0,42384:0:0:0:0:
329,192,40748,128,0,42384:0:0:0:0:
36,192,40748,128,0,41839:0:0:0:0:
109,192,41293,128,0,42930:0:0:0:0:
402,192,41293,128,0,42930:0:0:0:0:
256,192,41839,128,0,42930:0:0:0:0:
36,192,42384,128,0,43475:0:0:0:0:
475,192,42384,128,0,43475:0:0:0:0:
182,192,42930,128,0,43475:0:0:0:0:
329,192,42930,128,0,43475:0:0:0:0:
109,192,43475,128,0,45111:0:0:0:0:
402,192,43475,128,0,45111:0:0:0:0:
256,192,43475,128,0,44020:0:0:0:0:
182,192,44020,128,0,44566:0:0:0:0:
329,192,44566,128,0,45111:0:0:0:0:
256,192,45111,128,0,46202:0:0:0:0:
475,192,45111,128,0,45657:0:0:0:0:
182,192,45657,128,0,46748:0:0:0:0:
402,192,45657,128,0,46202:0:0:0:0:
109,192,46202,128,0,47293:0:0:0:0:
329,192,46202,128,0,46748:0:0:0:0:
36,192,46748,128,0,47839:0:0:0:0:
256,192,46748,128,0,47293:0:0:0:0:
182,192,47293,128,0,47839:0:0:0:0:
109,192,47839,128,0,48930:0:0:0:0:
475,192,47839,128,0,49475:0:0:0:0:
402,192,47839,128,0,48384:0:0:0:0:
256,192,48384,128,0,49475:0:0:0:0:
329,192,48384,128,0,48930:0:0:0:0:
36,192,48930,128,0,50020:0:0:0:0:
182,192,48930,128,0,49475:0:0:0:0:
109,192,49475,128,0,52611:0:0:0:0:
402,192,49475,128,0,52066:0:0:0:0:
475,192,50020,128,0,53157:0:0:0:0:
256,192,50020,128,0,50975:0:0:0:0:
182,192,50020,128,0,50430:0:0:0:0:
329,192,50020,128,0,51520:0:0:0:0:
182,192,50566,128,0,53157:0:0:0:0:
256,192,51111,128,0,53157:0:0:0:0:
329,192,51657,128,0,53157:0:0:0:0:
402,192,52202,128,0,56430:0:0:0:0:
109,192,52748,128,0,53157:0:0:0:0:
36,192,53293,128,0,53702:0:0:0:0:
109,192,53293,128,0,54248:0:0:0:0:
182,192,53293,128,0,54793:0:0:0:0:
256,192,53293,128,0,55339:0:0:0:0:
329,192,53293,128,0,55884:0:0:0:0:
36,192,53839,128,0,56430:0:0:0:0:
109,192,54384,128,0,56430:0:0:0:0:
182,192,54930,128,0,56430:0:0:0:0:
256,192,55475,128,0,56430:0:0:0:0:
329,192,56020,128,0,56430:0:0:0:0:
36,192,56566,128,0,59702:0:0:0:0:
109,192,56566,128,0,56975:0:0:0:0:
182,192,56566,128,0,57520:0:0:0:0:
329,192,56566,128,0,58611:0:0:0:0:
402,192,56566,128,0,58066:0:0:0:0:
475,192,56566,128,0,61339:0:0:0:0:
109,192,57111,128,0,60248:0:0:0:0:
182,192,57657,128,0,59157:0:0:0:0:
402,192,58202,128,0,64611:0:0:0:0:
329,192,58748,128,0,60793:0:0:0:0:
182,192,59293,128,0,64611:0:0:0:0:
36,192,59839,128,0,64611:0:0:0:0:
109,192,60384,128,0,64611:0:0:0:0:
329,192,60930,128,0,64611:0:0:0:0:
475,192,61475,128,0,64611:0:0:0:0:
36,192,64762,1,0,0:0:0:0:
109,192,64762,1,0,0:0:0:0:
402,192,64762,1,0,0:0:0:0:
475,192,64762,1,0,0:0:0:0:
256,192,64762,1,0,0:0:0:0:
109,192,64962,1,0,0:0:0:0:
329,192,64962,1,0,0:0:0:0:
182,192,65062,1,0,0:0:0:0:
402,192,65062,1,0,0:0:0:0:
329,192,65162,1,0,0:0:0:0:
256,192,65162,1,0,0:0:0:0:
475,192,65162,1,0,0:0:0:0:
36,192,65162,1,0,0:0:0:0:
109,192,65362,1,0,0:0:0:0:
402,192,65362,1,0,0:0:0:0:
182,192,65462,1,0,0:0:0:0:
329,192,65462,1,0,0:0:0:0:
475,192,65562,1,0,0:0:0:0:
36,192,65562,1,0,0:0:0:0:
109,192,65562,1,0,0:0:0:0:
256,192,65562,1,0,0:0:0:0:
402,192,65662,1,0,0:0:0:0:
182,192,65662,1,0,0:0:0:0:
329,192,65762,1,0,0:0:0:0:
109,192,65762,1,0,0:0:0:0:
36,192,65862,1,0,0:0:0:0:
475,192,65862,1,0,0:0:0:0:
256,192,65962,1,0,0:0:0:0:
182,192,65962,1,0,0:0:0:0:
402,192,65962,1,0,0:0:0:0:
36,192,66062,1,0,0:0:0:0:
329,192,66062,1,0,0:0:0:0:
182,192,66162,1,0,0:0:0:0:
402,192,66162,1,0,0:0:0:0:
109,192,66262,1,0,0:0:0:0:
256,192,66262,1,0,0:0:0:0:
329,192,66362,1,0,0:0:0:0:
475,192,66362,1,0,0:0:0:0:
402,192,66362,1,0,0:0:0:0:
36,192,66362,1,0,0:0:0:0:
36,192,66562,1,0,0:0:0:0:
182,192,66562,1,0,0:0:0:0:
109,192,66662,1,0,0:0:0:0:
256,192,66662,1,0,0:0:0:0:
182,192,66762,1,0,0:0:0:0:
329,192,66762,1,0,0:0:0:0:
475,192,66762,1,0,0:0:0:0:
402,192,66762,1,0,0:0:0:0:
109,192,66962,1,0,0:0:0:0:
402,192,66962,1,0,0:0:0:0:
36,192,67062,1,0,0:0:0:0:
329,192,67062,1,0,0:0:0:0:
182,192,67162,1,0,0:0:0:0:
109,192,67162,1,0,0:0:0:0:
475,192,67162,1,0,0:0:0:0:
256,192,67162,1,0,0:0:0:0:
402,192,67262,1,0,0:0:0:0:
329,192,67262,1,0,0:0:0:0:
256,192,67362,1,0,0:0:0:0:
109,192,67362,1,0,0:0:0:0:
182,192,67362,1,0,0:0:0:0:
36,192,67462,1,0,0:0:0:0:
475,192,67462,1,0,0:0:0:0:
182,192,67562,1,0,0:0:0:0:
329,192,67562,1,0,0:0:0:0:
109,192,67662,1,0,0:0:0:0:
256,192,67662,1,0,0:0:0:0:
36,192,67762,1,0,0:0:0:0:
182,192,67762,1,0,0:0:0:0:
475,192,67762,1,0,0:0:0:0:
402,192,67862,1,0,0:0:0:0:
256,192,67862,1,0,0:0:0:0:
475,192,67962,1,0,0:0:0:0:
182,192,67962,1,0,0:0:0:0:
109,192,67962,128,0,68162:0:0:0:0:
329,192,67962,128,0,68162:0:0:0:0:
182,192,68162,128,0,68362:0:0:0:0:
402,192,68162,128,0,68362:0:0:0:0:
36,192,68362,1,0,0:0:0:0:
256,192,68362,1,0,0:0:0:0:
109,192,68462,1,0,0:0:0:0:
329,192,68462,1,0,0:0:0:0:
182,192,68562,1,0,0:0:0:0:
402,192,68562,1,0,0:0:0:0:
475,192,68662,1,0,0:0:0:0:
256,192,68662,1,0,0:0:0:0:
329,192,68762,1,0,0:0:0:0:
109,192,68762,1,0,0:0:0:0:
36,192,68762,1,0,0:0:0:0:
182,192,68862,1,0,0:0:0:0:
402,192,68862,1,0,0:0:0:0:
256,192,68962,1,0,0:0:0:0:
36,192,68962,1,0,0:0:0:0:
109,192,69062,1,0,0:0:0:0:
475,192,69062,1,0,0:0:0:0:
402,192,69162,1,0,0:0:0:0:
182,192,69162,1,0,0:0:0:0:
329,192,69162,1,0,0:0:0:0:
109,192,69262,1,0,0:0:0:0:
475,192,69262,1,0,0:0:0:0:
402,192,69362,1,0,0:0:0:0:
256,192,69362,1,0,0:0:0:0:
182,192,69462,1,0,0:0:0:0:
109,192,69462,1,0,0:0:0:0:
256,192,69562,1,0,0:0:0:0:
329,192,69562,1,0,0:0:0:0:
475,192,69562,1,0,0:0:0:0:
36,192,69562,128,0,71162:0:0:0:0:
109,192,69662,1,0,0:0:0:0:
402,192,69662,1,0,0:0:0:0:
329,192,69762,1,0,0:0:0:0:
182,192,69762,1,0,0:0:0:0:
256,192,69862,1,0,0:0:0:0:
475,192,69862,1,0,0:0:0:0:
109,192,69962,128,0,70362:0:0:0:0:
329,192,69962,128,0,70362:0:0:0:0:
182,192,70162,128,0,70562:0:0:0:0:
402,192,70162,128,0,70562:0:0:0:0:
256,192,70362,128,0,70762:0:0:0:0:
475,192,70362,128,0,70762:0:0:0:0:
329,192,70562,128,0,70962:0:0:0:0:
109,192,70562,128,0,70962:0:0:0:0:
182,192,70762,128,0,71162:0:0:0:0:
402,192,70762,128,0,71162:0:0:0:0:
256,192,70962,128,0,71162:0:0:0:0:
475,192,70962,128,0,71162:0:0:0:0:
109,192,71162,128,0,71962:0:0:0:0:
182,192,71362,1,0,0:0:0:0:
402,192,71362,1,0,0:0:0:0:
256,192,71462,1,0,0:0:0:0:
402,192,71462,1,0,0:0:0:0:
329,192,71562,1,0,0:0:0:0:
182,192,71562,1,0,0:0:0:0:
36,192,71562,1,0,0:0:0:0:
182,192,71762,1,0,0:0:0:0:
329,192,71762,1,0,0:0:0:0:
402,192,71862,1,0,0:0:0:0:
329,192,71862,1,0,0:0:0:0:
475,192,71962,1,0,0:0:0:0:
182,192,71962,1,0,0:0:0:0:
36,192,71962,1,0,0:0:0:0:
256,192,71962,128,0,72362:0:0:0:0:
402,192,72062,1,0,0:0:0:0:
36,192,72162,1,0,0:0:0:0:
182,192,72162,1,0,0:0:0:0:
475,192,72262,1,0,0:0:0:0:
182,192,72262,1,0,0:0:0:0:
402,192,72362,128,0,72562:0:0:0:0:
109,192,72362,1,0,0:0:0:0:
36,192,72362,1,0,0:0:0:0:
329,192,72362,1,0,0:0:0:0:
475,192,72562,128,0,72762:0:0:0:0:
256,192,72562,1,0,0:0:0:0:
109,192,72562,1,0,0:0:0:0:
109,192,72662,1,0,0:0:0:0:
36,192,72662,1,0,0:0:0:0:
329,192,72762,128,0,73162:0:0:0:0:
182,192,72762,1,0,0:0:0:0:
256,192,72762,1,0,0:0:0:0:
402,192,72762,1,0,0:0:0:0:
36,192,72962,1,0,0:0:0:0:
256,192,72962,1,0,0:0:0:0:
182,192,73062,1,0,0:0:0:0:
36,192,73062,1,0,0:0:0:0:
256,192,73162,128,0,73362:0:0:0:0:
475,192,73162,1,0,0:0:0:0:
109,192,73162,1,0,0:0:0:0:
402,192,73162,1,0,0:0:0:0:
182,192,73362,128,0,73562:0:0:0:0:
475,192,73362,1,0,0:0:0:0:
329,192,73362,1,0,0:0:0:0:
402,192,73462,1,0,0:0:0:0:
329,192,73462,1,0,0:0:0:0:
109,192,73562,128,0,73762:0:0:0:0:
256,192,73562,1,0,0:0:0:0:
36,192,73562,1,0,0:0:0:0:
475,192,73562,1,0,0:0:0:0:
182,192,73662,1,0,0:0:0:0:
329,192,73762,1,0,0:0:0:0:
475,192,73762,1,0,0:0:0:0:
256,192,73862,1,0,0:0:0:0:
329,192,73862,1,0,0:0:0:0:
36,192,73962,128,0,74162:0:0:0:0:
475,192,73962,1,0,0:0:0:0:
109,192,73962,1,0,0:0:0:0:
182,192,73962,1,0,0:0:0:0:
182,192,74162,128,0,74362:0:0:0:0:
256,192,74162,1,0,0:0:0:0:
402,192,74162,1,0,0:0:0:0:
109,192,74262,1,0,0:0:0:0:
402,192,74262,1,0,0:0:0:0:
329,192,74362,128,0,75162:0:0:0:0:
475,192,74362,1,0,0:0:0:0:
256,192,74362,1,0,0:0:0:0:
36,192,74362,1,0,0:0:0:0:
109,192,74562,1,0,0:0:0:0:
256,192,74562,1,0,0:0:0:0:
36,192,74662,1,0,0:0:0:0:
256,192,74662,1,0,0:0:0:0:
182,192,74762,1,0,0:0:0:0:
475,192,74762,1,0,0:0:0:0:
402,192,74762,1,0,0:0:0:0:
475,192,74962,1,0,0:0:0:0:
109,192,74962,1,0,0:0:0:0:
182,192,75062,1,0,0:0:0:0:
475,192,75062,1,0,0:0:0:0:
402,192,75162,1,0,0:0:0:0:
256,192,75162,1,0,0:0:0:0:
36,192,75162,1,0,0:0:0:0:
109,192,75162,128,0,75562:0:0:0:0:
475,192,75262,1,0,0:0:0:0:
182,192,75362,1,0,0:0:0:0:
329,192,75362,1,0,0:0:0:0:
256,192,75362,1,0,0:0:0:0:
256,192,75562,128,0,75762:0:0:0:0:
475,192,75562,1,0,0:0:0:0:
402,192,75562,1,0,0:0:0:0:
36,192,75562,1,0,0:0:0:0:
402,192,75762,128,0,75962:0:0:0:0:
36,192,75762,1,0,0:0:0:0:
329,192,75762,1,0,0:0:0:0:
475,192,75862,1,0,0:0:0:0:
36,192,75862,1,0,0:0:0:0:
329,192,75962,128,0,76362:0:0:0:0:
182,192,75962,1,0,0:0:0:0:
256,192,75962,1,0,0:0:0:0:
109,192,75962,1,0,0:0:0:0:
36,192,76062,1,0,0:0:0:0:
475,192,76162,1,0,0:0:0:0:
402,192,76162,1,0,0:0:0:0:
182,192,76162,1,0,0:0:0:0:
256,192,76362,128,0,76562:0:0:0:0:
402,192,76362,1,0,0:0:0:0:
182,192,76362,1,0,0:0:0:0:
36,192,76362,1,0,0:0:0:0:
109,192,76562,128,0,76762:0:0:0:0:
402,192,76562,1,0,0:0:0:0:
475,192,76562,1,0,0:0:0:0:
182,192,76662,1,0,0:0:0:0:
402,192,76662,1,0,0:0:0:0:
256,192,76762,128,0,76962:0:0:0:0:
329,192,76762,1,0,0:0:0:0:
36,192,76762,1,0,0:0:0:0:
475,192,76762,1,0,0:0:0:0:
182,192,76862,1,0,0:0:0:0:
36,192,76962,1,0,0:0:0:0:
109,192,76962,1,0,0:0:0:0:
329,192,76962,1,0,0:0:0:0:
182,192,77162,128,0,77562:0:0:0:0:
475,192,77162,1,0,0:0:0:0:
402,192,77162,1,0,0:0:0:0:
109,192,77162,1,0,0:0:0:0:
329,192,77262,1,0,0:0:0:0:
36,192,77262,1,0,0:0:0:0:
256,192,77362,1,0,0:0:0:0:
475,192,77362,1,0,0:0:0:0:
109,192,77362,1,0,0:0:0:0:
329,192,77462,1,0,0:0:0:0:
402,192,77462,1,0,0:0:0:0:
109,192,77562,128,0,78362:0:0:0:0:
475,192,77562,1,0,0:0:0:0:
256,192,77562,1,0,0:0:0:0:
36,192,77562,1,0,0:0:0:0:
329,192,77762,1,0,0:0:0:0:
182,192,77762,1,0,0:0:0:0:
182,192,77862,1,0,0:0:0:0:
402,192,77862,1,0,0:0:0:0:
256,192,77962,1,0,0:0:0:0:
475,192,77962,1,0,0:0:0:0:
36,192,77962,1,0,0:0:0:0:
329,192,78062,1,0,0:0:0:0:
402,192,78162,1,0,0:0:0:0:
182,192,78162,1,0,0:0:0:0:
256,192,78262,1,0,0:0:0:0:
182,192,78262,1,0,0:0:0:0:
402,192,78362,128,0,78762:0:0:0:0:
36,192,78362,1,0,0:0:0:0:
329,192,78362,1,0,0:0:0:0:
475,192,78362,1,0,0:0:0:0:
256,192,78462,1,0,0:0:0:0:
36,192,78562,1,0,0:0:0:0:
329,192,78562,1,0,0:0:0:0:
36,192,78662,1,0,0:0:0:0:
182,192,78662,1,0,0:0:0:0:
256,192,78762,128,0,78962:0:0:0:0:
329,192,78762,1,0,0:0:0:0:
475,192,78762,1,0,0:0:0:0:
109,192,78762,1,0,0:0:0:0:
182,192,78962,128,0,79162:0:0:0:0:
475,192,78962,1,0,0:0:0:0:
329,192,78962,1,0,0:0:0:0:
329,192,79062,1,0,0:0:0:0:
36,192,79062,1,0,0:0:0:0:
109,192,79162,128,0,79562:0:0:0:0:
256,192,79162,1,0,0:0:0:0:
402,192,79162,1,0,0:0:0:0:
475,192,79162,1,0,0:0:0:0:
182,192,79362,1,0,0:0:0:0:
329,192,79362,1,0,0:0:0:0:
329,192,79462,1,0,0:0:0:0:
475,192,79462,1,0,0:0:0:0:
36,192,79562,128,0,79962:0:0:0:0:
402,192,79562,1,0,0:0:0:0:
256,192,79562,1,0,0:0:0:0:
182,192,79562,1,0,0:0:0:0:
329,192,79662,1,0,0:0:0:0:
256,192,79762,1,0,0:0:0:0:
109,192,79762,1,0,0:0:0:0:
182,192,79862,1,0,0:0:0:0:
256,192,79862,1,0,0:0:0:0:
329,192,79962,128,0,80362:0:0:0:0:
402,192,79962,1,0,0:0:0:0:
475,192,79962,1,0,0:0:0:0:
109,192,79962,1,0,0:0:0:0:
182,192,80062,1,0,0:0:0:0:
256,192,80162,1,0,0:0:0:0:
36,192,80162,1,0,0:0:0:0:
109,192,80262,1,0,0:0:0:0:
256,192,80262,1,0,0:0:0:0:
475,192,80362,128,0,80762:0:0:0:0:
182,192,80362,1,0,0:0:0:0:
402,192,80362,1,0,0:0:0:0:
36,192,80362,1,0,0:0:0:0:
329,192,80562,1,0,0:0:0:0:
182,192,80562,1,0,0:0:0:0:
109,192,80662,1,0,0:0:0:0:
329,192,80662,1,0,0:0:0:0:
256,192,80762,128,0,81162:0:0:0:0:
36,192,80762,1,0,0:0:0:0:
182,192,80762,1,0,0:0:0:0:
402,192,80762,1,0,0:0:0:0:
329,192,80862,1,0,0:0:0:0:
475,192,80862,1,0,0:0:0:0:
109,192,80962,1,0,0:0:0:0:
182,192,80962,1,0,0:0:0:0:
36,192,81162,128,0,81562:0:0:0:0:
182,192,81162,1,0,0:0:0:0:
329,192,81162,1,0,0:0:0:0:
475,192,81162,1,0,0:0:0:0:
256,192,81362,1,0,0:0:0:0:
109,192,81362,1,0,0:0:0:0:
182,192,81462,1,0,0:0:0:0:
402,192,81462,1,0,0:0:0:0:
329,192,81562,128,0,81962:0:0:0:0:
475,192,81562,1,0,0:0:0:0:
402,192,81562,1,0,0:0:0:0:
256,192,81562,1,0,0:0:0:0:
36,192,81762,1,0,0:0:0:0:
256,192,81762,1,0,0:0:0:0:
109,192,81862,1,0,0:0:0:0:
402,192,81862,1,0,0:0:0:0:
475,192,81962,128,0,82362:0:0:0:0:
182,192,81962,1,0,0:0:0:0:
109,192,81962,1,0,0:0:0:0:
256,192,81962,1,0,0:0:0:0:
329,192,82062,1,0,0:0:0:0:
402,192,82162,1,0,0:0:0:0:
182,192,82162,1,0,0:0:0:0:
329,192,82262,1,0,0:0:0:0:
256,192,82262,1,0,0:0:0:0:
402,192,82362,128,0,82562:0:0:0:0:
109,192,82362,128,0,82462:0:0:0:0:
182,192,82362,128,0,82462:0:0:0:0:
36,192,82462,128,0,82562:0:0:0:0:
256,192,82462,128,0,82562:0:0:0:0:
329,192,82562,128,0,82762:0:0:0:0:
475,192,82562,128,0,82662:0:0:0:0:
109,192,82562,128,0,82662:0:0:0:0:
182,192,82662,128,0,82762:0:0:0:0:
402,192,82662,128,0,82762:0:0:0:0:
109,192,82762,128,0,82962:0:0:0:0:
256,192,82762,128,0,82862:0:0:0:0:
36,192,82762,128,0,82862:0:0:0:0:
329,192,82862,128,0,82962:0:0:0:0:
475,192,82862,128,0,82962:0:0:0:0:
182,192,82962,128,0,83162:0:0:0:0:
402,192,82962,128,0,83062:0:0:0:0:
256,192,82962,128,0,83062:0:0:0:0:
109,192,83062,128,0,83162:0:0:0:0:
329,192,83062,128,0,83162:0:0:0:0:
475,192,83162,128,0,83362:0:0:0:0:
36,192,83162,128,0,83262:0:0:0:0:
256,192,83162,128,0,83262:0:0:0:0:
109,192,83262,128,0,83362:0:0:0:0:
182,192,83262,128,0,83362:0:0:0:0:
402,192,83362,128,0,83562:0:0:0:0:
329,192,83362,128,0,83462:0:0:0:0:
256,192,83362,128,0,83462:0:0:0:0:
109,192,83462,128,0,83562:0:0:0:0:
182,192,83462,128,0,83562:0:0:0:0:
36,192,83562,128,0,83762:0:0:0:0:
475,192,83562,128,0,83662:0:0:0:0:
256,192,83562,128,0,83662:0:0:0:0:
402,192,83662,128,0,83762:0:0:0:0:
329,192,83662,128,0,83762:0:0:0:0:
109,192,83762,128,0,83962:0:0:0:0:
182,192,83762,128,0,83862:0:0:0:0:
256,192,83762,128,0,83862:0:0:0:0:
402,192,83862,128,0,83962:0:0:0:0:
475,192,83862,128,0,83962:0:0:0:0:
36,192,83962,128,0,84762:0:0:0:0:
329,192,83962,1,0,0:0:0:0:
256,192,83962,1,0,0:0:0:0:
109,192,84162,1,0,0:0:0:0:
402,192,84162,1,0,0:0:0:0:
329,192,84262,1,0,0:0:0:0:
182,192,84262,1,0,0:0:0:0:
256,192,84362,1,0,0:0:0:0:
329,192,84362,1,0,0:0:0:0:
475,192,84362,1,0,0:0:0:0:
109,192,84562,1,0,0:0:0:0:
329,192,84562,1,0,0:0:0:0:
475,192,84662,1,0,0:0:0:0:
256,192,84662,1,0,0:0:0:0:
329,192,84762,128,0,85162:0:0:0:0:
182,192,84762,1,0,0:0:0:0:
109,192,84762,1,0,0:0:0:0:
475,192,84762,1,0,0:0:0:0:
256,192,84862,1,0,0:0:0:0:
475,192,84962,1,0,0:0:0:0:
109,192,84962,1,0,0:0:0:0:
36,192,85062,1,0,0:0:0:0:
182,192,85062,1,0,0:0:0:0:
182,192,85162,1,0,0:0:0:0:
109,192,85162,1,0,0:0:0:0:
402,192,85162,1,0,0:0:0:0:
256,192,85162,128,0,85362:0:0:0:0:
402,192,85362,128,0,85562:0:0:0:0:
36,192,85362,1,0,0:0:0:0:
182,192,85362,1,0,0:0:0:0:
256,192,85462,1,0,0:0:0:0:
36,192,85462,1,0,0:0:0:0:
329,192,85562,128,0,85962:0:0:0:0:
109,192,85562,1,0,0:0:0:0:
182,192,85562,1,0,0:0:0:0:
475,192,85562,1,0,0:0:0:0:
475,192,85762,1,0,0:0:0:0:
182,192,85762,1,0,0:0:0:0:
109,192,85862,1,0,0:0:0:0:
182,192,85862,1,0,0:0:0:0:
256,192,85962,128,0,86162:0:0:0:0:
36,192,85962,1,0,0:0:0:0:
475,192,85962,1,0,0:0:0:0:
402,192,85962,1,0,0:0:0:0:
109,192,86062,1,0,0:0:0:0:
182,192,86162,128,0,86362:0:0:0:0:
329,192,86162,1,0,0:0:0:0:
475,192,86162,1,0,0:0:0:0:
475,192,86262,1,0,0:0:0:0:
402,192,86262,1,0,0:0:0:0:
109,192,86362,128,0,86562:0:0:0:0:
329,192,86362,1,0,0:0:0:0:
256,192,86362,1,0,0:0:0:0:
36,192,86362,1,0,0:0:0:0:
402,192,86462,1,0,0:0:0:0:
256,192,86562,1,0,0:0:0:0:
182,192,86562,1,0,0:0:0:0:
329,192,86662,1,0,0:0:0:0:
256,192,86662,1,0,0:0:0:0:
36,192,86762,128,0,87162:0:0:0:0:
475,192,86762,1,0,0:0:0:0:
402,192,86762,1,0,0:0:0:0:
182,192,86762,1,0,0:0:0:0:
109,192,86862,1,0,0:0:0:0:
256,192,86962,1,0,0:0:0:0:
329,192,86962,1,0,0:0:0:0:
329,192,87062,1,0,0:0:0:0:
182,192,87062,1,0,0:0:0:0:
402,192,87162,128,0,87962:0:0:0:0:
109,192,87162,1,0,0:0:0:0:
256,192,87162,1,0,0:0:0:0:
475,192,87162,1,0,0:0:0:0:
329,192,87362,1,0,0:0:0:0:
182,192,87362,1,0,0:0:0:0:
329,192,87462,1,0,0:0:0:0:
256,192,87462,1,0,0:0:0:0:
36,192,87562,1,0,0:0:0:0:
109,192,87562,1,0,0:0:0:0:
475,192,87562,1,0,0:0:0:0:
329,192,87762,1,0,0:0:0:0:
109,192,87762,1,0,0:0:0:0:
109,192,87862,1,0,0:0:0:0:
475,192,87862,1,0,0:0:0:0:
182,192,87962,128,0,88362:0:0:0:0:
329,192,87962,1,0,0:0:0:0:
256,192,87962,1,0,0:0:0:0:
36,192,87962,1,0,0:0:0:0:
402,192,88062,1,0,0:0:0:0:
475,192,88162,1,0,0:0:0:0:
109,192,88162,1,0,0:0:0:0:
256,192,88262,1,0,0:0:0:0:
475,192,88262,1,0,0:0:0:0:
329,192,88362,128,0,88562:0:0:0:0:
402,192,88362,1,0,0:0:0:0:
109,192,88362,1,0,0:0:0:0:
36,192,88362,1,0,0:0:0:0:
402,192,88562,128,0,88762:0:0:0:0:
36,192,88562,1,0,0:0:0:0:
256,192,88562,1,0,0:0:0:0:
256,192,88662,1,0,0:0:0:0:
109,192,88662,1,0,0:0:0:0:
475,192,88762,128,0,89162:0:0:0:0:
182,192,88762,1,0,0:0:0:0:
329,192,88762,1,0,0:0:0:0:
36,192,88762,1,0,0:0:0:0:
402,192,88862,1,0,0:0:0:0:
109,192,88862,1,0,0:0:0:0:
329,192,88962,1,0,0:0:0:0:
182,192,88962,1,0,0:0:0:0:
402,192,89162,1,0,0:0:0:0:
256,192,89162,1,0,0:0:0:0:
109,192,89162,1,0,0:0:0:0:
329,192,89162,128,0,89562:0:0:0:0:
182,192,89262,1,0,0:0:0:0:
36,192,89262,1,0,0:0:0:0:
475,192,89362,1,0,0:0:0:0:
402,192,89362,1,0,0:0:0:0:
109,192,89462,1,0,0:0:0:0:
256,192,89462,1,0,0:0:0:0:
402,192,89562,128,0,89762:0:0:0:0:
36,192,89562,1,0,0:0:0:0:
182,192,89562,1,0,0:0:0:0:
475,192,89562,1,0,0:0:0:0:
256,192,89662,1,0,0:0:0:0:
329,192,89762,128,0,89962:0:0:0:0:
475,192,89762,1,0,0:0:0:0:
36,192,89762,1,0,0:0:0:0:
109,192,89862,1,0,0:0:0:0:
182,192,89862,1,0,0:0:0:0:
182,192,89962,128,0,90162:0:0:0:0:
256,192,89962,1,0,0:0:0:0:
402,192,89962,1,0,0:0:0:0:
475,192,89962,1,0,0:0:0:0:
329,192,90062,1,0,0:0:0:0:
36,192,90062,1,0,0:0:0:0:
109,192,90162,128,0,90362:0:0:0:0:
475,192,90162,1,0,0:0:0:0:
402,192,90162,1,0,0:0:0:0:
182,192,90262,1,0,0:0:0:0:
256,192,90262,1,0,0:0:0:0:
36,192,90362,128,0,91562:0:0:0:0:
329,192,90362,1,0,0:0:0:0:
402,192,90362,1,0,0:0:0:0:
475,192,90362,1,0,0:0:0:0:
182,192,90562,1,0,0:0:0:0:
256,192,90562,1,0,0:0:0:0:
182,192,90662,1,0,0:0:0:0:
402,192,90662,1,0,0:0:0:0:
329,192,90762,1,0,0:0:0:0:
475,192,90762,1,0,0:0:0:0:
109,192,90762,1,0,0:0:0:0:
256,192,90862,1,0,0:0:0:0:
182,192,90962,1,0,0:0:0:0:
402,192,90962,1,0,0:0:0:0:
402,192,91062,1,0,0:0:0:0:
109,192,91062,1,0,0:0:0:0:
182,192,91162,1,0,0:0:0:0:
256,192,91162,1,0,0:0:0:0:
475,192,91162,1,0,0:0:0:0:
329,192,91262,1,0,0:0:0:0:
182,192,91362,1,0,0:0:0:0:
256,192,91362,1,0,0:0:0:0:
256,192,91462,1,0,0:0:0:0:
402,192,91462,1,0,0:0:0:0:
109,192,91562,1,0,0:0:0:0:
329,192,91562,1,0,0:0:0:0:
475,192,91562,1,0,0:0:0:0:
182,192,91562,128,0,91962:0:0:0:0:
36,192,91762,1,0,0:0:0:0:
402,192,91762,1,0,0:0:0:0:
402,192,91862,1,0,0:0:0:0:
256,192,91862,1,0,0:0:0:0:
109,192,91962,128,0,92762:0:0:0:0:
329,192,91962,1,0,0:0:0:0:
475,192,91962,1,0,0:0:0:0:
36,192,91962,1,0,0:0:0:0:
402,192,92162,1,0,0:0:0:0:
182,192,92162,1,0,0:0:0:0:
36,192,92262,1,0,0:0:0:0:
182,192,92262,1,0,0:0:0:0:
256,192,92362,1,0,0:0:0:0:
329,192,92362,1,0,0:0:0:0:
475,192,92362,1,0,0:0:0:0:
475,192,92562,1,0,0:0:0:0:
256,192,92562,1,0,0:0:0:0:
402,192,92662,1,0,0:0:0:0:
256,192,92662,1,0,0:0:0:0:
182,192,92762,128,0,93162:0:0:0:0:
329,192,92762,1,0,0:0:0:0:
36,192,92762,1,0,0:0:0:0:
475,192,92762,1,0,0:0:0:0:
256,192,92862,1,0,0:0:0:0:
402,192,92962,1,0,0:0:0:0:
109,192,92962,1,0,0:0:0:0:
109,192,93062,1,0,0:0:0:0:
36,192,93062,1,0,0:0:0:0:
329,192,93162,128,0,93562:0:0:0:0:
256,192,93162,1,0,0:0:0:0:
475,192,93162,1,0,0:0:0:0:
402,192,93162,1,0,0:0:0:0:
109,192,93262,1,0,0:0:0:0:
36,192,93362,1,0,0:0:0:0:
402,192,93362,1,0,0:0:0:0:
402,192,93462,1,0,0:0:0:0:
182,192,93462,1,0,0:0:0:0:
475,192,93562,128,0,96762:0:0:0:0:
109,192,93562,1,0,0:0:0:0:
256,192,93562,1,0,0:0:0:0:
36,192,93562,1,0,0:0:0:0:
182,192,93662,1,0,0:0:0:0:
402,192,93662,1,0,0:0:0:0:
329,192,93762,1,0,0:0:0:0:
256,192,93762,1,0,0:0:0:0:
402,192,93962,1,0,0:0:0:0:
329,192,93962,1,0,0:0:0:0:
109,192,93962,1,0,0:0:0:0:
182,192,94162,1,0,0:0:0:0:
36,192,94162,1,0,0:0:0:0:
182,192,94262,1,0,0:0:0:0:
329,192,94262,1,0,0:0:0:0:
402,192,94362,1,0,0:0:0:0:
256,192,94362,1,0,0:0:0:0:
36,192,94362,1,0,0:0:0:0:
109,192,94462,1,0,0:0:0:0:
182,192,94462,1,0,0:0:0:0:
329,192,94562,1,0,0:0:0:0:
402,192,94562,1,0,0:0:0:0:
256,192,94662,1,0,0:0:0:0:
109,192,94662,1,0,0:0:0:0:
36,192,94762,1,0,0:0:0:0:
329,192,94762,1,0,0:0:0:0:
402,192,94762,1,0,0:0:0:0:
182,192,94962,1,0,0:0:0:0:
109,192,94962,1,0,0:0:0:0:
329,192,95062,1,0,0:0:0:0:
402,192,95062,1,0,0:0:0:0:
256,192,95162,128,0,96762:0:0:0:0:
36,192,95162,128,0,96762:0:0:0:0:
109,192,95162,1,0,0:0:0:0:
329,192,95162,1,0,0:0:0:0:
182,192,95162,1,0,0:0:0:0:
402,192,95162,1,0,0:0:0:0:
109,192,95362,1,0,0:0:0:0:
402,192,95362,1,0,0:0:0:0:
402,192,95462,1,0,0:0:0:0:
182,192,95462,1,0,0:0:0:0:
109,192,95562,1,0,0:0:0:0:
182,192,95562,1,0,0:0:0:0:
329,192,95562,1,0,0:0:0:0:
402,192,95762,1,0,0:0:0:0:
182,192,95762,1,0,0:0:0:0:
109,192,95862,1,0,0:0:0:0:
182,192,95862,1,0,0:0:0:0:
329,192,95962,1,0,0:0:0:0:
402,192,95962,1,0,0:0:0:0:
109,192,95962,1,0,0:0:0:0:
182,192,96062,1,0,0:0:0:0:
402,192,96162,1,0,0:0:0:0:
329,192,96162,1,0,0:0:0:0:
109,192,96262,1,0,0:0:0:0:
329,192,96262,1,0,0:0:0:0:
182,192,96362,1,0,0:0:0:0:
109,192,96362,1,0,0:0:0:0:
402,192,96362,1,0,0:0:0:0:
329,192,96462,1,0,0:0:0:0:
182,192,96562,1,0,0:0:0:0:
109,192,96562,1,0,0:0:0:0:
182,192,96662,1,0,0:0:0:0:
402,192,96662,1,0,0:0:0:0:
402,192,96762,1,0,0:0:0:0:
329,192,96762,128,0,96828:0:0:0:0:
109,192,96762,1,0,0:0:0:0:
109,192,96962,1,0,0:0:0:0:
256,192,96962,1,0,0:0:0:0:
329,192,97062,1,0,0:0:0:0:
475,192,97062,1,0,0:0:0:0:
402,192,97162,1,0,0:0:0:0:
36,192,97162,1,0,0:0:0:0:
256,192,97162,128,0,97228:0:0:0:0:
182,192,97162,1,0,0:0:0:0:
475,192,97262,1,0,0:0:0:0:
109,192,97362,1,0,0:0:0:0:
329,192,97362,1,0,0:0:0:0:
256,192,97462,1,0,0:0:0:0:
36,192,97462,1,0,0:0:0:0:
182,192,97562,1,0,0:0:0:0:
329,192,97562,1,0,0:0:0:0:
402,192,97562,1,0,0:0:0:0:
475,192,97562,128,0,97628:0:0:0:0:
109,192,97662,1,0,0:0:0:0:
182,192,97762,1,0,0:0:0:0:
402,192,97762,1,0,0:0:0:0:
329,192,97828,128,0,97895:0:0:0:0:
109,192,97862,1,0,0:0:0:0:
475,192,97862,1,0,0:0:0:0:
36,192,97962,1,0,0:0:0:0:
256,192,97962,1,0,0:0:0:0:
182,192,97962,1,0,0:0:0:0:
402,192,98095,128,0,98162:0:0:0:0:
109,192,98162,1,0,0:0:0:0:
256,192,98162,1,0,0:0:0:0:
182,192,98262,1,0,0:0:0:0:
475,192,98262,1,0,0:0:0:0:
256,192,98362,128,0,98428:0:0:0:0:
402,192,98362,1,0,0:0:0:0:
329,192,98362,1,0,0:0:0:0:
36,192,98362,1,0,0:0:0:0:
36,192,98562,1,0,0:0:0:0:
329,192,98562,1,0,0:0:0:0:
182,192,98628,128,0,98695:0:0:0:0:
402,192,98662,1,0,0:0:0:0:
256,192,98662,1,0,0:0:0:0:
109,192,98762,1,0,0:0:0:0:
36,192,98762,1,0,0:0:0:0:
329,192,98762,1,0,0:0:0:0:
402,192,98862,1,0,0:0:0:0:
256,192,98895,128,0,98962:0:0:0:0:
475,192,98962,1,0,0:0:0:0:
182,192,98962,1,0,0:0:0:0:
109,192,99028,128,0,99095:0:0:0:0:
329,192,99062,1,0,0:0:0:0:
402,192,99062,1,0,0:0:0:0:
36,192,99162,128,0,99228:0:0:0:0:
256,192,99162,1,0,0:0:0:0:
182,192,99162,1,0,0:0:0:0:
475,192,99162,1,0,0:0:0:0:
109,192,99262,1,0,0:0:0:0:
329,192,99362,1,0,0:0:0:0:
182,192,99362,1,0,0:0:0:0:
256,192,99462,1,0,0:0:0:0:
475,192,99462,1,0,0:0:0:0:
109,192,99562,128,0,99628:0:0:0:0:
402,192,99562,1,0,0:0:0:0:
329,192,99562,1,0,0:0:0:0:
36,192,99562,1,0,0:0:0:0:
256,192,99662,1,0,0:0:0:0:
182,192,99762,1,0,0:0:0:0:
329,192,99762,1,0,0:0:0:0:
402,192,99862,1,0,0:0:0:0:
109,192,99862,1,0,0:0:0:0:
329,192,99962,128,0,100028:0:0:0:0:
36,192,99962,1,0,0:0:0:0:
475,192,99962,1,0,0:0:0:0:
256,192,99962,1,0,0:0:0:0:
109,192,100062,1,0,0:0:0:0:
182,192,100162,1,0,0:0:0:0:
402,192,100162,1,0,0:0:0:0:
256,192,100262,1,0,0:0:0:0:
475,192,100262,1,0,0:0:0:0:
402,192,100362,1,0,0:0:0:0:
329,192,100362,1,0,0:0:0:0:
36,192,100362,1,0,0:0:0:0:
109,192,100362,128,0,100428:0:0:0:0:
329,192,100562,1,0,0:0:0:0:
402,192,100562,1,0,0:0:0:0:
256,192,100662,1,0,0:0:0:0:
475,192,100662,1,0,0:0:0:0:
182,192,100762,128,0,100828:0:0:0:0:
402,192,100762,1,0,0:0:0:0:
36,192,100762,1,0,0:0:0:0:
109,192,100762,1,0,0:0:0:0:
256,192,100862,1,0,0:0:0:0:
109,192,100962,1,0,0:0:0:0:
329,192,100962,1,0,0:0:0:0:
256,192,101028,128,0,101095:0:0:0:0:
402,192,101062,1,0,0:0:0:0:
182,192,101062,1,0,0:0:0:0:
36,192,101162,1,0,0:0:0:0:
475,192,101162,1,0,0:0:0:0:
329,192,101162,1,0,0:0:0:0:
402,192,101295,128,0,101362:0:0:0:0:
256,192,101362,1,0,0:0:0:0:
109,192,101362,1,0,0:0:0:0:
182,192,101462,1,0,0:0:0:0:
475,192,101462,1,0,0:0:0:0:
329,192,101562,128,0,101628:0:0:0:0:
402,192,101562,1,0,0:0:0:0:
109,192,101562,1,0,0:0:0:0:
36,192,101562,1,0,0:0:0:0:
182,192,101662,1,0,0:0:0:0:
329,192,101762,1,0,0:0:0:0:
109,192,101762,1,0,0:0:0:0:
256,192,101828,128,0,101895:0:0:0:0:
402,192,101862,1,0,0:0:0:0:
36,192,101862,1,0,0:0:0:0:
475,192,101962,1,0,0:0:0:0:
329,192,101962,1,0,0:0:0:0:
109,192,101962,1,0,0:0:0:0:
256,192,102062,1,0,0:0:0:0:
182,192,102095,128,0,102162:0:0:0:0:
329,192,102162,1,0,0:0:0:0:
475,192,102162,1,0,0:0:0:0:
109,192,102228,128,0,102295:0:0:0:0:
36,192,102262,1,0,0:0:0:0:
256,192,102262,1,0,0:0:0:0:
182,192,102362,128,0,102428:0:0:0:0:
329,192,102362,1,0,0:0:0:0:
475,192,102362,1,0,0:0:0:0:
402,192,102362,1,0,0:0:0:0:
256,192,102462,1,0,0:0:0:0:
182,192,102562,1,0,0:0:0:0:
36,192,102562,1,0,0:0:0:0:
329,192,102762,128,0,102828:0:0:0:0:
109,192,102762,1,0,0:0:0:0:
182,192,102762,1,0,0:0:0:0:
475,192,102762,1,0,0:0:0:0:
402,192,102862,1,0,0:0:0:0:
36,192,102862,1,0,0:0:0:0:
256,192,102962,1,0,0:0:0:0:
182,192,102962,1,0,0:0:0:0:
109,192,103062,1,0,0:0:0:0:
329,192,103062,1,0,0:0:0:0:
36,192,103162,128,0,103228:0:0:0:0:
402,192,103162,128,0,103228:0:0:0:0:
182,192,103162,128,0,103228:0:0:0:0:
109,192,103362,1,0,0:0:0:0:
329,192,103362,1,0,0:0:0:0:
182,192,103462,1,0,0:0:0:0:
402,192,103462,1,0,0:0:0:0:
256,192,103562,128,0,103628:0:0:0:0:
475,192,103562,1,0,0:0:0:0:
329,192,103562,1,0,0:0:0:0:
36,192,103562,1,0,0:0:0:0:
109,192,103662,1,0,0:0:0:0:
182,192,103762,1,0,0:0:0:0:
329,192,103762,1,0,0:0:0:0:
402,192,103862,1,0,0:0:0:0:
36,192,103862,1,0,0:0:0:0:
256,192,103962,128,0,104028:0:0:0:0:
109,192,103962,1,0,0:0:0:0:
475,192,103962,1,0,0:0:0:0:
182,192,103962,1,0,0:0:0:0:
402,192,104062,1,0,0:0:0:0:
329,192,104162,1,0,0:0:0:0:
36,192,104162,1,0,0:0:0:0:
109,192,104262,1,0,0:0:0:0:
256,192,104262,1,0,0:0:0:0:
182,192,104362,128,0,104428:0:0:0:0:
329,192,104362,1,0,0:0:0:0:
402,192,104362,1,0,0:0:0:0:
475,192,104362,1,0,0:0:0:0:
109,192,104562,128,0,104628:0:0:0:0:
475,192,104562,1,0,0:0:0:0:
256,192,104562,1,0,0:0:0:0:
402,192,104662,1,0,0:0:0:0:
182,192,104662,1,0,0:0:0:0:
36,192,104762,128,0,104828:0:0:0:0:
329,192,104762,1,0,0:0:0:0:
256,192,104762,1,0,0:0:0:0:
109,192,104762,1,0,0:0:0:0:
109,192,104962,1,0,0:0:0:0:
329,192,104962,1,0,0:0:0:0:
182,192,105062,1,0,0:0:0:0:
475,192,105062,1,0,0:0:0:0:
36,192,105162,128,0,105228:0:0:0:0:
402,192,105162,1,0,0:0:0:0:
109,192,105162,1,0,0:0:0:0:
256,192,105162,1,0,0:0:0:0:
329,192,105262,1,0,0:0:0:0:
475,192,105262,1,0,0:0:0:0:
256,192,105362,1,0,0:0:0:0:
36,192,105362,1,0,0:0:0:0:
109,192,105462,1,0,0:0:0:0:
402,192,105462,1,0,0:0:0:0:
182,192,105562,128,0,105628:0:0:0:0:
329,192,105562,1,0,0:0:0:0:
256,192,105562,1,0,0:0:0:0:
475,192,105562,1,0,0:0:0:0:
109,192,105662,1,0,0:0:0:0:
182,192,105762,1,0,0:0:0:0:
475,192,105762,1,0,0:0:0:0:
256,192,105862,1,0,0:0:0:0:
402,192,105862,1,0,0:0:0:0:
182,192,105962,128,0,106028:0:0:0:0:
36,192,105962,1,0,0:0:0:0:
109,192,105962,1,0,0:0:0:0:
329,192,105962,1,0,0:0:0:0:
256,192,106062,1,0,0:0:0:0:
329,192,106162,128,0,106228:0:0:0:0:
182,192,106162,1,0,0:0:0:0:
402,192,106162,1,0,0:0:0:0:
475,192,106262,1,0,0:0:0:0:
109,192,106262,1,0,0:0:0:0:
256,192,106362,128,0,106428:0:0:0:0:
36,192,106362,1,0,0:0:0:0:
329,192,106362,1,0,0:0:0:0:
402,192,106362,1,0,0:0:0:0:
109,192,106462,1,0,0:0:0:0:
329,192,106562,1,0,0:0:0:0:
402,192,106562,1,0,0:0:0:0:
182,192,106628,128,0,106695:0:0:0:0:
475,192,106662,1,0,0:0:0:0:
256,192,106762,1,0,0:0:0:0:
109,192,106762,1,0,0:0:0:0:
402,192,106762,1,0,0:0:0:0:
329,192,106862,1,0,0:0:0:0:
109,192,106895,128,0,106962:0:0:0:0:
475,192,106962,1,0,0:0:0:0:
36,192,106962,1,0,0:0:0:0:
256,192,107028,128,0,107095:0:0:0:0:
329,192,107062,1,0,0:0:0:0:
182,192,107062,1,0,0:0:0:0:
402,192,107162,128,0,107228:0:0:0:0:
109,192,107162,1,0,0:0:0:0:
36,192,107162,1,0,0:0:0:0:
475,192,107162,1,0,0:0:0:0:
256,192,107262,1,0,0:0:0:0:
329,192,107362,1,0,0:0:0:0:
109,192,107362,1,0,0:0:0:0:
182,192,107428,128,0,107495:0:0:0:0:
36,192,107462,1,0,0:0:0:0:
402,192,107462,1,0,0:0:0:0:
475,192,107562,1,0,0:0:0:0:
329,192,107562,1,0,0:0:0:0:
256,192,107562,1,0,0:0:0:0:
182,192,107662,1,0,0:0:0:0:
109,192,107695,128,0,107762:0:0:0:0:
402,192,107762,1,0,0:0:0:0:
329,192,107762,1,0,0:0:0:0:
256,192,107828,128,0,107895:0:0:0:0:
36,192,107862,1,0,0:0:0:0:
182,192,107862,1,0,0:0:0:0:
475,192,107962,128,0,108028:0:0:0:0:
109,192,107962,1,0,0:0:0:0:
329,192,107962,1,0,0:0:0:0:
402,192,107962,1,0,0:0:0:0:
256,192,108062,1,0,0:0:0:0:
182,192,108162,1,0,0:0:0:0:
329,192,108162,1,0,0:0:0:0:
402,192,108228,128,0,108295:0:0:0:0:
109,192,108262,1,0,0:0:0:0:
475,192,108262,1,0,0:0:0:0:
36,192,108362,1,0,0:0:0:0:
329,192,108362,1,0,0:0:0:0:
256,192,108362,1,0,0:0:0:0:
256,192,108495,128,0,108562:0:0:0:0:
36,192,108562,1,0,0:0:0:0:
475,192,108562,1,0,0:0:0:0:
329,192,108628,128,0,108695:0:0:0:0:
109,192,108662,1,0,0:0:0:0:
182,192,108662,1,0,0:0:0:0:
402,192,108762,128,0,108828:0:0:0:0:
256,192,108762,1,0,0:0:0:0:
475,192,108762,1,0,0:0:0:0:
36,192,108762,1,0,0:0:0:0:
182,192,108862,1,0,0:0:0:0:
475,192,108962,1,0,0:0:0:0:
256,192,108962,1,0,0:0:0:0:
329,192,109028,128,0,109095:0:0:0:0:
36,192,109062,1,0,0:0:0:0:
182,192,109062,1,0,0:0:0:0:
109,192,109162,128,0,109228:0:0:0:0:
256,192,109162,1,0,0:0:0:0:
402,192,109162,1,0,0:0:0:0:
475,192,109162,1,0,0:0:0:0:
36,192,109262,1,0,0:0:0:0:
256,192,109295,128,0,109362:0:0:0:0:
182,192,109362,1,0,0:0:0:0:
109,192,109362,1,0,0:0:0:0:
402,192,109428,128,0,109495:0:0:0:0:
475,192,109462,1,0,0:0:0:0:
256,192,109462,1,0,0:0:0:0:
329,192,109562,128,0,109628:0:0:0:0:
109,192,109562,1,0,0:0:0:0:
36,192,109562,1,0,0:0:0:0:
182,192,109562,128,0,109628:0:0:0:0:
475,192,109662,1,0,0:0:0:0:
329,192,109762,1,0,0:0:0:0:
109,192,109762,1,0,0:0:0:0:
182,192,109862,1,0,0:0:0:0:
36,192,109862,1,0,0:0:0:0:
256,192,109962,128,0,110028:0:0:0:0:
402,192,109962,128,0,110028:0:0:0:0:
109,192,109962,1,0,0:0:0:0:
329,192,109962,1,0,0:0:0:0:
182,192,110062,1,0,0:0:0:0:
329,192,110162,1,0,0:0:0:0:
402,192,110162,1,0,0:0:0:0:
475,192,110262,1,0,0:0:0:0:
182,192,110262,1,0,0:0:0:0:
109,192,110362,128,0,110428:0:0:0:0:
256,192,110362,128,0,110428:0:0:0:0:
36,192,110362,1,0,0:0:0:0:
329,192,110362,1,0,0:0:0:0:
402,192,110462,1,0,0:0:0:0:
475,192,110562,1,0,0:0:0:0:
329,192,110562,1,0,0:0:0:0:
182,192,110628,128,0,110695:0:0:0:0:
36,192,110662,1,0,0:0:0:0:
109,192,110662,1,0,0:0:0:0:
329,192,110762,1,0,0:0:0:0:
256,192,110762,1,0,0:0:0:0:
475,192,110762,1,0,0:0:0:0:
402,192,110895,128,0,110962:0:0:0:0:
256,192,110962,1,0,0:0:0:0:
36,192,110962,1,0,0:0:0:0:
109,192,111062,1,0,0:0:0:0:
182,192,111062,1,0,0:0:0:0:
329,192,111162,128,0,111228:0:0:0:0:
256,192,111162,1,0,0:0:0:0:
402,192,111162,1,0,0:0:0:0:
475,192,111162,1,0,0:0:0:0:
182,192,111262,1,0,0:0:0:0:
109,192,111362,1,0,0:0:0:0:
329,192,111362,1,0,0:0:0:0:
256,192,111428,128,0,111495:0:0:0:0:
402,192,111462,1,0,0:0:0:0:
36,192,111462,1,0,0:0:0:0:
182,192,111562,1,0,0:0:0:0:
329,192,111562,1,0,0:0:0:0:
475,192,111562,1,0,0:0:0:0:
402,192,111662,1,0,0:0:0:0:
182,192,111695,128,0,111762:0:0:0:0:
329,192,111762,1,0,0:0:0:0:
475,192,111762,1,0,0:0:0:0:
109,192,111828,128,0,111895:0:0:0:0:
256,192,111862,1,0,0:0:0:0:
402,192,111862,1,0,0:0:0:0:
36,192,111962,128,0,112028:0:0:0:0:
475,192,111962,128,0,112028:0:0:0:0:
329,192,111962,1,0,0:0:0:0:
182,192,111962,1,0,0:0:0:0:
109,192,112062,1,0,0:0:0:0:
256,192,112062,1,0,0:0:0:0:
475,192,112162,1,0,0:0:0:0:
402,192,112162,1,0,0:0:0:0:
256,192,112262,1,0,0:0:0:0:
329,192,112262,1,0,0:0:0:0:
109,192,112362,128,0,112428:0:0:0:0:
182,192,112362,1,0,0:0:0:0:
36,192,112362,1,0,0:0:0:0:
475,192,112362,1,0,0:0:0:0:
182,192,112562,1,0,0:0:0:0:
329,192,112562,1,0,0:0:0:0:
36,192,112662,1,0,0:0:0:0:
475,192,112662,1,0,0:0:0:0:
109,192,112762,128,0,112828:0:0:0:0:
256,192,112762,128,0,112828:0:0:0:0:
402,192,112762,128,0,112828:0:0:0:0:
182,192,112862,1,0,0:0:0:0:
329,192,112962,1,0,0:0:0:0:
475,192,112962,1,0,0:0:0:0:
36,192,113062,1,0,0:0:0:0:
256,192,113062,1,0,0:0:0:0:
329,192,113162,128,0,113228:0:0:0:0:
182,192,113162,128,0,113228:0:0:0:0:
109,192,113162,1,0,0:0:0:0:
402,192,113162,1,0,0:0:0:0:
402,192,113362,1,0,0:0:0:0:
109,192,113362,1,0,0:0:0:0:
182,192,113462,1,0,0:0:0:0:
329,192,113462,1,0,0:0:0:0:
256,192,113562,128,0,113628:0:0:0:0:
109,192,113562,128,0,113628:0:0:0:0:
402,192,113562,1,0,0:0:0:0:
475,192,113562,1,0,0:0:0:0:
329,192,113662,1,0,0:0:0:0:
182,192,113762,128,0,113828:0:0:0:0:
36,192,113762,1,0,0:0:0:0:
256,192,113962,128,0,114028:0:0:0:0:
109,192,113962,1,0,0:0:0:0:
402,192,113962,1,0,0:0:0:0:
329,192,114162,128,0,114228:0:0:0:0:
36,192,114162,1,0,0:0:0:0:
109,192,114162,1,0,0:0:0:0:
256,192,114262,1,0,0:0:0:0:
182,192,114262,1,0,0:0:0:0:
475,192,114362,128,0,114428:0:0:0:0:
402,192,114362,128,0,114428:0:0:0:0:
36,192,114362,1,0,0:0:0:0:
329,192,114362,1,0,0:0:0:0:
182,192,114462,1,0,0:0:0:0:
109,192,114562,1,0,0:0:0:0:
329,192,114562,1,0,0:0:0:0:
329,192,114762,128,0,114828:0:0:0:0:
256,192,114762,128,0,114828:0:0:0:0:
402,192,114762,1,0,0:0:0:0:
475,192,114762,1,0,0:0:0:0:
109,192,114962,1,0,0:0:0:0:
256,192,114962,1,0,0:0:0:0:
329,192,115062,1,0,0:0:0:0:
475,192,115062,1,0,0:0:0:0:
182,192,115162,128,0,115228:0:0:0:0:
109,192,115162,128,0,115228:0:0:0:0:
402,192,115162,1,0,0:0:0:0:
256,192,115162,1,0,0:0:0:0:
36,192,115262,1,0,0:0:0:0:
109,192,115362,1,0,0:0:0:0:
256,192,115362,1,0,0:0:0:0:
329,192,115428,128,0,115495:0:0:0:0:
475,192,115462,1,0,0:0:0:0:
402,192,115462,1,0,0:0:0:0:
182,192,115562,1,0,0:0:0:0:
36,192,115562,1,0,0:0:0:0:
109,192,115562,1,0,0:0:0:0:
256,192,115695,128,0,115762:0:0:0:0:
475,192,115762,1,0,0:0:0:0:
402,192,115762,1,0,0:0:0:0:
182,192,115828,128,0,115895:0:0:0:0:
36,192,115862,1,0,0:0:0:0:
329,192,115862,1,0,0:0:0:0:
109,192,115962,128,0,116028:0:0:0:0:
402,192,115962,128,0,116028:0:0:0:0:
256,192,115962,1,0,0:0:0:0:
475,192,115962,1,0,0:0:0:0:
329,192,116062,1,0,0:0:0:0:
109,192,116162,1,0,0:0:0:0:
256,192,116162,1,0,0:0:0:0:
182,192,116262,1,0,0:0:0:0:
402,192,116262,1,0,0:0:0:0:
36,192,116362,128,0,116428:0:0:0:0:
256,192,116362,128,0,116428:0:0:0:0:
475,192,116362,128,0,116428:0:0:0:0:
182,192,116462,1,0,0:0:0:0:
329,192,116562,1,0,0:0:0:0:
402,192,116562,1,0,0:0:0:0:
182,192,116662,1,0,0:0:0:0:
36,192,116662,1,0,0:0:0:0:
256,192,116762,128,0,116828:0:0:0:0:
109,192,116762,128,0,116828:0:0:0:0:
329,192,116762,1,0,0:0:0:0:
402,192,116762,1,0,0:0:0:0:
475,192,116862,1,0,0:0:0:0:
329,192,116962,1,0,0:0:0:0:
182,192,116962,1,0,0:0:0:0:
109,192,117062,1,0,0:0:0:0:
36,192,117062,1,0,0:0:0:0:
256,192,117162,128,0,117228:0:0:0:0:
402,192,117162,128,0,117228:0:0:0:0:
182,192,117162,1,0,0:0:0:0:
329,192,117162,1,0,0:0:0:0:
36,192,117362,1,0,0:0:0:0:
475,192,117362,1,0,0:0:0:0:
402,192,117462,1,0,0:0:0:0:
256,192,117462,1,0,0:0:0:0:
329,192,117562,128,0,117628:0:0:0:0:
109,192,117562,128,0,117628:0:0:0:0:
182,192,117562,1,0,0:0:0:0:
36,192,117562,1,0,0:0:0:0:
36,192,117762,1,0,0:0:0:0:
182,192,117762,1,0,0:0:0:0:
256,192,117862,1,0,0:0:0:0:
402,192,117862,1,0,0:0:0:0:
182,192,117962,128,0,118028:0:0:0:0:
329,192,117962,128,0,118028:0:0:0:0:
475,192,117962,128,0,118028:0:0:0:0:
109,192,118062,1,0,0:0:0:0:
36,192,118162,1,0,0:0:0:0:
256,192,118162,1,0,0:0:0:0:
182,192,118262,1,0,0:0:0:0:
402,192,118262,1,0,0:0:0:0:
109,192,118362,128,0,118428:0:0:0:0:
329,192,118362,128,0,118428:0:0:0:0:
475,192,118362,1,0,0:0:0:0:
256,192,118362,1,0,0:0:0:0:
182,192,118462,1,0,0:0:0:0:
36,192,118562,1,0,0:0:0:0:
256,192,118562,1,0,0:0:0:0:
109,192,118662,1,0,0:0:0:0:
329,192,118662,1,0,0:0:0:0:
182,192,118762,128,0,118828:0:0:0:0:
402,192,118762,128,0,118828:0:0:0:0:
475,192,118762,1,0,0:0:0:0:
36,192,118762,1,0,0:0:0:0:
329,192,118962,1,0,0:0:0:0:
109,192,118962,1,0,0:0:0:0:
182,192,119062,1,0,0:0:0:0:
402,192,119062,1,0,0:0:0:0:
475,192,119162,128,0,120762:0:0:0:0:
256,192,119162,128,0,122362:0:0:0:0:
36,192,119162,1,0,0:0:0:0:
329,192,119162,1,0,0:0:0:0:
109,192,119262,1,0,0:0:0:0:
182,192,119362,1,0,0:0:0:0:
402,192,119362,1,0,0:0:0:0:
402,192,119562,1,0,0:0:0:0:
329,192,119562,1,0,0:0:0:0:
109,192,119562,1,0,0:0:0:0:
36,192,119762,1,0,0:0:0:0:
329,192,119762,1,0,0:0:0:0:
182,192,119862,1,0,0:0:0:0:
109,192,119862,1,0,0:0:0:0:
402,192,119962,1,0,0:0:0:0:
36,192,119962,1,0,0:0:0:0:
329,192,119962,1,0,0:0:0:0:
182,192,120062,1,0,0:0:0:0:
36,192,120162,1,0,0:0:0:0:
402,192,120162,1,0,0:0:0:0:
329,192,120262,1,0,0:0:0:0:
182,192,120262,1,0,0:0:0:0:
36,192,120362,1,0,0:0:0:0:
109,192,120362,1,0,0:0:0:0:
402,192,120362,1,0,0:0:0:0:
329,192,120562,1,0,0:0:0:0:
182,192,120562,1,0,0:0:0:0:
402,192,120662,1,0,0:0:0:0:
109,192,120662,1,0,0:0:0:0:
36,192,120762,128,0,122362:0:0:0:0:
329,192,120762,1,0,0:0:0:0:
182,192,120762,1,0,0:0:0:0:
402,192,120862,1,0,0:0:0:0:
475,192,120962,1,0,0:0:0:0:
109,192,120962,1,0,0:0:0:0:
182,192,121062,1,0,0:0:0:0:
329,192,121062,1,0,0:0:0:0:
402,192,121162,1,0,0:0:0:0:
109,192,121162,1,0,0:0:0:0:
475,192,121162,128,0,122362:0:0:0:0:
182,192,121362,1,0,0:0:0:0:
329,192,121362,1,0,0:0:0:0:
402,192,121462,1,0,0:0:0:0:
182,192,121562,1,0,0:0:0:0:
109,192,121562,128,0,122362:0:0:0:0:
329,192,121662,1,0,0:0:0:0:
402,192,121762,1,0,0:0:0:0:
182,192,121862,1,0,0:0:0:0:
402,192,121962,128,0,122362:0:0:0:0:
329,192,121962,1,0,0:0:0:0:
182,192,122062,1,0,0:0:0:0:
329,192,122162,1,0,0:0:0:0:
182,192,122262,1,0,0:0:0:0:
329,192,122362,128,0,123162:0:0:0:0:
182,192,122462,1,0,0:0:0:0:
109,192,122562,1,0,0:0:0:0:
402,192,122562,1,0,0:0:0:0:
36,192,122662,1,0,0:0:0:0:
475,192,122662,1,0,0:0:0:0:
256,192,122762,1,0,0:0:0:0:
182,192,122762,1,0,0:0:0:0:
109,192,122762,1,0,0:0:0:0:
402,192,122862,1,0,0:0:0:0:
475,192,122962,1,0,0:0:0:0:
256,192,122962,1,0,0:0:0:0:
182,192,123062,1,0,0:0:0:0:
109,192,123062,1,0,0:0:0:0:
402,192,123162,128,0,123562:0:0:0:0:
36,192,123162,1,0,0:0:0:0:
256,192,123162,1,0,0:0:0:0:
475,192,123162,1,0,0:0:0:0:
109,192,123262,1,0,0:0:0:0:
182,192,123362,1,0,0:0:0:0:
329,192,123362,1,0,0:0:0:0:
36,192,123462,1,0,0:0:0:0:
475,192,123462,1,0,0:0:0:0:
182,192,123562,128,0,123762:0:0:0:0:
329,192,123562,1,0,0:0:0:0:
256,192,123562,1,0,0:0:0:0:
109,192,123562,1,0,0:0:0:0:
402,192,123662,1,0,0:0:0:0:
109,192,123762,128,0,123962:0:0:0:0:
256,192,123762,1,0,0:0:0:0:
36,192,123762,1,0,0:0:0:0:
402,192,123862,1,0,0:0:0:0:
475,192,123862,1,0,0:0:0:0:
256,192,123962,128,0,124362:0:0:0:0:
182,192,123962,1,0,0:0:0:0:
329,192,123962,1,0,0:0:0:0:
36,192,123962,1,0,0:0:0:0:
402,192,124062,1,0,0:0:0:0:
475,192,124162,1,0,0:0:0:0:
182,192,124162,1,0,0:0:0:0:
36,192,124262,1,0,0:0:0:0:
329,192,124262,1,0,0:0:0:0:
402,192,124362,128,0,124762:0:0:0:0:
182,192,124362,1,0,0:0:0:0:
109,192,124362,1,0,0:0:0:0:
475,192,124362,1,0,0:0:0:0:
329,192,124462,1,0,0:0:0:0:
109,192,124562,1,0,0:0:0:0:
256,192,124562,1,0,0:0:0:0:
329,192,124662,1,0,0:0:0:0:
182,192,124662,1,0,0:0:0:0:
36,192,124762,128,0,125562:0:0:0:0:
256,192,124762,1,0,0:0:0:0:
475,192,124762,1,0,0:0:0:0:
109,192,124762,1,0,0:0:0:0:
329,192,124862,1,0,0:0:0:0:
182,192,124962,1,0,0:0:0:0:
109,192,124962,1,0,0:0:0:0:
256,192,125062,1,0,0:0:0:0:
402,192,125062,1,0,0:0:0:0:
475,192,125162,1,0,0:0:0:0:
329,192,125162,1,0,0:0:0:0:
182,192,125162,1,0,0:0:0:0:
109,192,125262,1,0,0:0:0:0:
402,192,125362,1,0,0:0:0:0:
475,192,125362,1,0,0:0:0:0:
256,192,125462,1,0,0:0:0:0:
329,192,125462,1,0,0:0:0:0:
402,192,125562,128,0,126362:0:0:0:0:
182,192,125562,1,0,0:0:0:0:
109,192,125562,1,0,0:0:0:0:
475,192,125562,1,0,0:0:0:0:
329,192,125662,1,0,0:0:0:0:
109,192,125762,1,0,0:0:0:0:
36,192,125762,1,0,0:0:0:0:
182,192,125862,1,0,0:0:0:0:
256,192,125862,1,0,0:0:0:0:
329,192,125962,1,0,0:0:0:0:
475,192,125962,1,0,0:0:0:0:
36,192,125962,1,0,0:0:0:0:
109,192,126062,1,0,0:0:0:0:
256,192,126162,1,0,0:0:0:0:
182,192,126162,1,0,0:0:0:0:
329,192,126262,1,0,0:0:0:0:
109,192,126262,1,0,0:0:0:0:
475,192,126362,128,0,126762:0:0:0:0:
182,192,126362,1,0,0:0:0:0:
36,192,126362,1,0,0:0:0:0:
256,192,126362,1,0,0:0:0:0:
329,192,126462,1,0,0:0:0:0:
402,192,126562,1,0,0:0:0:0:
182,192,126562,1,0,0:0:0:0:
36,192,126662,1,0,0:0:0:0:
109,192,126662,1,0,0:0:0:0:
329,192,126762,128,0,126962:0:0:0:0:
256,192,126762,1,0,0:0:0:0:
182,192,126762,1,0,0:0:0:0:
402,192,126762,1,0,0:0:0:0:
36,192,126862,1,0,0:0:0:0:
182,192,126962,128,0,127162:0:0:0:0:
402,192,126962,1,0,0:0:0:0:
109,192,126962,1,0,0:0:0:0:
256,192,127062,1,0,0:0:0:0:
475,192,127062,1,0,0:0:0:0:
109,192,127162,128,0,127562:0:0:0:0:
402,192,127162,1,0,0:0:0:0:
36,192,127162,1,0,0:0:0:0:
329,192,127162,1,0,0:0:0:0:
256,192,127262,1,0,0:0:0:0:
36,192,127362,1,0,0:0:0:0:
475,192,127362,1,0,0:0:0:0:
402,192,127462,1,0,0:0:0:0:
182,192,127462,1,0,0:0:0:0:
256,192,127562,128,0,127762:0:0:0:0:
329,192,127562,1,0,0:0:0:0:
475,192,127562,1,0,0:0:0:0:
36,192,127562,1,0,0:0:0:0:
109,192,127662,1,0,0:0:0:0:
182,192,127762,128,0,127962:0:0:0:0:
402,192,127762,1,0,0:0:0:0:
329,192,127762,1,0,0:0:0:0:
475,192,127862,1,0,0:0:0:0:
109,192,127862,1,0,0:0:0:0:
402,192,127962,128,0,128362:0:0:0:0:
36,192,127962,1,0,0:0:0:0:
329,192,127962,1,0,0:0:0:0:
256,192,127962,1,0,0:0:0:0:
109,192,128062,1,0,0:0:0:0:
256,192,128162,1,0,0:0:0:0:
182,192,128162,1,0,0:0:0:0:
329,192,128262,1,0,0:0:0:0:
36,192,128262,1,0,0:0:0:0:
475,192,128362,128,0,128762:0:0:0:0:
109,192,128362,1,0,0:0:0:0:
256,192,128362,1,0,0:0:0:0:
182,192,128362,1,0,0:0:0:0:
329,192,128462,1,0,0:0:0:0:
402,192,128562,1,0,0:0:0:0:
36,192,128562,1,0,0:0:0:0:
109,192,128662,1,0,0:0:0:0:
329,192,128662,1,0,0:0:0:0:
182,192,128762,128,0,131962:0:0:0:0:
256,192,128762,1,0,0:0:0:0:
36,192,128762,1,0,0:0:0:0:
402,192,128762,1,0,0:0:0:0:
109,192,128862,1,0,0:0:0:0:
256,192,128962,1,0,0:0:0:0:
329,192,128962,1,0,0:0:0:0:
475,192,129062,1,0,0:0:0:0:
402,192,129062,1,0,0:0:0:0:
36,192,129162,1,0,0:0:0:0:
109,192,129162,1,0,0:0:0:0:
329,192,129162,128,0,129562:0:0:0:0:
402,192,129262,1,0,0:0:0:0:
475,192,129362,1,0,0:0:0:0:
109,192,129362,1,0,0:0:0:0:
36,192,129462,1,0,0:0:0:0:
256,192,129562,128,0,129962:0:0:0:0:
475,192,129562,1,0,0:0:0:0:
402,192,129562,1,0,0:0:0:0:
109,192,129662,1,0,0:0:0:0:
36,192,129762,1,0,0:0:0:0:
475,192,129762,1,0,0:0:0:0:
402,192,129862,1,0,0:0:0:0:
109,192,129962,128,0,130162:0:0:0:0:
329,192,129962,1,0,0:0:0:0:
36,192,129962,1,0,0:0:0:0:
402,192,130062,1,0,0:0:0:0:
329,192,130162,128,0,130362:0:0:0:0:
475,192,130162,1,0,0:0:0:0:
36,192,130162,1,0,0:0:0:0:
256,192,130262,1,0,0:0:0:0:
402,192,130362,128,0,130562:0:0:0:0:
109,192,130362,1,0,0:0:0:0:
36,192,130362,1,0,0:0:0:0:
256,192,130462,1,0,0:0:0:0:
475,192,130562,128,0,130762:0:0:0:0:
329,192,130562,1,0,0:0:0:0:
109,192,130562,1,0,0:0:0:0:
36,192,130662,1,0,0:0:0:0:
329,192,130762,128,0,130962:0:0:0:0:
402,192,130762,1,0,0:0:0:0:
256,192,130762,1,0,0:0:0:0:
109,192,130862,1,0,0:0:0:0:
36,192,130962,128,0,131162:0:0:0:0:
475,192,130962,1,0,0:0:0:0:
402,192,130962,1,0,0:0:0:0:
329,192,131062,1,0,0:0:0:0:
256,192,131162,128,0,131562:0:0:0:0:
109,192,131162,1,0,0:0:0:0:
475,192,131162,1,0,0:0:0:0:
402,192,131262,1,0,0:0:0:0:
36,192,131362,1,0,0:0:0:0:
475,192,131362,1,0,0:0:0:0:
329,192,131462,1,0,0:0:0:0:
109,192,131562,128,0,131962:0:0:0:0:
402,192,131562,1,0,0:0:0:0:
475,192,131562,1,0,0:0:0:0:
329,192,131662,1,0,0:0:0:0:
36,192,131762,1,0,0:0:0:0:
256,192,131762,1,0,0:0:0:0:
475,192,131862,1,0,0:0:0:0:
402,192,131962,1,0,0:0:0:0:
329,192,131962,1,0,0:0:0:0:
36,192,132062,1,0,0:0:0:0:
256,192,132062,1,0,0:0:0:0:
109,192,132162,1,0,0:0:0:0:
329,192,132162,1,0,0:0:0:0:
475,192,132262,1,0,0:0:0:0:
182,192,132262,1,0,0:0:0:0:
36,192,132362,1,0,0:0:0:0:
109,192,132362,1,0,0:0:0:0:
402,192,132362,1,0,0:0:0:0:
329,192,132362,1,0,0:0:0:0:
182,192,132462,1,0,0:0:0:0:
475,192,132462,1,0,0:0:0:0:
329,192,132562,1,0,0:0:0:0:
256,192,132562,1,0,0:0:0:0:
36,192,132662,1,0,0:0:0:0:
109,192,132662,1,0,0:0:0:0:
182,192,132762,1,0,0:0:0:0:
475,192,132762,1,0,0:0:0:0:
402,192,132762,1,0,0:0:0:0:
256,192,132762,1,0,0:0:0:0:
329,192,132862,1,0,0:0:0:0:
109,192,132862,1,0,0:0:0:0:
36,192,132962,1,0,0:0:0:0:
256,192,132962,1,0,0:0:0:0:
475,192,133062,1,0,0:0:0:0:
182,192,133062,1,0,0:0:0:0:
402,192,133162,1,0,0:0:0:0:
329,192,133162,1,0,0:0:0:0:
36,192,133162,1,0,0:0:0:0:
109,192,133162,1,0,0:0:0:0:
256,192,133262,1,0,0:0:0:0:
182,192,133262,1,0,0:0:0:0:
329,192,133362,1,0,0:0:0:0:
475,192,133362,1,0,0:0:0:0:
402,192,133462,1,0,0:0:0:0:
182,192,133462,1,0,0:0:0:0:
256,192,133562,1,0,0:0:0:0:
109,192,133562,1,0,0:0:0:0:
36,192,133562,1,0,0:0:0:0:
475,192,133562,1,0,0:0:0:0:
329,192,133662,1,0,0:0:0:0:
182,192,133662,1,0,0:0:0:0:
109,192,133762,1,0,0:0:0:0:
402,192,133762,1,0,0:0:0:0:
329,192,133862,1,0,0:0:0:0:
36,192,133862,1,0,0:0:0:0:
109,192,133962,1,0,0:0:0:0:
182,192,133962,1,0,0:0:0:0:
256,192,133962,1,0,0:0:0:0:
475,192,133962,1,0,0:0:0:0:
402,192,134062,1,0,0:0:0:0:
329,192,134062,1,0,0:0:0:0:
109,192,134162,1,0,0:0:0:0:
256,192,134162,1,0,0:0:0:0:
182,192,134262,1,0,0:0:0:0:
329,192,134262,1,0,0:0:0:0:
256,192,134362,1,0,0:0:0:0:
402,192,134362,1,0,0:0:0:0:
475,192,134362,1,0,0:0:0:0:
36,192,134362,1,0,0:0:0:0:
109,192,134462,1,0,0:0:0:0:
329,192,134462,1,0,0:0:0:0:
182,192,134562,1,0,0:0:0:0:
402,192,134562,1,0,0:0:0:0:
256,192,134662,1,0,0:0:0:0:
475,192,134662,1,0,0:0:0:0:
402,192,134762,1,0,0:0:0:0:
329,192,134762,1,0,0:0:0:0:
36,192,134762,1,0,0:0:0:0:
109,192,134762,1,0,0:0:0:0:
182,192,134862,1,0,0:0:0:0:
475,192,134862,1,0,0:0:0:0:
402,192,134962,1,0,0:0:0:0:
109,192,134962,1,0,0:0:0:0:
329,192,135062,1,0,0:0:0:0:
36,192,135062,1,0,0:0:0:0:
182,192,135162,1,0,0:0:0:0:
109,192,135162,1,0,0:0:0:0:
475,192,135162,1,0,0:0:0:0:
256,192,135162,128,0,135962:0:0:0:0:
402,192,135262,1,0,0:0:0:0:
329,192,135362,1,0,0:0:0:0:
182,192,135362,1,0,0:0:0:0:
109,192,135462,1,0,0:0:0:0:
475,192,135462,1,0,0:0:0:0:
402,192,135562,1,0,0:0:0:0:
329,192,135562,1,0,0:0:0:0:
36,192,135562,1,0,0:0:0:0:
109,192,135662,1,0,0:0:0:0:
475,192,135762,1,0,0:0:0:0:
182,192,135762,1,0,0:0:0:0:
402,192,135862,1,0,0:0:0:0:
329,192,135862,1,0,0:0:0:0:
182,192,135962,128,0,136362:0:0:0:0:
109,192,135962,1,0,0:0:0:0:
36,192,135962,1,0,0:0:0:0:
475,192,135962,1,0,0:0:0:0:
402,192,136062,1,0,0:0:0:0:
256,192,136162,1,0,0:0:0:0:
329,192,136162,1,0,0:0:0:0:
475,192,136262,1,0,0:0:0:0:
109,192,136262,1,0,0:0:0:0:
329,192,136362,128,0,136562:0:0:0:0:
36,192,136362,1,0,0:0:0:0:
256,192,136362,1,0,0:0:0:0:
402,192,136362,1,0,0:0:0:0:
109,192,136462,1,0,0:0:0:0:
256,192,136562,128,0,136762:0:0:0:0:
182,192,136562,1,0,0:0:0:0:
475,192,136562,1,0,0:0:0:0:
109,192,136662,1,0,0:0:0:0:
36,192,136662,1,0,0:0:0:0:
402,192,136762,128,0,137162:0:0:0:0:
329,192,136762,1,0,0:0:0:0:
475,192,136762,1,0,0:0:0:0:
182,192,136762,1,0,0:0:0:0:
109,192,136862,1,0,0:0:0:0:
329,192,136962,1,0,0:0:0:0:
475,192,136962,1,0,0:0:0:0:
256,192,137062,1,0,0:0:0:0:
109,192,137062,1,0,0:0:0:0:
475,192,137162,128,0,137562:0:0:0:0:
36,192,137162,1,0,0:0:0:0:
182,192,137162,1,0,0:0:0:0:
329,192,137162,1,0,0:0:0:0:
256,192,137262,1,0,0:0:0:0:
329,192,137362,1,0,0:0:0:0:
402,192,137362,1,0,0:0:0:0:
182,192,137462,1,0,0:0:0:0:
36,192,137462,1,0,0:0:0:0:
109,192,137562,128,0,138362:0:0:0:0:
329,192,137562,1,0,0:0:0:0:
256,192,137562,1,0,0:0:0:0:
402,192,137562,1,0,0:0:0:0:
182,192,137662,1,0,0:0:0:0:
36,192,137762,1,0,0:0:0:0:
256,192,137762,1,0,0:0:0:0:
329,192,137862,1,0,0:0:0:0:
475,192,137862,1,0,0:0:0:0:
402,192,137962,1,0,0:0:0:0:
182,192,137962,1,0,0:0:0:0:
36,192,137962,1,0,0:0:0:0:
256,192,138062,1,0,0:0:0:0:
329,192,138162,1,0,0:0:0:0:
475,192,138162,1,0,0:0:0:0:
402,192,138262,1,0,0:0:0:0:
256,192,138262,1,0,0:0:0:0:
329,192,138362,128,0,139162:0:0:0:0:
182,192,138362,1,0,0:0:0:0:
36,192,138362,1,0,0:0:0:0:
475,192,138362,1,0,0:0:0:0:
256,192,138462,1,0,0:0:0:0:
36,192,138562,1,0,0:0:0:0:
402,192,138562,1,0,0:0:0:0:
109,192,138628,1,0,0:0:0:0:
182,192,138695,1,0,0:0:0:0:
256,192,138762,1,0,0:0:0:0:
475,192,138762,1,0,0:0:0:0:
36,192,138762,1,0,0:0:0:0:
109,192,138828,1,0,0:0:0:0:
182,192,138895,1,0,0:0:0:0:
402,192,138962,1,0,0:0:0:0:
256,192,138962,1,0,0:0:0:0:
182,192,139028,1,0,0:0:0:0:
109,192,139095,1,0,0:0:0:0:
402,192,139162,128,0,139562:0:0:0:0:
36,192,139162,1,0,0:0:0:0:
256,192,139162,1,0,0:0:0:0:
475,192,139162,1,0,0:0:0:0:
182,192,139228,1,0,0:0:0:0:
109,192,139295,1,0,0:0:0:0:
36,192,139362,1,0,0:0:0:0:
329,192,139362,1,0,0:0:0:0:
256,192,139428,1,0,0:0:0:0:
182,192,139495,1,0,0:0:0:0:
475,192,139562,128,0,139762:0:0:0:0:
109,192,139562,1,0,0:0:0:0:
36,192,139562,1,0,0:0:0:0:
329,192,139562,1,0,0:0:0:0:
256,192,139628,1,0,0:0:0:0:
182,192,139695,1,0,0:0:0:0:
329,192,139762,128,0,139962:0:0:0:0:
109,192,139762,1,0,0:0:0:0:
402,192,139762,1,0,0:0:0:0:
36,192,139828,1,0,0:0:0:0:
475,192,139895,1,0,0:0:0:0:
182,192,139962,128,0,140362:0:0:0:0:
402,192,139962,1,0,0:0:0:0:
256,192,139962,1,0,0:0:0:0:
109,192,139962,1,0,0:0:0:0:
329,192,140062,1,0,0:0:0:0:
475,192,140162,1,0,0:0:0:0:
256,192,140162,1,0,0:0:0:0:
402,192,140262,1,0,0:0:0:0:
36,192,140262,1,0,0:0:0:0:
109,192,140362,128,0,140562:0:0:0:0:
256,192,140362,1,0,0:0:0:0:
329,192,140362,1,0,0:0:0:0:
475,192,140362,1,0,0:0:0:0:
36,192,140462,1,0,0:0:0:0:
256,192,140562,128,0,140762:0:0:0:0:
182,192,140562,1,0,0:0:0:0:
329,192,140562,1,0,0:0:0:0:
402,192,140662,1,0,0:0:0:0:
475,192,140662,1,0,0:0:0:0:
36,192,140762,128,0,140962:0:0:0:0:
109,192,140762,1,0,0:0:0:0:
182,192,140762,1,0,0:0:0:0:
329,192,140762,1,0,0:0:0:0:
402,192,140862,1,0,0:0:0:0:
182,192,140962,128,0,141162:0:0:0:0:
329,192,140962,1,0,0:0:0:0:
109,192,140962,1,0,0:0:0:0:
256,192,141062,1,0,0:0:0:0:
402,192,141062,1,0,0:0:0:0:
329,192,141162,128,0,141362:0:0:0:0:
475,192,141162,1,0,0:0:0:0:
36,192,141162,1,0,0:0:0:0:
109,192,141162,1,0,0:0:0:0:
256,192,141262,1,0,0:0:0:0:
402,192,141362,128,0,141562:0:0:0:0:
182,192,141362,1,0,0:0:0:0:
36,192,141362,1,0,0:0:0:0:
109,192,141462,1,0,0:0:0:0:
475,192,141462,1,0,0:0:0:0:
256,192,141562,128,0,144762:0:0:0:0:
329,192,141562,1,0,0:0:0:0:
182,192,141562,1,0,0:0:0:0:
36,192,141562,1,0,0:0:0:0:
109,192,141662,1,0,0:0:0:0:
182,192,141762,1,0,0:0:0:0:
329,192,141762,1,0,0:0:0:0:
402,192,141862,1,0,0:0:0:0:
329,192,141962,128,0,142362:0:0:0:0:
475,192,141962,1,0,0:0:0:0:
36,192,141962,1,0,0:0:0:0:
109,192,142062,1,0,0:0:0:0:
475,192,142162,1,0,0:0:0:0:
182,192,142162,1,0,0:0:0:0:
36,192,142262,1,0,0:0:0:0:
182,192,142362,128,0,142762:0:0:0:0:
475,192,142362,1,0,0:0:0:0:
109,192,142362,1,0,0:0:0:0:
402,192,142462,1,0,0:0:0:0:
329,192,142562,1,0,0:0:0:0:
109,192,142662,1,0,0:0:0:0:
36,192,142762,128,0,142962:0:0:0:0:
329,192,142762,1,0,0:0:0:0:
402,192,142762,1,0,0:0:0:0:
475,192,142862,1,0,0:0:0:0:
109,192,142962,128,0,143162:0:0:0:0:
329,192,142962,1,0,0:0:0:0:
182,192,142962,1,0,0:0:0:0:
402,192,143062,1,0,0:0:0:0:
182,192,143162,128,0,143362:0:0:0:0:
475,192,143162,1,0,0:0:0:0:
329,192,143162,1,0,0:0:0:0:
36,192,143262,1,0,0:0:0:0:
475,192,143362,128,0,143562:0:0:0:0:
402,192,143362,1,0,0:0:0:0:
329,192,143362,1,0,0:0:0:0:
109,192,143462,1,0,0:0:0:0:
402,192,143562,128,0,143762:0:0:0:0:
36,192,143562,1,0,0:0:0:0:
182,192,143562,1,0,0:0:0:0:
109,192,143662,1,0,0:0:0:0:
329,192,143762,128,0,143962:0:0:0:0:
182,192,143762,1,0,0:0:0:0:
475,192,143762,1,0,0:0:0:0:
36,192,143862,1,0,0:0:0:0:
182,192,143962,128,0,144762:0:0:0:0:
109,192,143962,1,0,0:0:0:0:
402,192,143962,1,0,0:0:0:0:
475,192,144062,1,0,0:0:0:0:
36,192,144162,1,0,0:0:0:0:
109,192,144162,1,0,0:0:0:0:
402,192,144262,1,0,0:0:0:0:
329,192,144362,128,0,144762:0:0:0:0:
475,192,144362,1,0,0:0:0:0:
36,192,144362,1,0,0:0:0:0:
109,192,144462,1,0,0:0:0:0:
475,192,144562,1,0,0:0:0:0:
402,192,144562,1,0,0:0:0:0:
36,192,144662,1,0,0:0:0:0:
109,192,144762,1,0,0:0:0:0:
402,192,144762,128,0,145562:0:0:0:0:
475,192,144862,1,0,0:0:0:0:
182,192,144962,1,0,0:0:0:0:
109,192,145062,1,0,0:0:0:0:
256,192,145062,1,0,0:0:0:0:
329,192,145162,128,0,145962:0:0:0:0:
256,192,145162,1,0,0:0:0:0:
36,192,145162,1,0,0:0:0:0:
109,192,145162,1,0,0:0:0:0:
475,192,145262,1,0,0:0:0:0:
36,192,145362,1,0,0:0:0:0:
109,192,145462,1,0,0:0:0:0:
182,192,145462,1,0,0:0:0:0:
256,192,145562,128,0,146362:0:0:0:0:
182,192,145562,1,0,0:0:0:0:
109,192,145562,1,0,0:0:0:0:
36,192,145662,1,0,0:0:0:0:
109,192,145762,1,0,0:0:0:0:
475,192,145862,1,0,0:0:0:0:
402,192,145862,1,0,0:0:0:0:
182,192,145962,128,0,146762:0:0:0:0:
475,192,145962,1,0,0:0:0:0:
402,192,145962,1,0,0:0:0:0:
109,192,146062,1,0,0:0:0:0:
36,192,146162,1,0,0:0:0:0:
329,192,146262,1,0,0:0:0:0:
402,192,146262,1,0,0:0:0:0:
402,192,146362,1,0,0:0:0:0:
329,192,146362,1,0,0:0:0:0:
109,192,146362,128,0,147162:0:0:0:0:
475,192,146462,1,0,0:0:0:0:
256,192,146562,1,0,0:0:0:0:
36,192,146662,1,0,0:0:0:0:
402,192,146662,1,0,0:0:0:0:
256,192,146762,128,0,147562:0:0:0:0:
36,192,146762,1,0,0:0:0:0:
402,192,146762,1,0,0:0:0:0:
329,192,146862,1,0,0:0:0:0:
36,192,146962,1,0,0:0:0:0:
475,192,147062,1,0,0:0:0:0:
182,192,147062,1,0,0:0:0:0:
329,192,147162,128,0,147962:0:0:0:0:
475,192,147162,1,0,0:0:0:0:
182,192,147162,1,0,0:0:0:0:
109,192,147262,1,0,0:0:0:0:
36,192,147362,1,0,0:0:0:0:
182,192,147462,1,0,0:0:0:0:
475,192,147462,1,0,0:0:0:0:
402,192,147562,128,0,147962:0:0:0:0:
182,192,147562,1,0,0:0:0:0:
475,192,147562,1,0,0:0:0:0:
109,192,147662,1,0,0:0:0:0:
36,192,147762,1,0,0:0:0:0:
256,192,147862,1,0,0:0:0:0:
182,192,147862,1,0,0:0:0:0:
256,192,147962,1,0,0:0:0:0:
475,192,147962,128,0,149162:0:0:0:0:
182,192,147962,128,0,148062:0:0:0:0:
109,192,148062,128,0,148162:0:0:0:0:
402,192,148162,128,0,148262:0:0:0:0:
256,192,148162,1,0,0:0:0:0:
329,192,148262,128,0,148362:0:0:0:0:
109,192,148362,1,0,0:0:0:0:
36,192,148362,128,0,148462:0:0:0:0:
182,192,148462,128,0,148562:0:0:0:0:
256,192,148562,128,0,148662:0:0:0:0:
402,192,148562,1,0,0:0:0:0:
329,192,148662,128,0,148762:0:0:0:0:
109,192,148762,128,0,148862:0:0:0:0:
182,192,148762,1,0,0:0:0:0:
256,192,148862,128,0,148962:0:0:0:0:
36,192,148962,128,0,149062:0:0:0:0:
329,192,148962,1,0,0:0:0:0:
109,192,149062,128,0,149162:0:0:0:0:
182,192,149162,128,0,149562:0:0:0:0:
329,192,149162,128,0,149262:0:0:0:0:
256,192,149162,1,0,0:0:0:0:
402,192,149262,128,0,149362:0:0:0:0:
475,192,149362,128,0,149462:0:0:0:0:
36,192,149362,1,0,0:0:0:0:
109,192,149462,128,0,149562:0:0:0:0:
256,192,149562,128,0,149962:0:0:0:0:
329,192,149562,128,0,149662:0:0:0:0:
402,192,149562,1,0,0:0:0:0:
36,192,149662,128,0,149762:0:0:0:0:
109,192,149762,128,0,149862:0:0:0:0:
182,192,149762,1,0,0:0:0:0:
475,192,149862,128,0,149962:0:0:0:0:
329,192,149962,128,0,150362:0:0:0:0:
402,192,149962,128,0,150062:0:0:0:0:
36,192,149962,1,0,0:0:0:0:
182,192,150062,128,0,150162:0:0:0:0:
109,192,150162,128,0,150262:0:0:0:0:
475,192,150162,1,0,0:0:0:0:
256,192,150262,128,0,150362:0:0:0:0:
402,192,150362,128,0,150762:0:0:0:0:
475,192,150362,128,0,150462:0:0:0:0:
36,192,150362,1,0,0:0:0:0:
182,192,150462,128,0,150562:0:0:0:0:
109,192,150562,128,0,150662:0:0:0:0:
329,192,150562,1,0,0:0:0:0:
256,192,150662,128,0,150762:0:0:0:0:
475,192,150762,128,0,151162:0:0:0:0:
329,192,150762,128,0,150862:0:0:0:0:
182,192,150762,1,0,0:0:0:0:
36,192,150862,128,0,150962:0:0:0:0:
109,192,150962,128,0,151062:0:0:0:0:
402,192,150962,1,0,0:0:0:0:
256,192,151062,128,0,151162:0:0:0:0:
329,192,151162,128,0,151262:0:0:0:0:
402,192,151162,128,0,151262:0:0:0:0:
182,192,151262,128,0,151362:0:0:0:0:
36,192,151262,128,0,151362:0:0:0:0:
109,192,151362,128,0,152362:0:0:0:0:
475,192,151362,128,0,151462:0:0:0:0:
402,192,151462,128,0,151562:0:0:0:0:
36,192,151562,128,0,151662:0:0:0:0:
256,192,151562,1,0,0:0:0:0:
182,192,151662,128,0,151762:0:0:0:0:
256,192,151762,128,0,151862:0:0:0:0:
402,192,151762,1,0,0:0:0:0:
36,192,151862,128,0,151962:0:0:0:0:
329,192,151962,128,0,152062:0:0:0:0:
475,192,151962,1,0,0:0:0:0:
402,192,152062,128,0,152162:0:0:0:0:
256,192,152162,128,0,152262:0:0:0:0:
36,192,152162,1,0,0:0:0:0:
475,192,152262,128,0,152362:0:0:0:0:
402,192,152362,128,0,152462:0:0:0:0:
182,192,152362,1,0,0:0:0:0:
36,192,152462,128,0,152562:0:0:0:0:
182,192,152562,128,0,152662:0:0:0:0:
329,192,152562,128,0,152662:0:0:0:0:
256,192,152662,128,0,152762:0:0:0:0:
402,192,152662,128,0,152762:0:0:0:0:
36,192,152762,128,0,153962:0:0:0:0:
109,192,152762,128,0,152862:0:0:0:0:
475,192,152762,1,0,0:0:0:0:
182,192,152862,128,0,152962:0:0:0:0:
475,192,152962,128,0,153062:0:0:0:0:
256,192,152962,1,0,0:0:0:0:
402,192,153062,128,0,153162:0:0:0:0:
256,192,153162,128,0,153262:0:0:0:0:
329,192,153162,1,0,0:0:0:0:
182,192,153262,128,0,153362:0:0:0:0:
329,192,153362,128,0,153462:0:0:0:0:
109,192,153362,1,0,0:0:0:0:
475,192,153462,128,0,153562:0:0:0:0:
402,192,153562,128,0,153662:0:0:0:0:
182,192,153562,1,0,0:0:0:0:
109,192,153662,128,0,153762:0:0:0:0:
182,192,153762,128,0,153862:0:0:0:0:
329,192,153762,1,0,0:0:0:0:
256,192,153862,128,0,153962:0:0:0:0:
329,192,153962,128,0,154062:0:0:0:0:
475,192,153962,128,0,154062:0:0:0:0:
182,192,153962,128,0,154062:0:0:0:0:
109,192,154062,128,0,154162:0:0:0:0:
402,192,154062,128,0,154162:0:0:0:0:
329,192,154162,128,0,154262:0:0:0:0:
36,192,154162,128,0,154262:0:0:0:0:
182,192,154262,128,0,154362:0:0:0:0:
475,192,154262,128,0,154362:0:0:0:0:
256,192,154362,128,0,155562:0:0:0:0:
109,192,154362,1,0,0:0:0:0:
402,192,154362,1,0,0:0:0:0:
36,192,154495,1,0,0:0:0:0:
109,192,154495,1,0,0:0:0:0:
329,192,154495,1,0,0:0:0:0:
402,192,154628,1,0,0:0:0:0:
182,192,154628,1,0,0:0:0:0:
475,192,154628,1,0,0:0:0:0:
475,192,154762,1,0,0:0:0:0:
182,192,154762,1,0,0:0:0:0:
109,192,154762,1,0,0:0:0:0:
109,192,154895,1,0,0:0:0:0:
402,192,154895,1,0,0:0:0:0:
329,192,154895,1,0,0:0:0:0:
329,192,155028,1,0,0:0:0:0:
475,192,155028,1,0,0:0:0:0:
182,192,155028,1,0,0:0:0:0:
109,192,155162,1,0,0:0:0:0:
182,192,155162,1,0,0:0:0:0:
36,192,155162,1,0,0:0:0:0:
109,192,155295,1,0,0:0:0:0:
402,192,155295,1,0,0:0:0:0:
329,192,155295,1,0,0:0:0:0:
329,192,155428,1,0,0:0:0:0:
475,192,155428,1,0,0:0:0:0:
36,192,155428,1,0,0:0:0:0:
182,192,155562,128,0,155962:0:0:0:0:
402,192,155562,1,0,0:0:0:0:
329,192,155562,1,0,0:0:0:0:
109,192,155562,1,0,0:0:0:0:
475,192,155695,1,0,0:0:0:0:
402,192,155695,1,0,0:0:0:0:
36,192,155695,1,0,0:0:0:0:
36,192,155828,1,0,0:0:0:0:
109,192,155828,1,0,0:0:0:0:
256,192,155828,1,0,0:0:0:0:
329,192,155962,128,0,156362:0:0:0:0:
402,192,155962,1,0,0:0:0:0:
475,192,155962,1,0,0:0:0:0:
109,192,155962,1,0,0:0:0:0:
182,192,156095,1,0,0:0:0:0:
256,192,156095,1,0,0:0:0:0:
402,192,156095,1,0,0:0:0:0:
475,192,156228,1,0,0:0:0:0:
109,192,156228,1,0,0:0:0:0:
36,192,156228,1,0,0:0:0:0:
109,192,156362,128,0,156762:0:0:0:0:
182,192,156362,1,0,0:0:0:0:
256,192,156362,1,0,0:0:0:0:
402,192,156362,1,0,0:0:0:0:
475,192,156495,1,0,0:0:0:0:
329,192,156495,1,0,0:0:0:0:
402,192,156495,1,0,0:0:0:0:
182,192,156628,1,0,0:0:0:0:
36,192,156628,1,0,0:0:0:0:
256,192,156628,1,0,0:0:0:0:
256,192,156762,128,0,157162:0:0:0:0:
475,192,156762,1,0,0:0:0:0:
329,192,156762,1,0,0:0:0:0:
36,192,156762,1,0,0:0:0:0:
109,192,156895,1,0,0:0:0:0:
182,192,156895,1,0,0:0:0:0:
329,192,156895,1,0,0:0:0:0:
402,192,157028,1,0,0:0:0:0:
475,192,157028,1,0,0:0:0:0:
109,192,157028,1,0,0:0:0:0:
402,192,157162,128,0,157562:0:0:0:0:
36,192,157162,1,0,0:0:0:0:
182,192,157162,1,0,0:0:0:0:
329,192,157162,1,0,0:0:0:0:
109,192,157295,1,0,0:0:0:0:
182,192,157295,1,0,0:0:0:0:
475,192,157295,1,0,0:0:0:0:
329,192,157428,1,0,0:0:0:0:
256,192,157428,1,0,0:0:0:0:
36,192,157428,1,0,0:0:0:0:
475,192,157562,128,0,158762:0:0:0:0:
36,192,157562,1,0,0:0:0:0:
109,192,157562,1,0,0:0:0:0:
182,192,157562,1,0,0:0:0:0:
402,192,157695,1,0,0:0:0:0:
329,192,157695,1,0,0:0:0:0:
182,192,157695,1,0,0:0:0:0:
256,192,157828,1,0,0:0:0:0:
329,192,157828,1,0,0:0:0:0:
109,192,157828,1,0,0:0:0:0:
109,192,157962,1,0,0:0:0:0:
36,192,157962,1,0,0:0:0:0:
182,192,157962,1,0,0:0:0:0:
182,192,158095,1,0,0:0:0:0:
329,192,158095,1,0,0:0:0:0:
402,192,158095,1,0,0:0:0:0:
256,192,158228,1,0,0:0:0:0:
36,192,158228,1,0,0:0:0:0:
109,192,158228,1,0,0:0:0:0:
109,192,158362,1,0,0:0:0:0:
256,192,158362,1,0,0:0:0:0:
329,192,158362,1,0,0:0:0:0:
182,192,158495,1,0,0:0:0:0:
402,192,158495,1,0,0:0:0:0:
329,192,158495,1,0,0:0:0:0:
256,192,158628,1,0,0:0:0:0:
109,192,158628,1,0,0:0:0:0:
36,192,158628,1,0,0:0:0:0:
36,192,158762,1,0,0:0:0:0:
182,192,158762,1,0,0:0:0:0:
329,192,158762,1,0,0:0:0:0:
256,192,158895,1,0,0:0:0:0:
182,192,158895,1,0,0:0:0:0:
475,192,158895,1,0,0:0:0:0:
402,192,159028,1,0,0:0:0:0:
329,192,159028,1,0,0:0:0:0:
36,192,159028,1,0,0:0:0:0:
256,192,159162,128,0,160362:0:0:0:0:
36,192,159162,1,0,0:0:0:0:
109,192,159162,1,0,0:0:0:0:
182,192,159162,1,0,0:0:0:0:
475,192,159295,1,0,0:0:0:0:
402,192,159295,1,0,0:0:0:0:
329,192,159295,1,0,0:0:0:0:
182,192,159428,1,0,0:0:0:0:
109,192,159428,1,0,0:0:0:0:
329,192,159428,1,0,0:0:0:0:
109,192,159562,1,0,0:0:0:0:
36,192,159562,1,0,0:0:0:0:
475,192,159562,1,0,0:0:0:0:
182,192,159695,1,0,0:0:0:0:
402,192,159695,1,0,0:0:0:0:
475,192,159695,1,0,0:0:0:0:
182,192,159828,1,0,0:0:0:0:
329,192,159828,1,0,0:0:0:0:
36,192,159828,1,0,0:0:0:0:
109,192,159962,1,0,0:0:0:0:
475,192,159962,1,0,0:0:0:0:
402,192,159962,1,0,0:0:0:0:
329,192,160095,1,0,0:0:0:0:
182,192,160095,1,0,0:0:0:0:
475,192,160095,1,0,0:0:0:0:
36,192,160228,1,0,0:0:0:0:
109,192,160228,1,0,0:0:0:0:
402,192,160228,1,0,0:0:0:0:
182,192,160362,128,0,160762:0:0:0:0:
329,192,160362,128,0,160628:0:0:0:0:
475,192,160362,128,0,160495:0:0:0:0:
109,192,160362,1,0,0:0:0:0:
109,192,160762,1,0,0:0:0:0:
475,192,160762,1,0,0:0:0:0:
256,192,160762,1,0,0:0:0:0:
36,192,160762,128,0,160862:0:0:0:0:
109,192,160862,128,0,160962:0:0:0:0:
329,192,160862,1,0,0:0:0:0:
256,192,160962,128,0,161062:0:0:0:0:
475,192,160962,1,0,0:0:0:0:
402,192,161062,128,0,161162:0:0:0:0:
182,192,161062,1,0,0:0:0:0:
329,192,161162,128,0,161262:0:0:0:0:
36,192,161162,1,0,0:0:0:0:
109,192,161162,1,0,0:0:0:0:
256,192,161262,128,0,161362:0:0:0:0:
475,192,161262,1,0,0:0:0:0:
182,192,161362,128,0,161462:0:0:0:0:
402,192,161362,1,0,0:0:0:0:
109,192,161462,128,0,161562:0:0:0:0:
329,192,161462,1,0,0:0:0:0:
36,192,161562,128,0,161662:0:0:0:0:
475,192,161562,1,0,0:0:0:0:
402,192,161562,1,0,0:0:0:0:
182,192,161662,128,0,161762:0:0:0:0:
256,192,161662,1,0,0:0:0:0:
329,192,161762,128,0,161862:0:0:0:0:
109,192,161762,1,0,0:0:0:0:
402,192,161862,128,0,161962:0:0:0:0:
36,192,161862,1,0,0:0:0:0:
475,192,161962,128,0,162062:0:0:0:0:
182,192,161962,1,0,0:0:0:0:
256,192,161962,1,0,0:0:0:0:
329,192,162062,128,0,162162:0:0:0:0:
109,192,162062,1,0,0:0:0:0:
256,192,162162,128,0,162262:0:0:0:0:
36,192,162162,1,0,0:0:0:0:
182,192,162262,128,0,162362:0:0:0:0:
402,192,162262,1,0,0:0:0:0:
109,192,162362,128,0,162462:0:0:0:0:
475,192,162362,1,0,0:0:0:0:
329,192,162362,1,0,0:0:0:0:
256,192,162462,128,0,162562:0:0:0:0:
36,192,162462,1,0,0:0:0:0:
329,192,162562,128,0,162662:0:0:0:0:
182,192,162562,1,0,0:0:0:0:
402,192,162662,128,0,162762:0:0:0:0:
109,192,162662,1,0,0:0:0:0:
475,192,162762,128,0,162862:0:0:0:0:
256,192,162762,1,0,0:0:0:0:
36,192,162762,1,0,0:0:0:0:
402,192,162862,128,0,162962:0:0:0:0:
182,192,162862,1,0,0:0:0:0:
329,192,162962,128,0,163062:0:0:0:0:
109,192,162962,1,0,0:0:0:0:
256,192,163062,128,0,163162:0:0:0:0:
182,192,163062,1,0,0:0:0:0:
36,192,163162,128,0,163262:0:0:0:0:
402,192,163162,1,0,0:0:0:0:
475,192,163162,1,0,0:0:0:0:
182,192,163262,128,0,163362:0:0:0:0:
109,192,163262,1,0,0:0:0:0:
329,192,163362,128,0,163462:0:0:0:0:
256,192,163362,1,0,0:0:0:0:
402,192,163462,128,0,163562:0:0:0:0:
36,192,163462,1,0,0:0:0:0:
475,192,163562,128,0,163662:0:0:0:0:
109,192,163562,1,0,0:0:0:0:
256,192,163562,1,0,0:0:0:0:
329,192,163662,128,0,163762:0:0:0:0:
182,192,163662,1,0,0:0:0:0:
256,192,163762,128,0,163862:0:0:0:0:
36,192,163762,1,0,0:0:0:0:
182,192,163862,128,0,163962:0:0:0:0:
475,192,163862,1,0,0:0:0:0:
402,192,163962,128,0,164062:0:0:0:0:
329,192,163962,1,0,0:0:0:0:
109,192,163962,1,0,0:0:0:0:
256,192,164062,128,0,164162:0:0:0:0:
36,192,164062,1,0,0:0:0:0:
329,192,164162,128,0,164262:0:0:0:0:
182,192,164162,1,0,0:0:0:0:
475,192,164262,128,0,164362:0:0:0:0:
109,192,164262,1,0,0:0:0:0:
402,192,164362,128,0,164462:0:0:0:0:
256,192,164362,1,0,0:0:0:0:
36,192,164362,1,0,0:0:0:0:
109,192,164462,128,0,164562:0:0:0:0:
182,192,164462,1,0,0:0:0:0:
256,192,164562,128,0,164662:0:0:0:0:
329,192,164562,1,0,0:0:0:0:
402,192,164662,128,0,164762:0:0:0:0:
36,192,164662,1,0,0:0:0:0:
475,192,164762,128,0,164862:0:0:0:0:
109,192,164762,1,0,0:0:0:0:
182,192,164762,1,0,0:0:0:0:
36,192,164862,128,0,164962:0:0:0:0:
329,192,164862,1,0,0:0:0:0:
182,192,164962,128,0,165062:0:0:0:0:
256,192,164962,1,0,0:0:0:0:
329,192,165062,128,0,165162:0:0:0:0:
475,192,165062,1,0,0:0:0:0:
402,192,165162,128,0,165262:0:0:0:0:
256,192,165162,1,0,0:0:0:0:
36,192,165162,1,0,0:0:0:0:
109,192,165262,128,0,165362:0:0:0:0:
182,192,165262,1,0,0:0:0:0:
256,192,165362,128,0,165462:0:0:0:0:
329,192,165362,1,0,0:0:0:0:
475,192,165462,128,0,165562:0:0:0:0:
402,192,165462,1,0,0:0:0:0:
182,192,165562,128,0,165662:0:0:0:0:
329,192,165562,1,0,0:0:0:0:
109,192,165562,1,0,0:0:0:0:
256,192,165662,128,0,165762:0:0:0:0:
36,192,165662,1,0,0:0:0:0:
109,192,165762,128,0,165862:0:0:0:0:
402,192,165762,1,0,0:0:0:0:
329,192,165862,128,0,165962:0:0:0:0:
182,192,165862,1,0,0:0:0:0:
36,192,165962,128,0,166062:0:0:0:0:
475,192,165962,1,0,0:0:0:0:
402,192,165962,1,0,0:0:0:0:
256,192,166062,128,0,166162:0:0:0:0:
182,192,166062,1,0,0:0:0:0:
109,192,166162,128,0,166262:0:0:0:0:
329,192,166162,1,0,0:0:0:0:
402,192,166262,128,0,166362:0:0:0:0:
475,192,166262,1,0,0:0:0:0:
182,192,166362,128,0,166462:0:0:0:0:
256,192,166362,1,0,0:0:0:0:
36,192,166362,1,0,0:0:0:0:
329,192,166462,128,0,166562:0:0:0:0:
109,192,166462,1,0,0:0:0:0:
256,192,166562,128,0,166662:0:0:0:0:
402,192,166562,1,0,0:0:0:0:
475,192,166662,128,0,166762:0:0:0:0:
182,192,166662,1,0,0:0:0:0:
109,192,166762,128,0,166862:0:0:0:0:
402,192,166762,1,0,0:0:0:0:
36,192,166762,1,0,0:0:0:0:
182,192,166862,128,0,166962:0:0:0:0:
329,192,166862,1,0,0:0:0:0:
256,192,166962,128,0,167062:0:0:0:0:
402,192,166962,1,0,0:0:0:0:
329,192,167062,128,0,167162:0:0:0:0:
475,192,167062,1,0,0:0:0:0:
402,192,167162,128,0,167262:0:0:0:0:
182,192,167162,1,0,0:0:0:0:
256,192,167162,1,0,0:0:0:0:
109,192,167262,128,0,167362:0:0:0:0:
36,192,167262,1,0,0:0:0:0:
256,192,167362,128,0,167462:0:0:0:0:
329,192,167362,1,0,0:0:0:0:
182,192,167462,128,0,167562:0:0:0:0:
402,192,167462,1,0,0:0:0:0:
475,192,167562,128,0,167662:0:0:0:0:
329,192,167562,1,0,0:0:0:0:
109,192,167562,1,0,0:0:0:0:
329,192,167662,128,0,167762:0:0:0:0:
36,192,167662,1,0,0:0:0:0:
256,192,167762,128,0,167862:0:0:0:0:
109,192,167762,1,0,0:0:0:0:
182,192,167862,128,0,167962:0:0:0:0:
402,192,167862,1,0,0:0:0:0:
36,192,167962,128,0,168062:0:0:0:0:
475,192,167962,1,0,0:0:0:0:
329,192,167962,1,0,0:0:0:0:
109,192,168062,128,0,168162:0:0:0:0:
402,192,168062,1,0,0:0:0:0:
256,192,168162,128,0,168262:0:0:0:0:
182,192,168162,1,0,0:0:0:0:
329,192,168262,128,0,168362:0:0:0:0:
36,192,168262,1,0,0:0:0:0:
475,192,168362,128,0,168462:0:0:0:0:
182,192,168362,1,0,0:0:0:0:
402,192,168362,1,0,0:0:0:0:
109,192,168462,128,0,168562:0:0:0:0:
256,192,168462,1,0,0:0:0:0:
329,192,168562,128,0,168662:0:0:0:0:
36,192,168562,1,0,0:0:0:0:
182,192,168662,128,0,168762:0:0:0:0:
256,192,168662,1,0,0:0:0:0:
36,192,168762,128,0,168862:0:0:0:0:
402,192,168762,1,0,0:0:0:0:
475,192,168762,1,0,0:0:0:0:
256,192,168862,128,0,168962:0:0:0:0:
109,192,168862,1,0,0:0:0:0:
329,192,168962,128,0,169062:0:0:0:0:
182,192,168962,1,0,0:0:0:0:
402,192,169062,128,0,169162:0:0:0:0:
36,192,169062,1,0,0:0:0:0:
475,192,169162,128,0,169262:0:0:0:0:
109,192,169162,1,0,0:0:0:0:
256,192,169162,1,0,0:0:0:0:
329,192,169262,128,0,169362:0:0:0:0:
182,192,169262,1,0,0:0:0:0:
256,192,169362,128,0,169462:0:0:0:0:
109,192,169362,1,0,0:0:0:0:
182,192,169462,128,0,169562:0:0:0:0:
36,192,169462,1,0,0:0:0:0:
109,192,169562,128,0,169662:0:0:0:0:
329,192,169562,1,0,0:0:0:0:
402,192,169562,1,0,0:0:0:0:
256,192,169662,128,0,169762:0:0:0:0:
475,192,169662,1,0,0:0:0:0:
329,192,169762,128,0,169862:0:0:0:0:
36,192,169762,1,0,0:0:0:0:
402,192,169862,128,0,169962:0:0:0:0:
109,192,169862,1,0,0:0:0:0:
475,192,169962,128,0,170062:0:0:0:0:
182,192,169962,1,0,0:0:0:0:
256,192,169962,1,0,0:0:0:0:
329,192,170062,128,0,170162:0:0:0:0:
36,192,170062,1,0,0:0:0:0:
256,192,170162,128,0,170262:0:0:0:0:
182,192,170162,1,0,0:0:0:0:
109,192,170262,128,0,170362:0:0:0:0:
402,192,170262,1,0,0:0:0:0:
182,192,170362,128,0,170462:0:0:0:0:
475,192,170362,1,0,0:0:0:0:
36,192,170362,1,0,0:0:0:0:
329,192,170462,128,0,170562:0:0:0:0:
256,192,170462,1,0,0:0:0:0:
402,192,170562,128,0,170662:0:0:0:0:
109,192,170562,1,0,0:0:0:0:
256,192,170662,128,0,170762:0:0:0:0:
182,192,170662,1,0,0:0:0:0:
36,192,170762,128,0,170862:0:0:0:0:
329,192,170762,1,0,0:0:0:0:
475,192,170762,1,0,0:0:0:0:
109,192,170862,128,0,170962:0:0:0:0:
402,192,170862,1,0,0:0:0:0:
182,192,170962,128,0,171062:0:0:0:0:
256,192,170962,1,0,0:0:0:0:
329,192,171062,128,0,171162:0:0:0:0:
402,192,171062,1,0,0:0:0:0:
109,192,171162,128,0,171262:0:0:0:0:
475,192,171162,1,0,0:0:0:0:
36,192,171162,1,0,0:0:0:0:
256,192,171262,128,0,171362:0:0:0:0:
182,192,171262,1,0,0:0:0:0:
329,192,171362,128,0,171462:0:0:0:0:
36,192,171362,1,0,0:0:0:0:
402,192,171462,128,0,171562:0:0:0:0:
109,192,171462,1,0,0:0:0:0:
182,192,171562,128,0,171662:0:0:0:0:
36,192,171562,1,0,0:0:0:0:
329,192,171562,1,0,0:0:0:0:
256,192,171662,128,0,171762:0:0:0:0:
475,192,171662,1,0,0:0:0:0:
329,192,171762,128,0,171862:0:0:0:0:
109,192,171762,1,0,0:0:0:0:
402,192,171862,128,0,171962:0:0:0:0:
182,192,171862,1,0,0:0:0:0:
475,192,171962,128,0,172062:0:0:0:0:
256,192,171962,1,0,0:0:0:0:
36,192,171962,128,0,172062:0:0:0:0:
329,192,172062,128,0,172162:0:0:0:0:
109,192,172062,128,0,172162:0:0:0:0:
182,192,172162,128,0,172262:0:0:0:0:
256,192,172162,128,0,172262:0:0:0:0:
36,192,172262,128,0,172362:0:0:0:0:
475,192,172262,128,0,172362:0:0:0:0:
402,192,172362,128,0,172462:0:0:0:0:
256,192,172362,1,0,0:0:0:0:
109,192,172362,128,0,172462:0:0:0:0:
329,192,172462,128,0,172562:0:0:0:0:
182,192,172462,128,0,172562:0:0:0:0:
256,192,172562,128,0,172662:0:0:0:0:
109,192,172562,128,0,172662:0:0:0:0:
182,192,172662,128,0,172762:0:0:0:0:
36,192,172662,128,0,172762:0:0:0:0:
329,192,172762,128,0,172862:0:0:0:0:
402,192,172762,1,0,0:0:0:0:
475,192,172762,128,0,172862:0:0:0:0:
256,192,172862,128,0,172962:0:0:0:0:
109,192,172862,128,0,172962:0:0:0:0:
182,192,172962,128,0,173062:0:0:0:0:
402,192,172962,128,0,173062:0:0:0:0:
109,192,173062,128,0,173162:0:0:0:0:
329,192,173062,128,0,173162:0:0:0:0:
36,192,173162,128,0,173262:0:0:0:0:
475,192,173162,1,0,0:0:0:0:
256,192,173162,128,0,173262:0:0:0:0:
329,192,173262,128,0,173362:0:0:0:0:
182,192,173262,128,0,173362:0:0:0:0:
402,192,173362,128,0,173462:0:0:0:0:
109,192,173362,128,0,173462:0:0:0:0:
475,192,173462,128,0,173562:0:0:0:0:
182,192,173462,128,0,173562:0:0:0:0:
256,192,173562,1,0,0:0:0:0:
329,192,173562,1,0,0:0:0:0:
36,192,173562,1,0,0:0:0:0:
36,192,173962,128,0,174362:0:0:0:0:
182,192,173962,128,0,174162:0:0:0:0:
475,192,173962,128,0,174362:0:0:0:0:
329,192,173962,128,0,174162:0:0:0:0:
256,192,173962,128,0,174162:0:0:0:0:
109,192,174362,1,0,0:0:0:0:
402,192,174362,1,0,0:0:0:0:
182,192,174362,1,0,0:0:0:0:
256,192,174428,1,0,0:0:0:0:
475,192,174428,1,0,0:0:0:0:
329,192,174495,1,0,0:0:0:0:
36,192,174495,1,0,0:0:0:0:
109,192,174562,1,0,0:0:0:0:
402,192,174562,1,0,0:0:0:0:
256,192,174628,1,0,0:0:0:0:
182,192,174628,1,0,0:0:0:0:
475,192,174695,1,0,0:0:0:0:
329,192,174695,1,0,0:0:0:0:
402,192,174762,1,0,0:0:0:0:
109,192,174762,1,0,0:0:0:0:
36,192,174762,1,0,0:0:0:0:
182,192,174762,1,0,0:0:0:0:
256,192,174828,1,0,0:0:0:0:
475,192,174828,1,0,0:0:0:0:
329,192,174895,1,0,0:0:0:0:
36,192,174895,1,0,0:0:0:0:
109,192,174962,1,0,0:0:0:0:
402,192,174962,1,0,0:0:0:0:
182,192,175028,1,0,0:0:0:0:
475,192,175028,1,0,0:0:0:0:
36,192,175095,1,0,0:0:0:0:
402,192,175095,1,0,0:0:0:0:
329,192,175162,1,0,0:0:0:0:
256,192,175162,1,0,0:0:0:0:
109,192,175162,1,0,0:0:0:0:
182,192,175162,1,0,0:0:0:0:
36,192,175562,1,0,0:0:0:0:
182,192,175562,1,0,0:0:0:0:
256,192,175562,1,0,0:0:0:0:
402,192,175562,1,0,0:0:0:0:
475,192,175562,1,0,0:0:0:0:
109,192,175962,128,0,176362:0:0:0:0:
182,192,175962,128,0,176362:0:0:0:0:
36,192,175962,128,0,176362:0:0:0:0:
475,192,175962,1,0,0:0:0:0:
256,192,175962,1,0,0:0:0:0:
329,192,175962,1,0,0:0:0:0:
475,192,176362,128,0,176762:0:0:0:0:
402,192,176362,128,0,176762:0:0:0:0:
329,192,176362,128,0,176762:0:0:0:0:
256,192,176762,1,0,0:0:0:0:
109,192,176762,1,0,0:0:0:0:
36,192,176762,1,0,0:0:0:0:
36,192,177162,128,0,177562:0:0:0:0:
109,192,177162,128,0,177362:0:0:0:0:
402,192,177162,128,0,177362:0:0:0:0:
475,192,177162,128,0,177562:0:0:0:0:
182,192,177162,128,0,177362:0:0:0:0:
329,192,177162,128,0,177362:0:0:0:0:
109,192,177562,1,0,0:0:0:0:
182,192,177562,1,0,0:0:0:0:
402,192,177562,1,0,0:0:0:0:
256,192,177562,1,0,0:0:0:0:
329,192,177628,1,0,0:0:0:0:
475,192,177628,1,0,0:0:0:0:
182,192,177695,1,0,0:0:0:0:
36,192,177695,1,0,0:0:0:0:
109,192,177762,1,0,0:0:0:0:
256,192,177762,1,0,0:0:0:0:
402,192,177828,1,0,0:0:0:0:
329,192,177828,1,0,0:0:0:0:
475,192,177895,1,0,0:0:0:0:
182,192,177895,1,0,0:0:0:0:
36,192,177962,1,0,0:0:0:0:
109,192,177962,1,0,0:0:0:0:
256,192,177962,1,0,0:0:0:0:
402,192,177962,1,0,0:0:0:0:
329,192,178028,1,0,0:0:0:0:
182,192,178028,1,0,0:0:0:0:
256,192,178095,1,0,0:0:0:0:
402,192,178095,1,0,0:0:0:0:
475,192,178162,1,0,0:0:0:0:
36,192,178162,1,0,0:0:0:0:
109,192,178228,1,0,0:0:0:0:
329,192,178228,1,0,0:0:0:0:
182,192,178295,1,0,0:0:0:0:
402,192,178295,1,0,0:0:0:0:
256,192,178362,1,0,0:0:0:0:
329,192,178362,1,0,0:0:0:0:
475,192,178362,1,0,0:0:0:0:
36,192,178362,1,0,0:0:0:0:
36,192,178762,128,0,179162:0:0:0:0:
109,192,178762,128,0,179562:0:0:0:0:
182,192,178762,1,0,0:0:0:0:
329,192,178762,1,0,0:0:0:0:
475,192,178762,1,0,0:0:0:0:
256,192,179162,128,0,179562:0:0:0:0:
329,192,179162,128,0,179962:0:0:0:0:
402,192,179162,1,0,0:0:0:0:
475,192,179162,1,0,0:0:0:0:
475,192,179562,128,0,179962:0:0:0:0:
182,192,179562,128,0,180362:0:0:0:0:
36,192,179562,1,0,0:0:0:0:
36,192,179962,128,0,180762:0:0:0:0:
256,192,179962,128,0,180362:0:0:0:0:
402,192,179962,1,0,0:0:0:0:
109,192,180362,128,0,181162:0:0:0:0:
329,192,180362,128,0,180762:0:0:0:0:
475,192,180362,1,0,0:0:0:0:
475,192,180762,128,0,181562:0:0:0:0:
256,192,180762,128,0,181162:0:0:0:0:
402,192,180762,1,0,0:0:0:0:
402,192,181162,128,0,181562:0:0:0:0:
182,192,181162,128,0,181962:0:0:0:0:
329,192,181162,1,0,0:0:0:0:
329,192,181562,128,0,181962:0:0:0:0:
36,192,181562,1,0,0:0:0:0:
109,192,181562,128,0,182362:0:0:0:0:
475,192,181962,128,0,182762:0:0:0:0:
256,192,181962,1,0,0:0:0:0:
329,192,182362,128,0,182762:0:0:0:0:
256,192,182362,128,0,183162:0:0:0:0:
402,192,182362,1,0,0:0:0:0:
36,192,182762,128,0,183162:0:0:0:0:
109,192,182762,1,0,0:0:0:0:
182,192,182762,1,0,0:0:0:0:
182,192,183162,1,0,0:0:0:0:
402,192,183162,1,0,0:0:0:0:
475,192,183162,1,0,0:0:0:0:
182,192,183362,1,0,0:0:0:0:
109,192,183362,1,0,0:0:0:0:
256,192,183362,1,0,0:0:0:0:
329,192,183462,1,0,0:0:0:0:
475,192,183462,1,0,0:0:0:0:
402,192,183462,1,0,0:0:0:0:
36,192,183562,1,0,0:0:0:0:
182,192,183562,1,0,0:0:0:0:
475,192,183562,1,0,0:0:0:0:
109,192,183562,1,0,0:0:0:0:
256,192,183562,1,0,0:0:0:0:
36,192,183862,1,0,0:0:0:0:
109,192,183862,1,0,0:0:0:0:
256,192,183862,1,0,0:0:0:0:
402,192,183862,1,0,0:0:0:0:
475,192,183862,1,0,0:0:0:0:
36,192,183962,128,0,184162:0:0:0:0:
109,192,183962,128,0,184362:0:0:0:0:
256,192,183962,128,0,184362:0:0:0:0:
402,192,183962,128,0,184362:0:0:0:0:
475,192,183962,128,0,184162:0:0:0:0:
36,192,184362,1,0,0:0:0:0:
182,192,184362,1,0,0:0:0:0:
329,192,184362,1,0,0:0:0:0:
475,192,184362,1,0,0:0:0:0:
402,192,184462,1,0,0:0:0:0:
256,192,184462,1,0,0:0:0:0:
109,192,184462,1,0,0:0:0:0:
36,192,184562,1,0,0:0:0:0:
475,192,184562,1,0,0:0:0:0:
109,192,184662,1,0,0:0:0:0:
182,192,184662,1,0,0:0:0:0:
329,192,184662,1,0,0:0:0:0:
402,192,184762,1,0,0:0:0:0:
475,192,184762,1,0,0:0:0:0:
256,192,184762,1,0,0:0:0:0:
36,192,184762,1,0,0:0:0:0:
182,192,184862,1,0,0:0:0:0:
329,192,184862,1,0,0:0:0:0:
109,192,184862,1,0,0:0:0:0:
256,192,184962,1,0,0:0:0:0:
475,192,184962,1,0,0:0:0:0:
402,192,185062,1,0,0:0:0:0:
36,192,185062,1,0,0:0:0:0:
109,192,185062,1,0,0:0:0:0:
182,192,185162,1,0,0:0:0:0:
256,192,185162,1,0,0:0:0:0:
475,192,185162,1,0,0:0:0:0:
329,192,185162,1,0,0:0:0:0:
36,192,185462,1,0,0:0:0:0:
182,192,185462,1,0,0:0:0:0:
256,192,185462,1,0,0:0:0:0:
329,192,185462,1,0,0:0:0:0:
475,192,185462,1,0,0:0:0:0:
36,192,185562,128,0,185962:0:0:0:0:
182,192,185562,128,0,185762:0:0:0:0:
256,192,185562,128,0,185962:0:0:0:0:
329,192,185562,128,0,185762:0:0:0:0:
475,192,185562,128,0,185962:0:0:0:0:
109,192,185962,1,0,0:0:0:0:
182,192,185962,1,0,0:0:0:0:
329,192,185962,1,0,0:0:0:0:
402,192,185962,1,0,0:0:0:0:
475,192,186062,1,0,0:0:0:0:
256,192,186062,1,0,0:0:0:0:
36,192,186062,1,0,0:0:0:0:
109,192,186162,1,0,0:0:0:0:
402,192,186162,1,0,0:0:0:0:
329,192,186262,1,0,0:0:0:0:
182,192,186262,1,0,0:0:0:0:
256,192,186262,1,0,0:0:0:0:
36,192,186362,1,0,0:0:0:0:
109,192,186362,1,0,0:0:0:0:
402,192,186362,1,0,0:0:0:0:
475,192,186362,1,0,0:0:0:0:
329,192,186462,1,0,0:0:0:0:
256,192,186462,1,0,0:0:0:0:
182,192,186462,1,0,0:0:0:0:
109,192,186562,1,0,0:0:0:0:
402,192,186562,1,0,0:0:0:0:
36,192,186662,1,0,0:0:0:0:
475,192,186662,1,0,0:0:0:0:
256,192,186662,1,0,0:0:0:0:
182,192,186762,1,0,0:0:0:0:
109,192,186762,1,0,0:0:0:0:
329,192,186762,1,0,0:0:0:0:
402,192,186762,1,0,0:0:0:0:
109,192,187062,1,0,0:0:0:0:
402,192,187062,1,0,0:0:0:0:
256,192,187062,1,0,0:0:0:0:
182,192,187062,1,0,0:0:0:0:
329,192,187062,1,0,0:0:0:0:
109,192,187162,128,0,187562:0:0:0:0:
182,192,187162,128,0,187362:0:0:0:0:
256,192,187162,128,0,187562:0:0:0:0:
329,192,187162,128,0,187362:0:0:0:0:
402,192,187162,128,0,187562:0:0:0:0:
36,192,187562,1,0,0:0:0:0:
182,192,187562,1,0,0:0:0:0:
329,192,187562,1,0,0:0:0:0:
475,192,187562,1,0,0:0:0:0:
402,192,187662,1,0,0:0:0:0:
256,192,187662,1,0,0:0:0:0:
109,192,187662,1,0,0:0:0:0:
182,192,187762,1,0,0:0:0:0:
329,192,187762,1,0,0:0:0:0:
475,192,187862,1,0,0:0:0:0:
402,192,187862,1,0,0:0:0:0:
109,192,187862,1,0,0:0:0:0:
36,192,187962,1,0,0:0:0:0:
182,192,187962,1,0,0:0:0:0:
256,192,187962,1,0,0:0:0:0:
329,192,187962,1,0,0:0:0:0:
109,192,188062,1,0,0:0:0:0:
402,192,188062,1,0,0:0:0:0:
475,192,188062,1,0,0:0:0:0:
256,192,188162,1,0,0:0:0:0:
182,192,188162,1,0,0:0:0:0:
402,192,188262,1,0,0:0:0:0:
475,192,188262,1,0,0:0:0:0:
36,192,188262,1,0,0:0:0:0:
109,192,188362,1,0,0:0:0:0:
182,192,188362,1,0,0:0:0:0:
329,192,188362,1,0,0:0:0:0:
256,192,188362,1,0,0:0:0:0:
402,192,188462,1,0,0:0:0:0:
36,192,188462,1,0,0:0:0:0:
109,192,188562,1,0,0:0:0:0:
256,192,188562,1,0,0:0:0:0:
475,192,188562,1,0,0:0:0:0:
329,192,188662,1,0,0:0:0:0:
182,192,188662,1,0,0:0:0:0:
109,192,188762,1,0,0:0:0:0:
36,192,188762,1,0,0:0:0:0:
256,192,188762,1,0,0:0:0:0:
402,192,188762,1,0,0:0:0:0:
475,192,188762,1,0,0:0:0:0:
329,192,188862,1,0,0:0:0:0:
182,192,188862,1,0,0:0:0:0:
109,192,188962,1,0,0:0:0:0:
36,192,188962,1,0,0:0:0:0:
475,192,188962,1,0,0:0:0:0:
402,192,189062,1,0,0:0:0:0:
256,192,189062,1,0,0:0:0:0:
109,192,189162,1,0,0:0:0:0:
36,192,189162,1,0,0:0:0:0:
182,192,189162,1,0,0:0:0:0:
329,192,189162,1,0,0:0:0:0:
475,192,189162,1,0,0:0:0:0:
256,192,189262,1,0,0:0:0:0:
402,192,189262,1,0,0:0:0:0:
36,192,189362,1,0,0:0:0:0:
182,192,189362,1,0,0:0:0:0:
329,192,189362,1,0,0:0:0:0:
109,192,189462,1,0,0:0:0:0:
475,192,189462,1,0,0:0:0:0:
402,192,189562,1,0,0:0:0:0:
329,192,189562,1,0,0:0:0:0:
256,192,189562,1,0,0:0:0:0:
36,192,189562,1,0,0:0:0:0:
182,192,189562,1,0,0:0:0:0:
475,192,189662,1,0,0:0:0:0:
109,192,189662,1,0,0:0:0:0:
182,192,189762,1,0,0:0:0:0:
402,192,189762,1,0,0:0:0:0:
329,192,189762,1,0,0:0:0:0:
256,192,189862,1,0,0:0:0:0:
36,192,189862,1,0,0:0:0:0:
109,192,189962,1,0,0:0:0:0:
182,192,189962,1,0,0:0:0:0:
329,192,189962,1,0,0:0:0:0:
402,192,189962,1,0,0:0:0:0:
475,192,189962,1,0,0:0:0:0:
256,192,190062,1,0,0:0:0:0:
36,192,190062,1,0,0:0:0:0:
109,192,190162,1,0,0:0:0:0:
475,192,190162,1,0,0:0:0:0:
329,192,190162,1,0,0:0:0:0:
402,192,190262,1,0,0:0:0:0:
182,192,190262,1,0,0:0:0:0:
256,192,190362,1,0,0:0:0:0:
329,192,190362,1,0,0:0:0:0:
475,192,190362,1,0,0:0:0:0:
36,192,190362,1,0,0:0:0:0:
109,192,190362,1,0,0:0:0:0:
182,192,190462,1,0,0:0:0:0:
402,192,190462,1,0,0:0:0:0:
256,192,190562,1,0,0:0:0:0:
475,192,190562,1,0,0:0:0:0:
329,192,190562,1,0,0:0:0:0:
109,192,190662,1,0,0:0:0:0:
36,192,190662,1,0,0:0:0:0:
182,192,190762,1,0,0:0:0:0:
329,192,190762,1,0,0:0:0:0:
402,192,190762,1,0,0:0:0:0:
475,192,190762,1,0,0:0:0:0:
256,192,190762,1,0,0:0:0:0:
109,192,190862,1,0,0:0:0:0:
36,192,190862,1,0,0:0:0:0:
256,192,190962,1,0,0:0:0:0:
475,192,190962,1,0,0:0:0:0:
402,192,190962,1,0,0:0:0:0:
329,192,191062,1,0,0:0:0:0:
182,192,191062,1,0,0:0:0:0:
109,192,191162,1,0,0:0:0:0:
36,192,191162,1,0,0:0:0:0:
256,192,191162,1,0,0:0:0:0:
402,192,191162,1,0,0:0:0:0:
475,192,191162,1,0,0:0:0:0:
329,192,191262,1,0,0:0:0:0:
182,192,191262,1,0,0:0:0:0:
256,192,191362,1,0,0:0:0:0:
109,192,191362,1,0,0:0:0:0:
36,192,191362,1,0,0:0:0:0:
475,192,191462,1,0,0:0:0:0:
402,192,191462,1,0,0:0:0:0:
329,192,191562,1,0,0:0:0:0:
256,192,191562,1,0,0:0:0:0:
182,192,191562,1,0,0:0:0:0:
109,192,191562,1,0,0:0:0:0:
36,192,191562,1,0,0:0:0:0:
475,192,191662,1,0,0:0:0:0:
402,192,191662,1,0,0:0:0:0:
329,192,191762,1,0,0:0:0:0:
109,192,191762,1,0,0:0:0:0:
256,192,191762,1,0,0:0:0:0:
182,192,191862,1,0,0:0:0:0:
36,192,191862,1,0,0:0:0:0:
109,192,191962,1,0,0:0:0:0:
256,192,191962,1,0,0:0:0:0:
329,192,191962,1,0,0:0:0:0:
475,192,191962,1,0,0:0:0:0:
402,192,191962,1,0,0:0:0:0:
182,192,192062,1,0,0:0:0:0:
36,192,192062,1,0,0:0:0:0:
475,192,192162,1,0,0:0:0:0:
256,192,192162,1,0,0:0:0:0:
402,192,192162,1,0,0:0:0:0:
329,192,192262,1,0,0:0:0:0:
109,192,192262,1,0,0:0:0:0:
182,192,192362,1,0,0:0:0:0:
256,192,192362,1,0,0:0:0:0:
475,192,192362,1,0,0:0:0:0:
402,192,192362,1,0,0:0:0:0:
36,192,192362,1,0,0:0:0:0:
109,192,192462,1,0,0:0:0:0:
329,192,192462,1,0,0:0:0:0:
256,192,192562,1,0,0:0:0:0:
475,192,192562,1,0,0:0:0:0:
36,192,192562,1,0,0:0:0:0:
109,192,192662,1,0,0:0:0:0:
402,192,192662,1,0,0:0:0:0:
329,192,192762,1,0,0:0:0:0:
256,192,192762,1,0,0:0:0:0:
182,192,192762,1,0,0:0:0:0:
36,192,192762,1,0,0:0:0:0:
475,192,192762,1,0,0:0:0:0:
402,192,192862,1,0,0:0:0:0:
109,192,192862,1,0,0:0:0:0:
182,192,192962,1,0,0:0:0:0:
256,192,192962,1,0,0:0:0:0:
475,192,192962,1,0,0:0:0:0:
329,192,193062,1,0,0:0:0:0:
36,192,193062,1,0,0:0:0:0:
256,192,193162,1,0,0:0:0:0:
475,192,193162,128,0,196362:0:0:0:0:
109,192,193162,128,0,198915:0:0:0:0:
182,192,193162,128,0,193962:0:0:0:0:
402,192,193162,128,0,193962:0:0:0:0:
36,192,193962,128,0,196362:0:0:0:0:
329,192,193962,128,0,198915:0:0:0:0:
256,192,193962,1,0,0:0:0:0:
256,192,195028,1,0,0:0:0:0:
256,192,195295,1,0,0:0:0:0:
256,192,195562,1,0,0:0:0:0:
256,192,195828,1,0,0:0:0:0:
256,192,196095,1,0,0:0:0:0:
256,192,196362,128,0,198915:0:0:0:0:
182,192,196362,128,0,198915:0:0:0:0:
402,192,196362,128,0,198915:0:0:0:0:
36,192,202807,128,0,204083:0:0:0:0:
475,192,202807,128,0,203658:0:0:0:0:
109,192,203232,128,0,205360:0:0:0:0:
402,192,203232,128,0,204083:0:0:0:0:
182,192,203658,128,0,204934:0:0:0:0:
329,192,203658,128,0,204509:0:0:0:0:
256,192,204083,128,0,204509:0:0:0:0:
475,192,204083,128,0,204934:0:0:0:0:
402,192,204509,128,0,205572:0:0:0:0:
36,192,204509,128,0,205360:0:0:0:0:
329,192,204934,128,0,205785:0:0:0:0:
256,192,204934,128,0,205572:0:0:0:0:
182,192,205360,128,0,205998:0:0:0:0:
475,192,205360,128,0,206636:0:0:0:0:
109,192,205572,128,0,205998:0:0:0:0:
402,192,205785,128,0,206636:0:0:0:0:
256,192,205785,128,0,206211:0:0:0:0:
329,192,205998,128,0,207062:0:0:0:0:
182,192,206211,128,0,206636:0:0:0:0:
109,192,206211,128,0,207913:0:0:0:0:
36,192,206636,128,0,207487:0:0:0:0:
256,192,206636,128,0,208338:0:0:0:0:
182,192,207062,128,0,207487:0:0:0:0:
402,192,207062,128,0,208338:0:0:0:0:
329,192,207487,128,0,207913:0:0:0:0:
475,192,207487,128,0,208764:0:0:0:0:
36,192,207913,128,0,210068:0:0:0:0:
182,192,207913,128,0,208764:0:0:0:0:
329,192,208338,128,0,208764:0:0:0:0:
109,192,208338,128,0,208977:0:0:0:0:
256,192,208764,128,0,209189:0:0:0:0:
402,192,208764,128,0,209416:0:0:0:0:
182,192,208977,128,0,209416:0:0:0:0:
109,192,209189,128,0,209855:0:0:0:0:
329,192,209189,128,0,209855:0:0:0:0:
256,192,209416,128,0,210068:0:0:0:0:
182,192,209643,128,0,211132:0:0:0:0:
402,192,209643,128,0,210919:0:0:0:0:
109,192,210068,128,0,210706:0:0:0:0:
329,192,210068,128,0,211345:0:0:0:0:
256,192,210281,128,0,210919:0:0:0:0:
475,192,210494,128,0,210919:0:0:0:0:
36,192,210919,128,0,211770:0:0:0:0:
109,192,210919,128,0,211345:0:0:0:0:
256,192,211132,128,0,212196:0:0:0:0:
402,192,211345,128,0,212196:0:0:0:0:
182,192,211345,128,0,213472:0:0:0:0:
475,192,211770,128,0,212621:0:0:0:0:
109,192,211770,128,0,212196:0:0:0:0:
36,192,212196,128,0,213047:0:0:0:0:
329,192,212196,128,0,213898:0:0:0:0:
109,192,212621,128,0,217785:0:0:0:0:
402,192,212621,128,0,213898:0:0:0:0:
256,192,213047,128,0,213472:0:0:0:0:
475,192,213047,128,0,214749:0:0:0:0:
36,192,213472,128,0,214749:0:0:0:0:
182,192,213898,128,0,214323:0:0:0:0:
256,192,213898,128,0,214749:0:0:0:0:
329,192,214323,128,0,216025:0:0:0:0:
182,192,214749,128,0,216025:0:0:0:0:
402,192,214749,128,0,216025:0:0:0:0:
36,192,215174,128,0,216479:0:0:0:0:
475,192,216025,128,0,216479:0:0:0:0:
256,192,216025,128,0,216479:0:0:0:0:
182,192,216479,128,0,216934:0:0:0:0:
329,192,216479,128,0,217785:0:0:0:0:
402,192,216479,128,0,217359:0:0:0:0:
36,192,216934,128,0,219061:0:0:0:0:
256,192,216934,128,0,217359:0:0:0:0:
182,192,217359,128,0,218210:0:0:0:0:
475,192,217359,128,0,217785:0:0:0:0:
402,192,217785,128,0,218636:0:0:0:0:
256,192,217785,128,0,219699:0:0:0:0:
109,192,218210,128,0,218636:0:0:0:0:
329,192,218210,128,0,218636:0:0:0:0:
475,192,218636,128,0,219061:0:0:0:0:
182,192,218636,128,0,219699:0:0:0:0:
402,192,219061,128,0,219487:0:0:0:0:
109,192,219061,128,0,219487:0:0:0:0:
329,192,219274,128,0,221614:0:0:0:0:
475,192,219487,128,0,219912:0:0:0:0:
36,192,219487,128,0,219912:0:0:0:0:
109,192,219699,128,0,221189:0:0:0:0:
182,192,219912,128,0,220338:0:0:0:0:
402,192,219912,128,0,220763:0:0:0:0:
36,192,220338,128,0,222465:0:0:0:0:
256,192,220338,128,0,220763:0:0:0:0:
182,192,220763,128,0,221189:0:0:0:0:
475,192,220763,128,0,221614:0:0:0:0:
402,192,221189,128,0,222465:0:0:0:0:
256,192,221189,128,0,221614:0:0:0:0:
109,192,221614,128,0,222040:0:0:0:0:
182,192,221614,128,0,222891:0:0:0:0:
256,192,222040,128,0,222891:0:0:0:0:
329,192,222040,128,0,222465:0:0:0:0:
109,192,222465,128,0,222891:0:0:0:0:
475,192,222465,128,0,224168:0:0:0:0:
402,192,222678,128,0,223104:0:0:0:0:
329,192,222891,128,0,223316:0:0:0:0:
36,192,222891,128,0,223742:0:0:0:0:
182,192,223104,128,0,223742:0:0:0:0:
256,192,223316,128,0,224593:0:0:0:0:
402,192,223316,128,0,223742:0:0:0:0:
109,192,223742,128,0,224593:0:0:0:0:
329,192,223742,128,0,224593:0:0:0:0:
402,192,224168,128,0,224593:0:0:0:0:
182,192,224168,128,0,224593:0:0:0:0:
36,192,224593,128,0,225870:0:0:0:0:
475,192,224593,128,0,225870:0:0:0:0:
109,192,224735,128,0,225444:0:0:0:0:
402,192,224735,128,0,225444:0:0:0:0:
182,192,224877,128,0,225019:0:0:0:0:
329,192,224877,128,0,225019:0:0:0:0:
256,192,225019,128,0,226295:0:0:0:0:
182,192,225444,128,0,226756:0:0:0:0:
329,192,225444,128,0,226756:0:0:0:0:
109,192,225870,128,0,226295:0:0:0:0:
402,192,225870,128,0,226295:0:0:0:0:
475,192,226295,128,0,228032:0:0:0:0:
36,192,226295,128,0,227607:0:0:0:0:
109,192,226756,128,0,228032:0:0:0:0:
256,192,226756,128,0,227181:0:0:0:0:
402,192,226756,128,0,228032:0:0:0:0:
182,192,227181,128,0,230693:0:0:0:0:
256,192,227607,128,0,228883:0:0:0:0:
329,192,227607,128,0,228458:0:0:0:0:
36,192,228032,128,0,228458:0:0:0:0:
109,192,228458,128,0,231155:0:0:0:0:
402,192,228458,128,0,230693:0:0:0:0:
36,192,228883,128,0,229770:0:0:0:0:
256,192,229309,128,0,230232:0:0:0:0:
329,192,229309,128,0,230232:0:0:0:0:
36,192,230232,128,0,232006:0:0:0:0:
475,192,230289,128,0,231155:0:0:0:0:
256,192,230693,128,0,231580:0:0:0:0:
329,192,230924,128,0,232431:0:0:0:0:
402,192,231155,128,0,231580:0:0:0:0:
182,192,231155,128,0,231580:0:0:0:0:
109,192,231580,128,0,232431:0:0:0:0:
475,192,231580,128,0,232431:0:0:0:0:
182,192,232006,128,0,232857:0:0:0:0:
256,192,232006,128,0,233282:0:0:0:0:
36,192,232431,128,0,233282:0:0:0:0:
402,192,232431,128,0,233282:0:0:0:0:
329,192,232857,128,0,234559:0:0:0:0:
109,192,232857,128,0,234133:0:0:0:0:
182,192,233282,128,0,237112:0:0:0:0:
475,192,233495,128,0,234133:0:0:0:0:
402,192,233708,128,0,234559:0:0:0:0:
36,192,234133,128,0,234559:0:0:0:0:
256,192,234346,128,0,235410:0:0:0:0:
109,192,234559,128,0,235835:0:0:0:0:
475,192,234559,128,0,237537:0:0:0:0:
329,192,235410,128,0,236261:0:0:0:0:
36,192,235835,128,0,236686:0:0:0:0:
402,192,236261,128,0,237537:0:0:0:0:
109,192,236686,128,0,237991:0:0:0:0:
36,192,237112,128,0,238896:0:0:0:0:
329,192,237112,128,0,238435:0:0:0:0:
256,192,237537,128,0,237991:0:0:0:0:
182,192,237991,128,0,238435:0:0:0:0:
475,192,237991,128,0,239783:0:0:0:0:
256,192,238435,128,0,240634:0:0:0:0:
329,192,238665,128,0,239358:0:0:0:0:
402,192,238896,128,0,241060:0:0:0:0:
109,192,238896,128,0,240209:0:0:0:0:
36,192,239358,128,0,242336:0:0:0:0:
329,192,239783,128,0,241060:0:0:0:0:
182,192,240209,128,0,241060:0:0:0:0:
475,192,240634,128,0,241485:0:0:0:0:
256,192,241060,128,0,241911:0:0:0:0:
329,192,241272,128,0,241485:0:0:0:0:
402,192,241485,128,0,243187:0:0:0:0:
182,192,241485,128,0,242762:0:0:0:0:
329,192,241911,128,0,243187:0:0:0:0:
475,192,242123,128,0,244741:0:0:0:0:
109,192,242336,128,0,243187:0:0:0:0:
256,192,242336,128,0,242762:0:0:0:0:
36,192,242762,128,0,245889:0:0:0:0:
256,192,243187,128,0,244501:0:0:0:0:
109,192,243613,128,0,244501:0:0:0:0:
329,192,244057,128,0,245461:0:0:0:0:
402,192,244501,128,0,244741:0:0:0:0:
256,192,244741,128,0,244981:0:0:0:0:
109,192,244981,128,0,246318:0:0:0:0:
402,192,245041,128,0,248032:0:0:0:0:
256,192,245461,128,0,248032:0:0:0:0:
182,192,245889,128,0,246318:0:0:0:0:
475,192,245889,128,0,247603:0:0:0:0:
36,192,246318,128,0,247175:0:0:0:0:
182,192,246746,128,0,247603:0:0:0:0:
109,192,247175,128,0,248032:0:0:0:0:
36,192,247603,128,0,248486:0:0:0:0:
182,192,248032,128,0,248941:0:0:0:0:
475,192,248032,128,0,249366:0:0:0:0:
402,192,248486,128,0,251585:0:0:0:0:
256,192,248486,128,0,249820:0:0:0:0:
109,192,248941,128,0,250728:0:0:0:0:
329,192,249366,128,0,250300:0:0:0:0:
182,192,249820,128,0,251157:0:0:0:0:
475,192,250300,128,0,252902:0:0:0:0:
36,192,250728,128,0,252014:0:0:0:0:
109,192,251157,128,0,252458:0:0:0:0:
182,192,251585,128,0,254206:0:0:0:0:
256,192,252014,128,0,253771:0:0:0:0:
329,192,252458,128,0,253336:0:0:0:0:
402,192,252902,128,0,255510:0:0:0:0:
475,192,253336,128,0,254641:0:0:0:0:
329,192,253771,128,0,257315:0:0:0:0:
256,192,254206,128,0,255075:0:0:0:0:
182,192,254641,128,0,257315:0:0:0:0:
109,192,255075,128,0,255510:0:0:0:0:
36,192,255510,128,0,257315:0:0:0:0:
475,192,255510,128,0,257315:0:0:0:0:
109,192,255945,128,0,256162:0:0:0:0:
256,192,256162,128,0,256380:0:0:0:0:
402,192,256380,128,0,256597:0:0:0:0:
109,192,256597,128,0,256815:0:0:0:0:
256,192,256815,128,0,257065:0:0:0:0:
402,192,257065,128,0,257315:0:0:0:0:
109,192,257315,128,0,258633:0:0:0:0:
256,192,257315,128,0,258204:0:0:0:0:
182,192,257776,128,0,258633:0:0:0:0:
402,192,257776,1,0,0:0:0:0:
329,192,258204,128,0,259515:0:0:0:0:
475,192,258204,1,0,0:0:0:0:
475,192,258633,1,0,0:0:0:0:
36,192,258633,128,0,259061:0:0:0:0:
256,192,258633,128,0,259061:0:0:0:0:
402,192,259061,128,0,259943:0:0:0:0:
475,192,259061,128,0,259515:0:0:0:0:
182,192,259061,1,0,0:0:0:0:
256,192,259515,128,0,259943:0:0:0:0:
182,192,259515,128,0,259943:0:0:0:0:
36,192,259515,1,0,0:0:0:0:
36,192,259943,128,0,260800:0:0:0:0:
109,192,259943,1,0,0:0:0:0:
329,192,259943,128,0,260229:0:0:0:0:
256,192,260229,128,0,260515:0:0:0:0:
182,192,260515,128,0,260800:0:0:0:0:
329,192,260657,128,0,260800:0:0:0:0:
475,192,260800,128,0,262564:0:0:0:0:
256,192,260800,128,0,261682:0:0:0:0:
109,192,260800,1,0,0:0:0:0:
182,192,261241,128,0,262123:0:0:0:0:
36,192,261241,1,0,0:0:0:0:
329,192,261682,128,0,262564:0:0:0:0:
402,192,261682,1,0,0:0:0:0:
109,192,262123,1,0,0:0:0:0:
256,192,262123,128,0,263005:0:0:0:0:
36,192,262564,128,0,263439:0:0:0:0:
402,192,262564,128,0,263005:0:0:0:0:
182,192,262564,1,0,0:0:0:0:
182,192,263005,128,0,263439:0:0:0:0:
329,192,263005,128,0,263439:0:0:0:0:
475,192,263005,1,0,0:0:0:0:
256,192,263439,128,0,264309:0:0:0:0:
402,192,263439,128,0,263729:0:0:0:0:
109,192,263439,1,0,0:0:0:0:
182,192,263729,128,0,264019:0:0:0:0:
475,192,264019,128,0,264309:0:0:0:0:
329,192,264164,128,0,264309:0:0:0:0:
402,192,264309,128,0,265613:0:0:0:0:
36,192,264309,128,0,264744:0:0:0:0:
109,192,264336,1,0,0:0:0:0:
182,192,264363,1,0,0:0:0:0:
329,192,264744,128,0,265613:0:0:0:0:
256,192,265178,128,0,265613:0:0:0:0:
475,192,265613,128,0,266048:0:0:0:0:
36,192,265613,128,0,266048:0:0:0:0:
182,192,265613,1,0,0:0:0:0:
109,192,265831,128,0,266048:0:0:0:0:
402,192,265831,128,0,266048:0:0:0:0:
329,192,265831,1,0,0:0:0:0:
182,192,266048,128,0,266918:0:0:0:0:
329,192,266048,128,0,266918:0:0:0:0:
256,192,266048,1,0,0:0:0:0:
256,192,266483,128,0,266918:0:0:0:0:
36,192,266483,1,0,0:0:0:0:
109,192,266918,128,0,267787:0:0:0:0:
402,192,266918,128,0,267787:0:0:0:0:
36,192,266918,1,0,0:0:0:0:
256,192,267352,128,0,267787:0:0:0:0:
182,192,267352,1,0,0:0:0:0:
329,192,267787,128,0,269091:0:0:0:0:
36,192,267787,128,0,268222:0:0:0:0:
475,192,267787,1,0,0:0:0:0:
182,192,268222,128,0,268657:0:0:0:0:
256,192,268222,1,0,0:0:0:0:
402,192,268657,128,0,269091:0:0:0:0:
36,192,268657,128,0,269091:0:0:0:0:
475,192,268657,1,0,0:0:0:0:
256,192,268874,1,0,0:0:0:0:
182,192,269091,1,0,0:0:0:0:
109,192,269091,128,0,269961:0:0:0:0:
475,192,269091,128,0,269961:0:0:0:0:
402,192,269526,128,0,269961:0:0:0:0:
256,192,269526,1,0,0:0:0:0:
36,192,269961,128,0,270396:0:0:0:0:
256,192,269961,128,0,270178:0:0:0:0:
329,192,269961,1,0,0:0:0:0:
182,192,270178,128,0,270396:0:0:0:0:
109,192,270396,128,0,270831:0:0:0:0:
329,192,270396,128,0,270613:0:0:0:0:
402,192,270396,1,0,0:0:0:0:
256,192,270613,128,0,270831:0:0:0:0:
402,192,270831,128,0,271058:0:0:0:0:
182,192,270831,128,0,271285:0:0:0:0:
475,192,270831,1,0,0:0:0:0:
329,192,271058,128,0,271285:0:0:0:0:
475,192,271285,128,0,273025:0:0:0:0:
402,192,271285,128,0,271740:0:0:0:0:
36,192,271285,1,0,0:0:0:0:
182,192,271740,128,0,272168:0:0:0:0:
109,192,271740,1,0,0:0:0:0:
329,192,272168,128,0,272597:0:0:0:0:
256,192,272168,1,0,0:0:0:0:
36,192,272168,128,0,273025:0:0:0:0:
256,192,272597,128,0,273025:0:0:0:0:
109,192,272597,1,0,0:0:0:0:
109,192,273025,128,0,274762:0:0:0:0:
329,192,273025,128,0,273882:0:0:0:0:
182,192,273025,1,0,0:0:0:0:
402,192,273025,128,0,273454:0:0:0:0:
475,192,273454,128,0,273882:0:0:0:0:
256,192,273454,1,0,0:0:0:0:
402,192,273882,128,0,274762:0:0:0:0:
256,192,273882,128,0,274168:0:0:0:0:
182,192,274168,128,0,274461:0:0:0:0:
329,192,274461,128,0,274762:0:0:0:0:
256,192,274611,128,0,274762:0:0:0:0:
475,192,274762,128,0,275641:0:0:0:0:
36,192,274762,1,0,0:0:0:0:
109,192,275213,1,0,0:0:0:0:
256,192,275213,128,0,275641:0:0:0:0:
182,192,275641,128,0,276498:0:0:0:0:
329,192,275641,128,0,276070:0:0:0:0:
36,192,275641,1,0,0:0:0:0:
402,192,276070,128,0,276498:0:0:0:0:
109,192,276070,1,0,0:0:0:0:
256,192,276498,128,0,278213:0:0:0:0:
475,192,276498,128,0,277355:0:0:0:0:
36,192,276498,1,0,0:0:0:0:
329,192,276927,128,0,277355:0:0:0:0:
182,192,276927,1,0,0:0:0:0:
36,192,277355,128,0,278213:0:0:0:0:
402,192,277355,128,0,277641:0:0:0:0:
109,192,277355,1,0,0:0:0:0:
329,192,277641,128,0,277927:0:0:0:0:
109,192,277927,128,0,278213:0:0:0:0:
182,192,278070,128,0,278213:0:0:0:0:
402,192,278213,128,0,279101:0:0:0:0:
329,192,278213,1,0,0:0:0:0:
475,192,278213,128,0,278657:0:0:0:0:
256,192,278657,128,0,279546:0:0:0:0:
182,192,278657,1,0,0:0:0:0:
329,192,279101,128,0,280831:0:0:0:0:
182,192,279101,128,0,279546:0:0:0:0:
109,192,279101,1,0,0:0:0:0:
36,192,279546,1,0,0:0:0:0:
475,192,279546,128,0,279974:0:0:0:0:
109,192,279688,1,0,0:0:0:0:
256,192,279831,1,0,0:0:0:0:
402,192,279974,128,0,280403:0:0:0:0:
182,192,279974,1,0,0:0:0:0:
109,192,280403,128,0,280831:0:0:0:0:
36,192,280403,1,0,0:0:0:0:
475,192,280831,128,0,281694:0:0:0:0:
256,192,280831,1,0,0:0:0:0:
402,192,280831,128,0,281260:0:0:0:0:
36,192,281260,128,0,281694:0:0:0:0:
182,192,281260,1,0,0:0:0:0:
109,192,281404,1,0,0:0:0:0:
182,192,281513,1,0,0:0:0:0:
256,192,281613,1,0,0:0:0:0:
402,192,281694,128,0,282155:0:0:0:0:
109,192,281694,128,0,282617:0:0:0:0:
329,192,281694,1,0,0:0:0:0:
182,192,282155,128,0,282617:0:0:0:0:
36,192,282617,128,0,283486:0:0:0:0:
329,192,282617,128,0,283486:0:0:0:0:
109,192,283486,128,0,284356:0:0:0:0:
402,192,283486,128,0,284356:0:0:0:0:
256,192,283921,1,0,0:0:0:0:
475,192,284356,128,0,285270:0:0:0:0:
182,192,284356,128,0,285270:0:0:0:0:
329,192,284356,1,0,0:0:0:0:
402,192,284573,1,0,0:0:0:0:
329,192,284682,1,0,0:0:0:0:
109,192,284790,1,0,0:0:0:0:
256,192,284950,1,0,0:0:0:0:
256,192,285110,1,0,0:0:0:0:
402,192,285270,1,0,0:0:0:0:
109,192,285270,128,0,288339:0:0:0:0:
329,192,285750,1,0,0:0:0:0:
402,192,285965,1,0,0:0:0:0:
256,192,286181,128,0,288339:0:0:0:0:
475,192,286181,1,0,0:0:0:0:
182,192,286181,1,0,0:0:0:0:
36,192,286613,1,0,0:0:0:0:
329,192,287044,1,0,0:0:0:0:
182,192,287476,1,0,0:0:0:0:
475,192,287908,1,0,0:0:0:0:
402,192,288339,1,0,0:0:0:0:
182,192,288339,128,0,289203:0:0:0:0:
402,192,288771,1,0,0:0:0:0:
256,192,288771,128,0,289203:0:0:0:0:
36,192,289203,1,0,0:0:0:0:
402,192,289203,1,0,0:0:0:0:
109,192,289311,1,0,0:0:0:0:
329,192,289419,1,0,0:0:0:0:
256,192,289526,1,0,0:0:0:0:
182,192,289634,1,0,0:0:0:0:
475,192,289634,1,0,0:0:0:0:
36,192,290062,1,0,0:0:0:0:
402,192,290491,1,0,0:0:0:0:
109,192,290919,1,0,0:0:0:0:
475,192,291348,1,0,0:0:0:0:
182,192,291776,1,0,0:0:0:0:
256,192,292021,1,0,0:0:0:0:
182,192,292267,1,0,0:0:0:0:
402,192,292267,128,0,293105:0:0:0:0:
36,192,292267,128,0,293105:0:0:0:0:
256,192,292267,128,0,293105:0:0:0:0:
329,192,292759,1,0,0:0:0:0:
109,192,292874,1,0,0:0:0:0:
182,192,292989,1,0,0:0:0:0:
329,192,293105,1,0,0:0:0:0:
109,192,293220,128,0,295611:0:0:0:0:
256,192,293220,128,0,295611:0:0:0:0:
475,192,293220,128,0,295611:0:0:0:0:
402,192,293220,1,0,0:0:0:0:
36,192,293654,1,0,0:0:0:0:
329,192,294089,1,0,0:0:0:0:
182,192,294524,1,0,0:0:0:0:
402,192,294959,1,0,0:0:0:0:
329,192,295393,1,0,0:0:0:0:
329,192,295828,1,0,0:0:0:0:
36,192,295828,128,0,296520:0:0:0:0:
182,192,296289,1,0,0:0:0:0:
475,192,296404,1,0,0:0:0:0:
402,192,296520,1,0,0:0:0:0:
329,192,296635,1,0,0:0:0:0:
256,192,296751,128,0,298304:0:0:0:0:
182,192,296751,1,0,0:0:0:0:
109,192,297212,1,0,0:0:0:0:
329,192,297674,1,0,0:0:0:0:
182,192,298087,1,0,0:0:0:0:
182,192,298521,128,0,299391:0:0:0:0:
402,192,298521,1,0,0:0:0:0:
402,192,298956,1,0,0:0:0:0:
329,192,299101,1,0,0:0:0:0:
256,192,299246,1,0,0:0:0:0:
329,192,299391,128,0,300320:0:0:0:0:
109,192,299391,1,0,0:0:0:0:
36,192,299852,1,0,0:0:0:0:
109,192,300320,128,0,302093:0:0:0:0:
256,192,300320,1,0,0:0:0:0:
182,192,300789,1,0,0:0:0:0:
402,192,301223,1,0,0:0:0:0:
329,192,301658,1,0,0:0:0:0:
36,192,302093,128,0,302528:0:0:0:0:
256,192,302093,1,0,0:0:0:0:
182,192,302528,1,0,0:0:0:0:
256,192,302962,128,0,303834:0:0:0:0:
36,192,302962,1,0,0:0:0:0:
182,192,303390,1,0,0:0:0:0:
475,192,303390,1,0,0:0:0:0:
182,192,303834,128,0,304723:0:0:0:0:
402,192,303834,1,0,0:0:0:0:
109,192,303834,1,0,0:0:0:0:
36,192,304278,1,0,0:0:0:0:
329,192,304723,1,0,0:0:0:0:
182,192,305167,1,0,0:0:0:0:
329,192,305612,128,0,306073:0:0:0:0:
109,192,305612,1,0,0:0:0:0:
402,192,305612,1,0,0:0:0:0:
182,192,306073,1,0,0:0:0:0:
402,192,306535,128,0,309868:0:0:0:0:
329,192,306535,1,0,0:0:0:0:
36,192,306535,1,0,0:0:0:0:
182,192,306979,1,0,0:0:0:0:
256,192,307423,1,0,0:0:0:0:
109,192,307868,1,0,0:0:0:0:
329,192,308312,1,0,0:0:0:0:
256,192,308757,1,0,0:0:0:0:
182,192,309201,1,0,0:0:0:0:
109,192,309646,1,0,0:0:0:0:
256,192,310090,128,0,313518:0:0:0:0:
36,192,310090,1,0,0:0:0:0:
475,192,310090,1,0,0:0:0:0:
109,192,310518,1,0,0:0:0:0:
402,192,310947,1,0,0:0:0:0:
182,192,311375,1,0,0:0:0:0:
329,192,311804,1,0,0:0:0:0:
36,192,316714,1,0,0:0:0:0:
475,192,316714,1,0,0:0:0:0:
256,192,316714,1,0,0:0:0:0:
109,192,316886,1,0,0:0:0:0:
329,192,316886,1,0,0:0:0:0:
182,192,316972,1,0,0:0:0:0:
256,192,317058,1,0,0:0:0:0:
475,192,317058,1,0,0:0:0:0:
329,192,317145,1,0,0:0:0:0:
402,192,317231,1,0,0:0:0:0:
36,192,317231,1,0,0:0:0:0:
109,192,317317,1,0,0:0:0:0:
182,192,317403,1,0,0:0:0:0:
475,192,317403,128,0,318438:0:0:0:0:
329,192,317403,128,0,318438:0:0:0:0:
256,192,317403,1,0,0:0:0:0:
36,192,317748,1,0,0:0:0:0:
402,192,317748,1,0,0:0:0:0:
109,192,317920,1,0,0:0:0:0:
256,192,317920,1,0,0:0:0:0:
402,192,318265,1,0,0:0:0:0:
256,192,318265,1,0,0:0:0:0:
182,192,318265,1,0,0:0:0:0:
109,192,318610,1,0,0:0:0:0:
182,192,318610,128,0,318782:0:0:0:0:
329,192,318610,128,0,318782:0:0:0:0:
402,192,318610,1,0,0:0:0:0:
36,192,318955,1,0,0:0:0:0:
109,192,318955,128,0,319127:0:0:0:0:
256,192,318955,128,0,319127:0:0:0:0:
329,192,318955,1,0,0:0:0:0:
329,192,319300,1,0,0:0:0:0:
36,192,319300,128,0,319472:0:0:0:0:
182,192,319300,128,0,319472:0:0:0:0:
402,192,319300,1,0,0:0:0:0:
402,192,319645,1,0,0:0:0:0:
109,192,319645,128,0,319989:0:0:0:0:
256,192,319645,128,0,319989:0:0:0:0:
475,192,319645,1,0,0:0:0:0:
36,192,320162,128,0,321196:0:0:0:0:
256,192,320162,1,0,0:0:0:0:
475,192,320162,1,0,0:0:0:0:
402,192,320162,1,0,0:0:0:0:
182,192,320162,128,0,321196:0:0:0:0:
109,192,320507,1,0,0:0:0:0:
256,192,320507,1,0,0:0:0:0:
329,192,320679,1,0,0:0:0:0:
475,192,320679,1,0,0:0:0:0:
329,192,321024,128,0,321196:0:0:0:0:
475,192,321024,128,0,321196:0:0:0:0:
402,192,321024,1,0,0:0:0:0:
256,192,321024,1,0,0:0:0:0:
109,192,321369,128,0,321541:0:0:0:0:
256,192,321369,128,0,321541:0:0:0:0:
182,192,321369,1,0,0:0:0:0:
402,192,321369,1,0,0:0:0:0:
402,192,321714,128,0,321886:0:0:0:0:
182,192,321714,128,0,321886:0:0:0:0:
329,192,321714,1,0,0:0:0:0:
36,192,321714,1,0,0:0:0:0:
256,192,322058,128,0,322231:0:0:0:0:
402,192,322058,128,0,322231:0:0:0:0:
109,192,322058,1,0,0:0:0:0:
182,192,322058,1,0,0:0:0:0:
109,192,322403,128,0,322576:0:0:0:0:
329,192,322403,128,0,322576:0:0:0:0:
475,192,322403,1,0,0:0:0:0:
256,192,322403,1,0,0:0:0:0:
36,192,322748,128,0,324041:0:0:0:0:
256,192,322748,128,0,324041:0:0:0:0:
475,192,322748,128,0,324041:0:0:0:0:
109,192,322748,1,0,0:0:0:0:
402,192,322748,1,0,0:0:0:0:
109,192,323438,1,0,0:0:0:0:
182,192,323524,1,0,0:0:0:0:
329,192,323610,1,0,0:0:0:0:
402,192,323610,1,0,0:0:0:0:
182,192,323782,1,0,0:0:0:0:
109,192,323782,1,0,0:0:0:0:
109,192,323955,1,0,0:0:0:0:
402,192,323955,1,0,0:0:0:0:
256,192,324127,128,0,325334:0:0:0:0:
109,192,324127,128,0,325334:0:0:0:0:
402,192,324127,128,0,325334:0:0:0:0:
182,192,324127,1,0,0:0:0:0:
329,192,324127,1,0,0:0:0:0:
36,192,324472,1,0,0:0:0:0:
182,192,324472,1,0,0:0:0:0:
329,192,324817,1,0,0:0:0:0:
475,192,324817,1,0,0:0:0:0:
36,192,325162,1,0,0:0:0:0:
329,192,325162,1,0,0:0:0:0:
182,192,325334,1,0,0:0:0:0:
475,192,325334,1,0,0:0:0:0:
475,192,325507,1,0,0:0:0:0:
329,192,325507,1,0,0:0:0:0:
109,192,325679,128,0,326714:0:0:0:0:
256,192,325679,128,0,326714:0:0:0:0:
36,192,325679,1,0,0:0:0:0:
182,192,325679,1,0,0:0:0:0:
402,192,325679,1,0,0:0:0:0:
475,192,326196,1,0,0:0:0:0:
402,192,326196,1,0,0:0:0:0:
182,192,326196,1,0,0:0:0:0:
475,192,326541,1,0,0:0:0:0:
182,192,326541,1,0,0:0:0:0:
402,192,326714,1,0,0:0:0:0:
329,192,326714,1,0,0:0:0:0:
256,192,326886,128,0,327748:0:0:0:0:
402,192,326886,128,0,327748:0:0:0:0:
36,192,326886,1,0,0:0:0:0:
109,192,326886,1,0,0:0:0:0:
475,192,326886,1,0,0:0:0:0:
182,192,327058,1,0,0:0:0:0:
36,192,327231,1,0,0:0:0:0:
109,192,327274,1,0,0:0:0:0:
182,192,327317,1,0,0:0:0:0:
329,192,327360,1,0,0:0:0:0:
475,192,327403,1,0,0:0:0:0:
36,192,327489,1,0,0:0:0:0:
109,192,327576,1,0,0:0:0:0:
182,192,327662,1,0,0:0:0:0:
36,192,327748,1,0,0:0:0:0:
329,192,327748,128,0,328438:0:0:0:0:
475,192,327748,128,0,328438:0:0:0:0:
109,192,327834,1,0,0:0:0:0:
182,192,327920,1,0,0:0:0:0:
256,192,328007,1,0,0:0:0:0:
182,192,328093,128,0,328438:0:0:0:0:
36,192,328093,128,0,328438:0:0:0:0:
402,192,328093,1,0,0:0:0:0:
109,192,328093,1,0,0:0:0:0:
256,192,328179,1,0,0:0:0:0:
109,192,328265,1,0,0:0:0:0:
402,192,328351,1,0,0:0:0:0:
256,192,328438,128,0,328782:0:0:0:0:
109,192,328438,128,0,328782:0:0:0:0:
475,192,328782,1,0,0:0:0:0:
402,192,328782,1,0,0:0:0:0:
329,192,328955,1,0,0:0:0:0:
256,192,328955,1,0,0:0:0:0:
36,192,329127,1,0,0:0:0:0:
475,192,329127,1,0,0:0:0:0:
109,192,329127,128,0,329300:0:0:0:0:
402,192,329127,128,0,329300:0:0:0:0:
182,192,329300,1,0,0:0:0:0:
329,192,329300,1,0,0:0:0:0:
256,192,329472,1,0,0:0:0:0:
36,192,329472,1,0,0:0:0:0:
182,192,329645,128,0,329817:0:0:0:0:
402,192,329645,128,0,329817:0:0:0:0:
329,192,329645,1,0,0:0:0:0:
475,192,329645,1,0,0:0:0:0:
109,192,329989,1,0,0:0:0:0:
256,192,329989,1,0,0:0:0:0:
475,192,329989,1,0,0:0:0:0:
182,192,330162,128,0,330334:0:0:0:0:
329,192,330162,128,0,330334:0:0:0:0:
36,192,330334,1,0,0:0:0:0:
256,192,330334,1,0,0:0:0:0:
475,192,330507,1,0,0:0:0:0:
109,192,330507,128,0,330679:0:0:0:0:
402,192,330507,128,0,330679:0:0:0:0:
182,192,330507,1,0,0:0:0:0:
329,192,330679,1,0,0:0:0:0:
36,192,330679,1,0,0:0:0:0:
256,192,330679,1,0,0:0:0:0:
109,192,330851,1,0,0:0:0:0:
402,192,330851,1,0,0:0:0:0:
182,192,330938,1,0,0:0:0:0:
329,192,330938,1,0,0:0:0:0:
109,192,331024,1,0,0:0:0:0:
402,192,331024,1,0,0:0:0:0:
182,192,331110,1,0,0:0:0:0:
329,192,331110,1,0,0:0:0:0:
36,192,331196,1,0,0:0:0:0:
256,192,331196,1,0,0:0:0:0:
475,192,331196,1,0,0:0:0:0:
109,192,331196,128,0,331886:0:0:0:0:
402,192,331196,128,0,331886:0:0:0:0:
36,192,331541,1,0,0:0:0:0:
329,192,331541,1,0,0:0:0:0:
182,192,331714,1,0,0:0:0:0:
475,192,331714,1,0,0:0:0:0:
256,192,331886,128,0,332058:0:0:0:0:
329,192,331886,128,0,332058:0:0:0:0:
36,192,332058,1,0,0:0:0:0:
109,192,332058,1,0,0:0:0:0:
109,192,332403,128,0,332576:0:0:0:0:
402,192,332403,128,0,332576:0:0:0:0:
182,192,332403,1,0,0:0:0:0:
329,192,332403,1,0,0:0:0:0:
475,192,332403,1,0,0:0:0:0:
402,192,332748,1,0,0:0:0:0:
256,192,332748,1,0,0:0:0:0:
109,192,332748,1,0,0:0:0:0:
36,192,332748,1,0,0:0:0:0:
109,192,332920,128,0,333093:0:0:0:0:
256,192,332920,128,0,333093:0:0:0:0:
36,192,333007,1,0,0:0:0:0:
402,192,333007,1,0,0:0:0:0:
182,192,333093,1,0,0:0:0:0:
329,192,333093,1,0,0:0:0:0:
475,192,333093,1,0,0:0:0:0:
256,192,333265,128,0,333438:0:0:0:0:
475,192,333265,128,0,333438:0:0:0:0:
402,192,333265,1,0,0:0:0:0:
36,192,333265,1,0,0:0:0:0:
182,192,333438,1,0,0:0:0:0:
109,192,333438,128,0,333782:0:0:0:0:
329,192,333438,128,0,333782:0:0:0:0:
475,192,333782,1,0,0:0:0:0:
182,192,333782,1,0,0:0:0:0:
402,192,333869,1,0,0:0:0:0:
109,192,333869,1,0,0:0:0:0:
36,192,333955,128,0,334817:0:0:0:0:
329,192,333955,128,0,334817:0:0:0:0:
256,192,333955,1,0,0:0:0:0:
182,192,334127,1,0,0:0:0:0:
402,192,334300,1,0,0:0:0:0:
109,192,334472,1,0,0:0:0:0:
182,192,334645,1,0,0:0:0:0:
256,192,334645,128,0,334817:0:0:0:0:
475,192,334645,1,0,0:0:0:0:
109,192,334817,128,0,334989:0:0:0:0:
402,192,334817,128,0,334989:0:0:0:0:
475,192,334989,128,0,335162:0:0:0:0:
182,192,334989,128,0,335162:0:0:0:0:
329,192,335162,128,0,336024:0:0:0:0:
256,192,335162,128,0,336024:0:0:0:0:
36,192,335162,128,0,335334:0:0:0:0:
402,192,335162,1,0,0:0:0:0:
182,192,335334,1,0,0:0:0:0:
109,192,335507,1,0,0:0:0:0:
475,192,335679,128,0,335851:0:0:0:0:
402,192,335679,1,0,0:0:0:0:
36,192,335851,1,0,0:0:0:0:
109,192,336024,128,0,336196:0:0:0:0:
402,192,336024,128,0,336196:0:0:0:0:
182,192,336024,1,0,0:0:0:0:
36,192,336196,1,0,0:0:0:0:
475,192,336196,1,0,0:0:0:0:
36,192,336369,1,0,0:0:0:0:
256,192,336369,1,0,0:0:0:0:
475,192,336369,1,0,0:0:0:0:
109,192,336412,1,0,0:0:0:0:
182,192,336455,1,0,0:0:0:0:
256,192,336498,1,0,0:0:0:0:
182,192,336541,1,0,0:0:0:0:
329,192,336541,1,0,0:0:0:0:
402,192,336627,1,0,0:0:0:0:
256,192,336714,128,0,337576:0:0:0:0:
475,192,336714,1,0,0:0:0:0:
36,192,336800,1,0,0:0:0:0:
475,192,336886,1,0,0:0:0:0:
36,192,336972,1,0,0:0:0:0:
475,192,337058,1,0,0:0:0:0:
402,192,337058,1,0,0:0:0:0:
109,192,337145,1,0,0:0:0:0:
36,192,337145,1,0,0:0:0:0:
402,192,337231,1,0,0:0:0:0:
475,192,337231,1,0,0:0:0:0:
109,192,337317,1,0,0:0:0:0:
36,192,337317,1,0,0:0:0:0:
329,192,337403,1,0,0:0:0:0:
402,192,337403,1,0,0:0:0:0:
475,192,337403,1,0,0:0:0:0:
182,192,337489,1,0,0:0:0:0:
109,192,337489,1,0,0:0:0:0:
36,192,337489,1,0,0:0:0:0:
475,192,337576,1,0,0:0:0:0:
329,192,337576,1,0,0:0:0:0:
402,192,337576,128,0,337748:0:0:0:0:
182,192,337662,1,0,0:0:0:0:
109,192,337662,1,0,0:0:0:0:
36,192,337662,1,0,0:0:0:0:
475,192,337748,1,0,0:0:0:0:
256,192,337748,1,0,0:0:0:0:
329,192,337748,128,0,337920:0:0:0:0:
182,192,337834,1,0,0:0:0:0:
109,192,337834,1,0,0:0:0:0:
36,192,337834,1,0,0:0:0:0:
402,192,337920,1,0,0:0:0:0:
475,192,337920,1,0,0:0:0:0:
256,192,337920,128,0,338782:0:0:0:0:
182,192,338007,1,0,0:0:0:0:
109,192,338093,1,0,0:0:0:0:
109,192,338265,1,0,0:0:0:0:
36,192,338265,1,0,0:0:0:0:
475,192,338351,1,0,0:0:0:0:
402,192,338351,1,0,0:0:0:0:
36,192,338438,1,0,0:0:0:0:
182,192,338438,1,0,0:0:0:0:
475,192,338524,1,0,0:0:0:0:
329,192,338524,1,0,0:0:0:0:
182,192,338610,1,0,0:0:0:0:
109,192,338610,1,0,0:0:0:0:
402,192,338696,1,0,0:0:0:0:
329,192,338696,1,0,0:0:0:0:
36,192,338782,128,0,338869:0:0:0:0:
475,192,338782,128,0,338869:0:0:0:0:
182,192,338782,128,0,338869:0:0:0:0:
109,192,338869,128,0,338955:0:0:0:0:
402,192,338869,128,0,338955:0:0:0:0:
256,192,338955,128,0,339041:0:0:0:0:
329,192,338955,128,0,339041:0:0:0:0:
182,192,339041,128,0,339127:0:0:0:0:
475,192,339041,128,0,339127:0:0:0:0:
402,192,339127,128,0,339214:0:0:0:0:
256,192,339127,128,0,339214:0:0:0:0:
36,192,339127,128,0,339214:0:0:0:0:
109,192,339127,128,0,339214:0:0:0:0:
329,192,339214,128,0,339300:0:0:0:0:
475,192,339214,128,0,339300:0:0:0:0:
109,192,339300,128,0,339386:0:0:0:0:
182,192,339300,128,0,339386:0:0:0:0:
402,192,339386,128,0,339472:0:0:0:0:
256,192,339386,128,0,339472:0:0:0:0:
329,192,339472,128,0,339817:0:0:0:0:
475,192,339472,128,0,339817:0:0:0:0:
36,192,339472,1,0,0:0:0:0:
109,192,339472,1,0,0:0:0:0:
182,192,339645,1,0,0:0:0:0:
36,192,339645,1,0,0:0:0:0:
256,192,339731,1,0,0:0:0:0:
109,192,339731,1,0,0:0:0:0:
36,192,339817,128,0,340162:0:0:0:0:
402,192,339817,1,0,0:0:0:0:
182,192,339817,1,0,0:0:0:0:
475,192,339989,128,0,340162:0:0:0:0:
182,192,339989,1,0,0:0:0:0:
109,192,339989,1,0,0:0:0:0:
256,192,340076,1,0,0:0:0:0:
329,192,340076,1,0,0:0:0:0:
109,192,340162,1,0,0:0:0:0:
182,192,340162,1,0,0:0:0:0:
402,192,340162,1,0,0:0:0:0:
475,192,340334,128,0,340507:0:0:0:0:
256,192,340334,128,0,340507:0:0:0:0:
329,192,340334,1,0,0:0:0:0:
36,192,340334,1,0,0:0:0:0:
109,192,340420,1,0,0:0:0:0:
182,192,340420,1,0,0:0:0:0:
402,192,340507,1,0,0:0:0:0:
329,192,340507,1,0,0:0:0:0:
36,192,340507,1,0,0:0:0:0:
182,192,340679,128,0,340851:0:0:0:0:
402,192,340679,128,0,340851:0:0:0:0:
36,192,340679,1,0,0:0:0:0:
109,192,340679,1,0,0:0:0:0:
256,192,340765,1,0,0:0:0:0:
329,192,340765,1,0,0:0:0:0:
475,192,340851,1,0,0:0:0:0:
109,192,340851,1,0,0:0:0:0:
36,192,340851,1,0,0:0:0:0:
109,192,341024,128,0,341196:0:0:0:0:
329,192,341024,128,0,341196:0:0:0:0:
256,192,341024,1,0,0:0:0:0:
475,192,341024,1,0,0:0:0:0:
402,192,341110,1,0,0:0:0:0:
182,192,341110,1,0,0:0:0:0:
256,192,341196,1,0,0:0:0:0:
36,192,341196,1,0,0:0:0:0:
475,192,341196,1,0,0:0:0:0:
36,192,341369,128,0,341541:0:0:0:0:
256,192,341369,128,0,341541:0:0:0:0:
109,192,341369,1,0,0:0:0:0:
329,192,341369,1,0,0:0:0:0:
475,192,341455,1,0,0:0:0:0:
182,192,341455,1,0,0:0:0:0:
402,192,341541,1,0,0:0:0:0:
329,192,341541,1,0,0:0:0:0:
109,192,341541,1,0,0:0:0:0:
109,192,341714,128,0,341886:0:0:0:0:
329,192,341714,128,0,341886:0:0:0:0:
36,192,341714,1,0,0:0:0:0:
256,192,341714,1,0,0:0:0:0:
475,192,341800,1,0,0:0:0:0:
182,192,341800,1,0,0:0:0:0:
402,192,341886,1,0,0:0:0:0:
256,192,341886,1,0,0:0:0:0:
36,192,341886,1,0,0:0:0:0:
182,192,341972,1,0,0:0:0:0:
475,192,341972,1,0,0:0:0:0:
402,192,342058,1,0,0:0:0:0:
36,192,342058,1,0,0:0:0:0:
256,192,342058,1,0,0:0:0:0:
109,192,342145,1,0,0:0:0:0:
329,192,342145,1,0,0:0:0:0:
182,192,342231,1,0,0:0:0:0:
475,192,342231,1,0,0:0:0:0:
256,192,342231,128,0,342576:0:0:0:0:
402,192,342231,128,0,342576:0:0:0:0:
36,192,342231,1,0,0:0:0:0:
36,192,342403,1,0,0:0:0:0:
329,192,342403,1,0,0:0:0:0:
475,192,342489,1,0,0:0:0:0:
109,192,342489,1,0,0:0:0:0:
36,192,342576,128,0,342920:0:0:0:0:
182,192,342576,1,0,0:0:0:0:
329,192,342576,1,0,0:0:0:0:
329,192,342748,128,0,342920:0:0:0:0:
182,192,342748,1,0,0:0:0:0:
475,192,342748,1,0,0:0:0:0:
402,192,342834,1,0,0:0:0:0:
256,192,342834,1,0,0:0:0:0:
182,192,342920,1,0,0:0:0:0:
109,192,342920,1,0,0:0:0:0:
475,192,342920,1,0,0:0:0:0:
182,192,343093,128,0,343265:0:0:0:0:
329,192,343093,128,0,343265:0:0:0:0:
256,192,343093,1,0,0:0:0:0:
109,192,343093,1,0,0:0:0:0:
36,192,343179,1,0,0:0:0:0:
475,192,343179,1,0,0:0:0:0:
402,192,343265,1,0,0:0:0:0:
256,192,343265,1,0,0:0:0:0:
109,192,343265,1,0,0:0:0:0:
109,192,343438,128,0,343610:0:0:0:0:
256,192,343438,128,0,343610:0:0:0:0:
475,192,343438,1,0,0:0:0:0:
402,192,343438,1,0,0:0:0:0:
329,192,343524,1,0,0:0:0:0:
182,192,343524,1,0,0:0:0:0:
36,192,343610,1,0,0:0:0:0:
475,192,343610,1,0,0:0:0:0:
402,192,343610,1,0,0:0:0:0:
182,192,343782,128,0,343955:0:0:0:0:
402,192,343782,128,0,343955:0:0:0:0:
36,192,343782,1,0,0:0:0:0:
475,192,343782,1,0,0:0:0:0:
329,192,343869,1,0,0:0:0:0:
109,192,343869,1,0,0:0:0:0:
256,192,343955,1,0,0:0:0:0:
475,192,343955,1,0,0:0:0:0:
36,192,343955,1,0,0:0:0:0:
329,192,344127,128,0,344300:0:0:0:0:
109,192,344127,128,0,344300:0:0:0:0:
256,192,344127,1,0,0:0:0:0:
475,192,344127,1,0,0:0:0:0:
402,192,344214,1,0,0:0:0:0:
182,192,344214,1,0,0:0:0:0:
36,192,344300,1,0,0:0:0:0:
256,192,344300,1,0,0:0:0:0:
475,192,344300,1,0,0:0:0:0:
256,192,344472,128,0,344645:0:0:0:0:
475,192,344472,128,0,344645:0:0:0:0:
402,192,344472,1,0,0:0:0:0:
329,192,344472,1,0,0:0:0:0:
182,192,344558,1,0,0:0:0:0:
36,192,344558,1,0,0:0:0:0:
109,192,344645,1,0,0:0:0:0:
329,192,344645,1,0,0:0:0:0:
402,192,344645,1,0,0:0:0:0:
36,192,344817,128,0,345334:0:0:0:0:
475,192,344817,1,0,0:0:0:0:
256,192,344817,1,0,0:0:0:0:
109,192,344817,128,0,345334:0:0:0:0:
182,192,344903,1,0,0:0:0:0:
402,192,344903,1,0,0:0:0:0:
329,192,344989,1,0,0:0:0:0:
256,192,344989,1,0,0:0:0:0:
475,192,344989,1,0,0:0:0:0:
182,192,345162,1,0,0:0:0:0:
475,192,345162,1,0,0:0:0:0:
402,192,345248,1,0,0:0:0:0:
256,192,345248,1,0,0:0:0:0:
329,192,345334,1,0,0:0:0:0:
182,192,345334,1,0,0:0:0:0:
475,192,345334,1,0,0:0:0:0:
36,192,345507,1,0,0:0:0:0:
256,192,345507,1,0,0:0:0:0:
109,192,345593,1,0,0:0:0:0:
329,192,345593,1,0,0:0:0:0:
182,192,345679,1,0,0:0:0:0:
256,192,345679,1,0,0:0:0:0:
475,192,345679,128,0,346024:0:0:0:0:
402,192,345851,128,0,346196:0:0:0:0:
36,192,345851,1,0,0:0:0:0:
329,192,345851,1,0,0:0:0:0:
256,192,345938,1,0,0:0:0:0:
182,192,345938,1,0,0:0:0:0:
329,192,346024,128,0,346541:0:0:0:0:
109,192,346024,1,0,0:0:0:0:
36,192,346024,1,0,0:0:0:0:
256,192,346196,128,0,346541:0:0:0:0:
36,192,346196,1,0,0:0:0:0:
182,192,346196,1,0,0:0:0:0:
109,192,346282,1,0,0:0:0:0:
402,192,346282,1,0,0:0:0:0:
182,192,346369,1,0,0:0:0:0:
475,192,346369,1,0,0:0:0:0:
36,192,346369,1,0,0:0:0:0:
36,192,346541,128,0,347231:0:0:0:0:
475,192,346541,1,0,0:0:0:0:
182,192,346541,1,0,0:0:0:0:
109,192,346627,1,0,0:0:0:0:
402,192,346627,1,0,0:0:0:0:
329,192,346714,1,0,0:0:0:0:
256,192,346714,1,0,0:0:0:0:
182,192,346714,1,0,0:0:0:0:
475,192,346886,128,0,347231:0:0:0:0:
109,192,346886,1,0,0:0:0:0:
256,192,346886,1,0,0:0:0:0:
329,192,346972,1,0,0:0:0:0:
402,192,346972,1,0,0:0:0:0:
256,192,347058,1,0,0:0:0:0:
182,192,347058,1,0,0:0:0:0:
109,192,347058,1,0,0:0:0:0:
109,192,347231,128,0,347403:0:0:0:0:
402,192,347231,1,0,0:0:0:0:
182,192,347231,1,0,0:0:0:0:
329,192,347317,1,0,0:0:0:0:
256,192,347317,1,0,0:0:0:0:
182,192,347403,128,0,347576:0:0:0:0:
402,192,347403,1,0,0:0:0:0:
475,192,347403,1,0,0:0:0:0:
36,192,347403,1,0,0:0:0:0:
256,192,347576,128,0,347748:0:0:0:0:
329,192,347576,1,0,0:0:0:0:
109,192,347576,1,0,0:0:0:0:
475,192,347662,1,0,0:0:0:0:
36,192,347662,1,0,0:0:0:0:
402,192,347748,128,0,348093:0:0:0:0:
109,192,347748,128,0,348093:0:0:0:0:
182,192,347748,1,0,0:0:0:0:
329,192,347748,1,0,0:0:0:0:
36,192,347920,1,0,0:0:0:0:
475,192,347920,1,0,0:0:0:0:
329,192,348007,1,0,0:0:0:0:
182,192,348007,1,0,0:0:0:0:
256,192,348093,1,0,0:0:0:0:
36,192,348093,1,0,0:0:0:0:
475,192,348093,1,0,0:0:0:0:
109,192,348265,128,0,348610:0:0:0:0:
402,192,348265,128,0,348610:0:0:0:0:
182,192,348265,1,0,0:0:0:0:
256,192,348265,1,0,0:0:0:0:
36,192,348351,1,0,0:0:0:0:
329,192,348351,1,0,0:0:0:0:
182,192,348438,1,0,0:0:0:0:
256,192,348438,1,0,0:0:0:0:
475,192,348438,1,0,0:0:0:0:
36,192,348610,128,0,349817:0:0:0:0:
475,192,348610,1,0,0:0:0:0:
329,192,348610,1,0,0:0:0:0:
256,192,348696,1,0,0:0:0:0:
182,192,348696,1,0,0:0:0:0:
475,192,348782,128,0,349817:0:0:0:0:
329,192,348782,1,0,0:0:0:0:
402,192,348782,1,0,0:0:0:0:
109,192,348782,1,0,0:0:0:0:
256,192,348955,128,0,349817:0:0:0:0:
182,192,348955,1,0,0:0:0:0:
109,192,348955,1,0,0:0:0:0:
329,192,349041,1,0,0:0:0:0:
402,192,349041,1,0,0:0:0:0:
182,192,349127,1,0,0:0:0:0:
109,192,349127,1,0,0:0:0:0:
402,192,349127,1,0,0:0:0:0:
402,192,349300,1,0,0:0:0:0:
182,192,349300,1,0,0:0:0:0:
109,192,349386,1,0,0:0:0:0:
329,192,349386,1,0,0:0:0:0:
182,192,349472,1,0,0:0:0:0:
109,192,349472,1,0,0:0:0:0:
402,192,349472,1,0,0:0:0:0:
109,192,349645,1,0,0:0:0:0:
402,192,349645,1,0,0:0:0:0:
182,192,349731,1,0,0:0:0:0:
329,192,349731,1,0,0:0:0:0:
402,192,349817,1,0,0:0:0:0:
109,192,349817,1,0,0:0:0:0:
329,192,349817,1,0,0:0:0:0:
256,192,349903,1,0,0:0:0:0:
182,192,349903,1,0,0:0:0:0:
329,192,349989,1,0,0:0:0:0:
475,192,349989,1,0,0:0:0:0:
36,192,349989,1,0,0:0:0:0:
109,192,350076,1,0,0:0:0:0:
182,192,350076,1,0,0:0:0:0:
329,192,350162,1,0,0:0:0:0:
402,192,350162,1,0,0:0:0:0:
475,192,350162,1,0,0:0:0:0:
36,192,350162,1,0,0:0:0:0:
256,192,350248,1,0,0:0:0:0:
182,192,350248,1,0,0:0:0:0:
109,192,350334,1,0,0:0:0:0:
475,192,350334,1,0,0:0:0:0:
402,192,350334,1,0,0:0:0:0:
256,192,350420,1,0,0:0:0:0:
329,192,350420,1,0,0:0:0:0:
182,192,350507,1,0,0:0:0:0:
475,192,350507,1,0,0:0:0:0:
36,192,350507,128,0,351196:0:0:0:0:
109,192,350507,128,0,350851:0:0:0:0:
329,192,350679,1,0,0:0:0:0:
402,192,350679,1,0,0:0:0:0:
256,192,350765,1,0,0:0:0:0:
182,192,350765,1,0,0:0:0:0:
475,192,350851,128,0,351196:0:0:0:0:
329,192,350851,1,0,0:0:0:0:
402,192,350851,1,0,0:0:0:0:
402,192,351024,128,0,351196:0:0:0:0:
109,192,351024,1,0,0:0:0:0:
182,192,351024,1,0,0:0:0:0:
256,192,351110,1,0,0:0:0:0:
329,192,351110,1,0,0:0:0:0:
182,192,351196,1,0,0:0:0:0:
109,192,351196,1,0,0:0:0:0:
402,192,351369,128,0,351541:0:0:0:0:
182,192,351369,128,0,351541:0:0:0:0:
36,192,351369,1,0,0:0:0:0:
475,192,351369,1,0,0:0:0:0:
329,192,351455,1,0,0:0:0:0:
256,192,351455,1,0,0:0:0:0:
109,192,351541,1,0,0:0:0:0:
36,192,351541,1,0,0:0:0:0:
475,192,351541,1,0,0:0:0:0:
329,192,351714,128,0,351886:0:0:0:0:
109,192,351714,128,0,351886:0:0:0:0:
402,192,351714,1,0,0:0:0:0:
475,192,351714,1,0,0:0:0:0:
36,192,351800,1,0,0:0:0:0:
182,192,351800,1,0,0:0:0:0:
256,192,351886,1,0,0:0:0:0:
402,192,351886,1,0,0:0:0:0:
475,192,351886,1,0,0:0:0:0:
256,192,352058,128,0,352231:0:0:0:0:
36,192,352058,128,0,352231:0:0:0:0:
109,192,352058,1,0,0:0:0:0:
475,192,352058,1,0,0:0:0:0:
402,192,352145,1,0,0:0:0:0:
329,192,352145,1,0,0:0:0:0:
182,192,352231,1,0,0:0:0:0:
109,192,352231,1,0,0:0:0:0:
475,192,352231,1,0,0:0:0:0:
109,192,352403,128,0,352576:0:0:0:0:
182,192,352403,128,0,352576:0:0:0:0:
256,192,352403,1,0,0:0:0:0:
329,192,352403,1,0,0:0:0:0:
36,192,352489,1,0,0:0:0:0:
475,192,352489,1,0,0:0:0:0:
402,192,352576,1,0,0:0:0:0:
329,192,352576,1,0,0:0:0:0:
256,192,352576,1,0,0:0:0:0:
36,192,352748,128,0,352920:0:0:0:0:
109,192,352748,128,0,352920:0:0:0:0:
182,192,352748,1,0,0:0:0:0:
475,192,352748,1,0,0:0:0:0:
402,192,352834,1,0,0:0:0:0:
329,192,352834,1,0,0:0:0:0:
182,192,352920,1,0,0:0:0:0:
475,192,352920,1,0,0:0:0:0:
256,192,352920,1,0,0:0:0:0:
329,192,353007,1,0,0:0:0:0:
109,192,353007,1,0,0:0:0:0:
36,192,353093,1,0,0:0:0:0:
182,192,353093,1,0,0:0:0:0:
475,192,353093,1,0,0:0:0:0:
402,192,353179,1,0,0:0:0:0:
256,192,353179,1,0,0:0:0:0:
36,192,353265,1,0,0:0:0:0:
109,192,353265,1,0,0:0:0:0:
329,192,353265,128,0,353610:0:0:0:0:
475,192,353265,128,0,353955:0:0:0:0:
182,192,353438,1,0,0:0:0:0:
36,192,353438,1,0,0:0:0:0:
109,192,353524,1,0,0:0:0:0:
256,192,353524,1,0,0:0:0:0:
36,192,353610,128,0,353955:0:0:0:0:
182,192,353610,1,0,0:0:0:0:
402,192,353610,1,0,0:0:0:0:
109,192,353782,128,0,353955:0:0:0:0:
329,192,353782,1,0,0:0:0:0:
182,192,353782,1,0,0:0:0:0:
402,192,353869,1,0,0:0:0:0:
256,192,353869,1,0,0:0:0:0:
182,192,353955,1,0,0:0:0:0:
329,192,353955,1,0,0:0:0:0:
182,192,354127,128,0,354300:0:0:0:0:
402,192,354127,128,0,354300:0:0:0:0:
36,192,354127,1,0,0:0:0:0:
109,192,354127,1,0,0:0:0:0:
256,192,354214,1,0,0:0:0:0:
329,192,354214,1,0,0:0:0:0:
475,192,354300,1,0,0:0:0:0:
109,192,354300,1,0,0:0:0:0:
36,192,354300,1,0,0:0:0:0:
256,192,354472,128,0,354645:0:0:0:0:
475,192,354472,128,0,354645:0:0:0:0:
402,192,354472,1,0,0:0:0:0:
109,192,354472,1,0,0:0:0:0:
329,192,354558,1,0,0:0:0:0:
36,192,354558,1,0,0:0:0:0:
109,192,354645,1,0,0:0:0:0:
182,192,354645,1,0,0:0:0:0:
402,192,354645,1,0,0:0:0:0:
402,192,354817,128,0,354989:0:0:0:0:
329,192,354817,128,0,354989:0:0:0:0:
36,192,354817,1,0,0:0:0:0:
475,192,354817,1,0,0:0:0:0:
109,192,354903,1,0,0:0:0:0:
182,192,354903,1,0,0:0:0:0:
256,192,354989,1,0,0:0:0:0:
475,192,354989,1,0,0:0:0:0:
36,192,354989,1,0,0:0:0:0:
256,192,355162,128,0,355334:0:0:0:0:
109,192,355162,128,0,355334:0:0:0:0:
182,192,355162,1,0,0:0:0:0:
36,192,355162,1,0,0:0:0:0:
329,192,355248,1,0,0:0:0:0:
475,192,355248,1,0,0:0:0:0:
402,192,355334,1,0,0:0:0:0:
182,192,355334,1,0,0:0:0:0:
36,192,355334,1,0,0:0:0:0:
36,192,355507,128,0,355851:0:0:0:0:
182,192,355507,128,0,355851:0:0:0:0:
109,192,355507,1,0,0:0:0:0:
256,192,355507,1,0,0:0:0:0:
402,192,355593,1,0,0:0:0:0:
475,192,355593,1,0,0:0:0:0:
329,192,355679,1,0,0:0:0:0:
256,192,355679,1,0,0:0:0:0:
109,192,355679,1,0,0:0:0:0:
475,192,355851,1,0,0:0:0:0:
256,192,355851,1,0,0:0:0:0:
402,192,355938,1,0,0:0:0:0:
182,192,355938,1,0,0:0:0:0:
329,192,356024,1,0,0:0:0:0:
109,192,356024,1,0,0:0:0:0:
36,192,356024,128,0,356886:0:0:0:0:
256,192,356024,128,0,356886:0:0:0:0:
109,192,356196,1,0,0:0:0:0:
182,192,356196,1,0,0:0:0:0:
402,192,356282,1,0,0:0:0:0:
475,192,356282,1,0,0:0:0:0:
329,192,356369,1,0,0:0:0:0:
182,192,356369,1,0,0:0:0:0:
109,192,356369,1,0,0:0:0:0:
109,192,356541,1,0,0:0:0:0:
475,192,356541,1,0,0:0:0:0:
182,192,356627,1,0,0:0:0:0:
329,192,356627,1,0,0:0:0:0:
402,192,356714,1,0,0:0:0:0:
475,192,356714,1,0,0:0:0:0:
109,192,356714,1,0,0:0:0:0:
109,192,356886,128,0,357058:0:0:0:0:
329,192,356886,128,0,357058:0:0:0:0:
475,192,356886,1,0,0:0:0:0:
402,192,356886,1,0,0:0:0:0:
182,192,356972,1,0,0:0:0:0:
475,192,357058,128,0,357231:0:0:0:0:
256,192,357058,128,0,357231:0:0:0:0:
36,192,357058,1,0,0:0:0:0:
402,192,357058,1,0,0:0:0:0:
182,192,357231,128,0,358265:0:0:0:0:
402,192,357231,128,0,358265:0:0:0:0:
36,192,357231,1,0,0:0:0:0:
109,192,357231,1,0,0:0:0:0:
329,192,357317,1,0,0:0:0:0:
475,192,357403,1,0,0:0:0:0:
256,192,357403,1,0,0:0:0:0:
36,192,357403,1,0,0:0:0:0:
36,192,357576,1,0,0:0:0:0:
256,192,357576,1,0,0:0:0:0:
475,192,357662,1,0,0:0:0:0:
109,192,357662,1,0,0:0:0:0:
256,192,357748,1,0,0:0:0:0:
329,192,357748,1,0,0:0:0:0:
36,192,357748,1,0,0:0:0:0:
475,192,357920,1,0,0:0:0:0:
329,192,357920,1,0,0:0:0:0:
109,192,358007,1,0,0:0:0:0:
36,192,358007,1,0,0:0:0:0:
256,192,358093,1,0,0:0:0:0:
329,192,358093,1,0,0:0:0:0:
475,192,358093,1,0,0:0:0:0:
109,192,358265,128,0,358438:0:0:0:0:
36,192,358265,128,0,358438:0:0:0:0:
329,192,358265,1,0,0:0:0:0:
475,192,358265,1,0,0:0:0:0:
256,192,358351,1,0,0:0:0:0:
182,192,358438,128,0,358610:0:0:0:0:
329,192,358438,128,0,358610:0:0:0:0:
402,192,358438,1,0,0:0:0:0:
475,192,358610,128,0,360162:0:0:0:0:
402,192,358610,128,0,360162:0:0:0:0:
109,192,358610,1,0,0:0:0:0:
36,192,358610,1,0,0:0:0:0:
256,192,358696,1,0,0:0:0:0:
182,192,358782,1,0,0:0:0:0:
329,192,358782,1,0,0:0:0:0:
109,192,358782,1,0,0:0:0:0:
36,192,358955,1,0,0:0:0:0:
329,192,358955,1,0,0:0:0:0:
256,192,359041,1,0,0:0:0:0:
182,192,359041,1,0,0:0:0:0:
109,192,359127,1,0,0:0:0:0:
36,192,359127,1,0,0:0:0:0:
329,192,359127,1,0,0:0:0:0:
36,192,359300,1,0,0:0:0:0:
256,192,359300,1,0,0:0:0:0:
109,192,359386,1,0,0:0:0:0:
329,192,359386,1,0,0:0:0:0:
256,192,359472,1,0,0:0:0:0:
182,192,359472,1,0,0:0:0:0:
36,192,359472,1,0,0:0:0:0:
329,192,359645,1,0,0:0:0:0:
109,192,359645,1,0,0:0:0:0:
36,192,359731,1,0,0:0:0:0:
256,192,359731,1,0,0:0:0:0:
182,192,359817,1,0,0:0:0:0:
109,192,359817,1,0,0:0:0:0:
329,192,359817,1,0,0:0:0:0:
36,192,359989,1,0,0:0:0:0:
329,192,359989,1,0,0:0:0:0:
182,192,360076,1,0,0:0:0:0:
109,192,360076,1,0,0:0:0:0:
36,192,360162,1,0,0:0:0:0:
329,192,360162,1,0,0:0:0:0:
256,192,360162,1,0,0:0:0:0:
109,192,360219,1,0,0:0:0:0:
475,192,360219,1,0,0:0:0:0:
182,192,360277,1,0,0:0:0:0:
402,192,360277,1,0,0:0:0:0:
329,192,360334,1,0,0:0:0:0:
36,192,360334,1,0,0:0:0:0:
109,192,360392,1,0,0:0:0:0:
182,192,360449,1,0,0:0:0:0:
475,192,360449,1,0,0:0:0:0:
402,192,360507,1,0,0:0:0:0:
256,192,360507,1,0,0:0:0:0:
329,192,360564,1,0,0:0:0:0:
109,192,360564,1,0,0:0:0:0:
36,192,360622,1,0,0:0:0:0:
475,192,360622,1,0,0:0:0:0:
402,192,360679,1,0,0:0:0:0:
182,192,360679,1,0,0:0:0:0:
329,192,360736,1,0,0:0:0:0:
109,192,360736,1,0,0:0:0:0:
256,192,360794,1,0,0:0:0:0:
36,192,360794,1,0,0:0:0:0:
109,192,360851,1,0,0:0:0:0:
475,192,360851,1,0,0:0:0:0:
182,192,360909,1,0,0:0:0:0:
402,192,360909,1,0,0:0:0:0:
329,192,360966,1,0,0:0:0:0:
256,192,360966,1,0,0:0:0:0:
36,192,361024,1,0,0:0:0:0:
475,192,361024,1,0,0:0:0:0:
109,192,361081,1,0,0:0:0:0:
402,192,361081,1,0,0:0:0:0:
182,192,361139,1,0,0:0:0:0:
329,192,361139,1,0,0:0:0:0:
256,192,361196,1,0,0:0:0:0:
36,192,361196,1,0,0:0:0:0:
109,192,361282,1,0,0:0:0:0:
329,192,361282,1,0,0:0:0:0:
182,192,361369,1,0,0:0:0:0:
402,192,361369,1,0,0:0:0:0:
475,192,361455,1,0,0:0:0:0:
256,192,361455,1,0,0:0:0:0:
402,192,361541,1,0,0:0:0:0:
329,192,361541,1,0,0:0:0:0:
36,192,361541,128,0,362231:0:0:0:0:
182,192,361541,128,0,362231:0:0:0:0:
109,192,361714,1,0,0:0:0:0:
475,192,361714,1,0,0:0:0:0:
402,192,361800,1,0,0:0:0:0:
256,192,361800,1,0,0:0:0:0:
475,192,361886,128,0,362231:0:0:0:0:
329,192,361886,1,0,0:0:0:0:
109,192,361886,1,0,0:0:0:0:
329,192,362058,128,0,362231:0:0:0:0:
402,192,362058,1,0,0:0:0:0:
256,192,362145,1,0,0:0:0:0:
109,192,362231,1,0,0:0:0:0:
402,192,362231,1,0,0:0:0:0:
109,192,362403,128,0,362576:0:0:0:0:
475,192,362403,128,0,362576:0:0:0:0:
402,192,362403,128,0,362576:0:0:0:0:
329,192,362403,1,0,0:0:0:0:
36,192,362403,1,0,0:0:0:0:
182,192,362489,1,0,0:0:0:0:
256,192,362489,1,0,0:0:0:0:
36,192,362576,1,0,0:0:0:0:
329,192,362576,1,0,0:0:0:0:
182,192,362748,128,0,362920:0:0:0:0:
329,192,362748,128,0,362920:0:0:0:0:
256,192,362748,1,0,0:0:0:0:
475,192,362748,1,0,0:0:0:0:
36,192,362748,128,0,362920:0:0:0:0:
402,192,362834,1,0,0:0:0:0:
109,192,362834,1,0,0:0:0:0:
256,192,362920,1,0,0:0:0:0:
475,192,362920,1,0,0:0:0:0:
109,192,363093,128,0,363265:0:0:0:0:
182,192,363093,128,0,363265:0:0:0:0:
402,192,363093,128,0,363265:0:0:0:0:
36,192,363093,1,0,0:0:0:0:
475,192,363093,1,0,0:0:0:0:
329,192,363179,1,0,0:0:0:0:
256,192,363179,1,0,0:0:0:0:
36,192,363265,1,0,0:0:0:0:
475,192,363265,1,0,0:0:0:0:
329,192,363438,128,0,363610:0:0:0:0:
256,192,363438,128,0,363610:0:0:0:0:
36,192,363438,128,0,363610:0:0:0:0:
109,192,363438,1,0,0:0:0:0:
402,192,363438,1,0,0:0:0:0:
475,192,363524,1,0,0:0:0:0:
182,192,363524,1,0,0:0:0:0:
402,192,363610,1,0,0:0:0:0:
109,192,363610,1,0,0:0:0:0:
36,192,363782,128,0,363955:0:0:0:0:
329,192,363782,128,0,363955:0:0:0:0:
109,192,363782,128,0,363955:0:0:0:0:
256,192,363782,1,0,0:0:0:0:
475,192,363782,1,0,0:0:0:0:
182,192,363869,1,0,0:0:0:0:
402,192,363869,1,0,0:0:0:0:
256,192,363955,128,0,364041:0:0:0:0:
475,192,363955,128,0,364041:0:0:0:0:
402,192,364041,128,0,364127:0:0:0:0:
182,192,364041,128,0,364127:0:0:0:0:
329,192,364127,128,0,364214:0:0:0:0:
109,192,364127,128,0,364214:0:0:0:0:
36,192,364214,128,0,364300:0:0:0:0:
256,192,364214,128,0,364300:0:0:0:0:
182,192,364300,128,0,364989:0:0:0:0:
475,192,364300,128,0,364989:0:0:0:0:
402,192,364300,1,0,0:0:0:0:
109,192,364300,1,0,0:0:0:0:
402,192,364472,1,0,0:0:0:0:
36,192,364472,1,0,0:0:0:0:
109,192,364558,1,0,0:0:0:0:
256,192,364558,1,0,0:0:0:0:
36,192,364645,128,0,364989:0:0:0:0:
329,192,364645,1,0,0:0:0:0:
402,192,364645,1,0,0:0:0:0:
402,192,364817,128,0,364989:0:0:0:0:
109,192,364817,1,0,0:0:0:0:
329,192,364903,1,0,0:0:0:0:
256,192,364989,1,0,0:0:0:0:
109,192,364989,1,0,0:0:0:0:
402,192,365162,128,0,365679:0:0:0:0:
109,192,365162,128,0,365679:0:0:0:0:
36,192,365162,1,0,0:0:0:0:
182,192,365162,1,0,0:0:0:0:
329,192,365248,1,0,0:0:0:0:
475,192,365248,1,0,0:0:0:0:
256,192,365334,1,0,0:0:0:0:
182,192,365334,1,0,0:0:0:0:
36,192,365334,1,0,0:0:0:0:
329,192,365507,1,0,0:0:0:0:
475,192,365507,1,0,0:0:0:0:
256,192,365593,1,0,0:0:0:0:
36,192,365593,1,0,0:0:0:0:
182,192,365679,1,0,0:0:0:0:
329,192,365679,1,0,0:0:0:0:
475,192,365679,1,0,0:0:0:0:
36,192,365909,1,0,0:0:0:0:
182,192,365909,1,0,0:0:0:0:
329,192,365909,1,0,0:0:0:0:
256,192,365909,1,0,0:0:0:0:
402,192,365909,1,0,0:0:0:0:
109,192,366139,1,0,0:0:0:0:
182,192,366139,1,0,0:0:0:0:
256,192,366139,1,0,0:0:0:0:
475,192,366139,1,0,0:0:0:0:
329,192,366139,1,0,0:0:0:0:
402,192,366369,1,0,0:0:0:0:
329,192,366369,1,0,0:0:0:0:
182,192,366369,1,0,0:0:0:0:
36,192,366369,1,0,0:0:0:0:
256,192,366369,1,0,0:0:0:0:
109,192,366599,1,0,0:0:0:0:
36,192,366599,1,0,0:0:0:0:
256,192,366599,1,0,0:0:0:0:
329,192,366599,1,0,0:0:0:0:
475,192,366599,1,0,0:0:0:0:
402,192,366828,1,0,0:0:0:0:
329,192,366828,1,0,0:0:0:0:
182,192,366828,1,0,0:0:0:0:
109,192,366828,1,0,0:0:0:0:
475,192,366828,1,0,0:0:0:0:
475,192,367058,1,0,0:0:0:0:
36,192,367058,1,0,0:0:0:0:
109,192,367058,128,0,367403:0:0:0:0:
256,192,367058,128,0,367403:0:0:0:0:
402,192,367058,128,0,367403:0:0:0:0:
36,192,367231,1,0,0:0:0:0:
475,192,367231,1,0,0:0:0:0:
182,192,367317,1,0,0:0:0:0:
329,192,367317,1,0,0:0:0:0:
36,192,367403,1,0,0:0:0:0:
475,192,367403,1,0,0:0:0:0:
475,192,367576,1,0,0:0:0:0:
182,192,367576,1,0,0:0:0:0:
402,192,367662,1,0,0:0:0:0:
109,192,367662,1,0,0:0:0:0:
36,192,367748,128,0,368610:0:0:0:0:
256,192,367748,1,0,0:0:0:0:
329,192,367748,1,0,0:0:0:0:
109,192,367920,128,0,368610:0:0:0:0:
475,192,367920,1,0,0:0:0:0:
402,192,367920,1,0,0:0:0:0:
329,192,368007,1,0,0:0:0:0:
256,192,368007,1,0,0:0:0:0:
475,192,368093,128,0,368610:0:0:0:0:
182,192,368093,1,0,0:0:0:0:
402,192,368093,1,0,0:0:0:0:
402,192,368265,128,0,368610:0:0:0:0:
182,192,368265,1,0,0:0:0:0:
329,192,368265,1,0,0:0:0:0:
256,192,368351,1,0,0:0:0:0:
182,192,368438,1,0,0:0:0:0:
329,192,368438,1,0,0:0:0:0:
329,192,368610,128,0,369300:0:0:0:0:
182,192,368610,128,0,369300:0:0:0:0:
109,192,368696,1,0,0:0:0:0:
402,192,368696,1,0,0:0:0:0:
36,192,368782,1,0,0:0:0:0:
475,192,368782,1,0,0:0:0:0:
256,192,368955,128,0,369300:0:0:0:0:
36,192,368955,1,0,0:0:0:0:
109,192,368955,1,0,0:0:0:0:
402,192,369041,1,0,0:0:0:0:
475,192,369041,1,0,0:0:0:0:
109,192,369127,1,0,0:0:0:0:
36,192,369127,1,0,0:0:0:0:
36,192,369300,128,0,369472:0:0:0:0:
402,192,369300,1,0,0:0:0:0:
109,192,369300,1,0,0:0:0:0:
475,192,369386,1,0,0:0:0:0:
109,192,369472,128,0,369645:0:0:0:0:
402,192,369472,128,0,369645:0:0:0:0:
329,192,369472,1,0,0:0:0:0:
182,192,369472,1,0,0:0:0:0:
475,192,369645,128,0,369817:0:0:0:0:
36,192,369645,1,0,0:0:0:0:
182,192,369645,1,0,0:0:0:0:
256,192,369731,1,0,0:0:0:0:
329,192,369817,128,0,370162:0:0:0:0:
182,192,369817,128,0,370162:0:0:0:0:
402,192,369817,1,0,0:0:0:0:
109,192,369817,1,0,0:0:0:0:
36,192,369989,1,0,0:0:0:0:
475,192,369989,1,0,0:0:0:0:
402,192,370076,1,0,0:0:0:0:
256,192,370162,1,0,0:0:0:0:
109,192,370162,1,0,0:0:0:0:
109,192,370334,128,0,370679:0:0:0:0:
256,192,370334,128,0,371024:0:0:0:0:
402,192,370334,128,0,370851:0:0:0:0:
36,192,370334,1,0,0:0:0:0:
182,192,370334,1,0,0:0:0:0:
329,192,370420,1,0,0:0:0:0:
475,192,370507,1,0,0:0:0:0:
182,192,370507,1,0,0:0:0:0:
36,192,370679,128,0,371369:0:0:0:0:
475,192,370679,1,0,0:0:0:0:
329,192,370679,1,0,0:0:0:0:
182,192,370765,1,0,0:0:0:0:
475,192,370851,128,0,371714:0:0:0:0:
109,192,370851,1,0,0:0:0:0:
329,192,370851,1,0,0:0:0:0:
182,192,371024,128,0,371369:0:0:0:0:
329,192,371024,128,0,371714:0:0:0:0:
109,192,371024,1,0,0:0:0:0:
402,192,371024,1,0,0:0:0:0:
256,192,371110,1,0,0:0:0:0:
402,192,371196,1,0,0:0:0:0:
109,192,371369,128,0,372058:0:0:0:0:
402,192,371369,1,0,0:0:0:0:
256,192,371369,1,0,0:0:0:0:
182,192,371455,1,0,0:0:0:0:
36,192,371541,1,0,0:0:0:0:
256,192,371541,1,0,0:0:0:0:
402,192,371714,128,0,372058:0:0:0:0:
36,192,371714,1,0,0:0:0:0:
182,192,371714,1,0,0:0:0:0:
256,192,371800,1,0,0:0:0:0:
329,192,371886,1,0,0:0:0:0:
475,192,371886,1,0,0:0:0:0:
182,192,371972,1,0,0:0:0:0:
256,192,372058,128,0,372576:0:0:0:0:
36,192,372058,1,0,0:0:0:0:
329,192,372058,1,0,0:0:0:0:
475,192,372145,1,0,0:0:0:0:
182,192,372145,1,0,0:0:0:0:
402,192,372231,1,0,0:0:0:0:
329,192,372231,1,0,0:0:0:0:
109,192,372231,1,0,0:0:0:0:
36,192,372317,1,0,0:0:0:0:
475,192,372317,1,0,0:0:0:0:
182,192,372403,1,0,0:0:0:0:
329,192,372403,1,0,0:0:0:0:
475,192,372489,1,0,0:0:0:0:
36,192,372489,1,0,0:0:0:0:
182,192,372576,1,0,0:0:0:0:
109,192,372576,128,0,373265:0:0:0:0:
402,192,372576,128,0,373265:0:0:0:0:
36,192,372748,1,0,0:0:0:0:
182,192,372748,1,0,0:0:0:0:
256,192,372834,1,0,0:0:0:0:
475,192,372920,128,0,373265:0:0:0:0:
329,192,372920,1,0,0:0:0:0:
182,192,372920,1,0,0:0:0:0:
36,192,373093,128,0,373265:0:0:0:0:
256,192,373093,1,0,0:0:0:0:
182,192,373093,1,0,0:0:0:0:
329,192,373179,1,0,0:0:0:0:
256,192,373265,1,0,0:0:0:0:
182,192,373265,1,0,0:0:0:0:
475,192,373438,128,0,373610:0:0:0:0:
109,192,373438,1,0,0:0:0:0:
182,192,373438,1,0,0:0:0:0:
36,192,373438,128,0,373610:0:0:0:0:
329,192,373524,1,0,0:0:0:0:
402,192,373524,1,0,0:0:0:0:
182,192,373610,1,0,0:0:0:0:
256,192,373610,1,0,0:0:0:0:
109,192,373610,1,0,0:0:0:0:
402,192,373782,128,0,373955:0:0:0:0:
109,192,373782,128,0,373955:0:0:0:0:
36,192,373782,1,0,0:0:0:0:
329,192,373782,1,0,0:0:0:0:
256,192,373869,1,0,0:0:0:0:
182,192,373869,1,0,0:0:0:0:
36,192,373955,1,0,0:0:0:0:
329,192,373955,1,0,0:0:0:0:
475,192,373955,1,0,0:0:0:0:
182,192,374127,128,0,374300:0:0:0:0:
329,192,374127,128,0,374300:0:0:0:0:
256,192,374127,1,0,0:0:0:0:
475,192,374127,1,0,0:0:0:0:
36,192,374214,1,0,0:0:0:0:
402,192,374214,1,0,0:0:0:0:
109,192,374300,1,0,0:0:0:0:
256,192,374300,1,0,0:0:0:0:
475,192,374300,1,0,0:0:0:0:
36,192,374472,128,0,374645:0:0:0:0:
256,192,374472,128,0,374645:0:0:0:0:
109,192,374472,1,0,0:0:0:0:
475,192,374472,1,0,0:0:0:0:
402,192,374558,1,0,0:0:0:0:
329,192,374558,1,0,0:0:0:0:
182,192,374645,1,0,0:0:0:0:
109,192,374645,1,0,0:0:0:0:
475,192,374645,1,0,0:0:0:0:
256,192,374817,128,0,374989:0:0:0:0:
475,192,374817,128,0,374989:0:0:0:0:
36,192,374817,1,0,0:0:0:0:
402,192,374817,1,0,0:0:0:0:
329,192,374903,1,0,0:0:0:0:
109,192,374903,1,0,0:0:0:0:
182,192,374989,1,0,0:0:0:0:
402,192,374989,1,0,0:0:0:0:
36,192,374989,128,0,375334:0:0:0:0:
256,192,375076,1,0,0:0:0:0:
475,192,375076,1,0,0:0:0:0:
109,192,375162,128,0,375334:0:0:0:0:
402,192,375162,1,0,0:0:0:0:
329,192,375162,1,0,0:0:0:0:
182,192,375248,1,0,0:0:0:0:
256,192,375248,1,0,0:0:0:0:
402,192,375334,128,0,376024:0:0:0:0:
475,192,375334,128,0,376024:0:0:0:0:
329,192,375334,1,0,0:0:0:0:
109,192,375507,1,0,0:0:0:0:
36,192,375507,1,0,0:0:0:0:
256,192,375593,1,0,0:0:0:0:
182,192,375679,128,0,376024:0:0:0:0:
329,192,375679,1,0,0:0:0:0:
109,192,375679,1,0,0:0:0:0:
109,192,375851,128,0,376024:0:0:0:0:
36,192,375851,1,0,0:0:0:0:
256,192,375851,1,0,0:0:0:0:
329,192,375938,1,0,0:0:0:0:
256,192,376024,1,0,0:0:0:0:
36,192,376024,1,0,0:0:0:0:
256,192,376196,128,0,376369:0:0:0:0:
475,192,376196,128,0,376369:0:0:0:0:
402,192,376196,128,0,376369:0:0:0:0:
329,192,376196,1,0,0:0:0:0:
182,192,376196,1,0,0:0:0:0:
109,192,376282,1,0,0:0:0:0:
36,192,376282,1,0,0:0:0:0:
182,192,376369,1,0,0:0:0:0:
329,192,376369,1,0,0:0:0:0:
182,192,376541,128,0,376714:0:0:0:0:
329,192,376541,128,0,376714:0:0:0:0:
402,192,376541,128,0,376714:0:0:0:0:
36,192,376541,1,0,0:0:0:0:
475,192,376541,1,0,0:0:0:0:
109,192,376627,1,0,0:0:0:0:
256,192,376627,1,0,0:0:0:0:
36,192,376714,1,0,0:0:0:0:
475,192,376714,1,0,0:0:0:0:
109,192,376886,128,0,377058:0:0:0:0:
256,192,376886,128,0,377058:0:0:0:0:
329,192,376886,128,0,377058:0:0:0:0:
475,192,376886,1,0,0:0:0:0:
402,192,376886,1,0,0:0:0:0:
36,192,376972,1,0,0:0:0:0:
182,192,376972,1,0,0:0:0:0:
475,192,377058,1,0,0:0:0:0:
402,192,377058,1,0,0:0:0:0:
36,192,377231,128,0,377403:0:0:0:0:
182,192,377231,128,0,377403:0:0:0:0:
256,192,377231,128,0,377403:0:0:0:0:
475,192,377231,1,0,0:0:0:0:
329,192,377231,1,0,0:0:0:0:
109,192,377317,1,0,0:0:0:0:
402,192,377317,1,0,0:0:0:0:
329,192,377403,1,0,0:0:0:0:
475,192,377403,1,0,0:0:0:0:
36,192,377576,128,0,377748:0:0:0:0:
109,192,377576,128,0,377748:0:0:0:0:
182,192,377576,128,0,377748:0:0:0:0:
256,192,377576,1,0,0:0:0:0:
329,192,377576,1,0,0:0:0:0:
402,192,377662,1,0,0:0:0:0:
475,192,377662,1,0,0:0:0:0:
329,192,377748,1,0,0:0:0:0:
256,192,377748,1,0,0:0:0:0:
475,192,377920,1,0,0:0:0:0:
36,192,377920,1,0,0:0:0:0:
109,192,378007,1,0,0:0:0:0:
402,192,378007,1,0,0:0:0:0:
182,192,378093,128,0,378955:0:0:0:0:
329,192,378093,128,0,379127:0:0:0:0:
256,192,378093,1,0,0:0:0:0:
36,192,378265,1,0,0:0:0:0:
475,192,378265,1,0,0:0:0:0:
109,192,378351,1,0,0:0:0:0:
256,192,378351,1,0,0:0:0:0:
402,192,378438,1,0,0:0:0:0:
475,192,378438,1,0,0:0:0:0:
36,192,378438,1,0,0:0:0:0:
109,192,378610,1,0,0:0:0:0:
36,192,378610,1,0,0:0:0:0:
256,192,378696,1,0,0:0:0:0:
475,192,378696,1,0,0:0:0:0:
402,192,378782,1,0,0:0:0:0:
109,192,378782,1,0,0:0:0:0:
36,192,378782,1,0,0:0:0:0:
36,192,378955,128,0,380162:0:0:0:0:
109,192,378955,1,0,0:0:0:0:
256,192,378955,1,0,0:0:0:0:
402,192,379041,1,0,0:0:0:0:
475,192,379127,128,0,380162:0:0:0:0:
182,192,379127,1,0,0:0:0:0:
109,192,379127,1,0,0:0:0:0:
256,192,379300,128,0,380162:0:0:0:0:
109,192,379300,1,0,0:0:0:0:
329,192,379300,1,0,0:0:0:0:
402,192,379386,1,0,0:0:0:0:
182,192,379386,1,0,0:0:0:0:
109,192,379472,1,0,0:0:0:0:
329,192,379472,1,0,0:0:0:0:
402,192,379645,1,0,0:0:0:0:
109,192,379645,1,0,0:0:0:0:
182,192,379731,1,0,0:0:0:0:
329,192,379731,1,0,0:0:0:0:
109,192,379817,1,0,0:0:0:0:
402,192,379817,1,0,0:0:0:0:
402,192,379989,1,0,0:0:0:0:
182,192,379989,1,0,0:0:0:0:
109,192,380076,1,0,0:0:0:0:
329,192,380076,1,0,0:0:0:0:
182,192,380162,1,0,0:0:0:0:
402,192,380162,1,0,0:0:0:0:
109,192,380334,128,0,381196:0:0:0:0:
36,192,380334,1,0,0:0:0:0:
182,192,380334,1,0,0:0:0:0:
329,192,380420,1,0,0:0:0:0:
256,192,380507,128,0,381196:0:0:0:0:
402,192,380507,1,0,0:0:0:0:
475,192,380507,1,0,0:0:0:0:
402,192,380679,128,0,381196:0:0:0:0:
182,192,380679,1,0,0:0:0:0:
475,192,380679,1,0,0:0:0:0:
329,192,380765,1,0,0:0:0:0:
36,192,380765,1,0,0:0:0:0:
475,192,380851,1,0,0:0:0:0:
182,192,380851,1,0,0:0:0:0:
36,192,381024,1,0,0:0:0:0:
475,192,381024,1,0,0:0:0:0:
182,192,381110,1,0,0:0:0:0:
329,192,381110,1,0,0:0:0:0:
475,192,381196,1,0,0:0:0:0:
36,192,381196,128,0,381369:0:0:0:0:
329,192,381369,128,0,381714:0:0:0:0:
475,192,381369,1,0,0:0:0:0:
402,192,381369,1,0,0:0:0:0:
256,192,381455,1,0,0:0:0:0:
182,192,381455,1,0,0:0:0:0:
109,192,381541,1,0,0:0:0:0:
36,192,381541,1,0,0:0:0:0:
475,192,381541,1,0,0:0:0:0:
402,192,381714,128,0,382058:0:0:0:0:
36,192,381714,1,0,0:0:0:0:
256,192,381714,1,0,0:0:0:0:
109,192,381800,1,0,0:0:0:0:
475,192,381800,1,0,0:0:0:0:
256,192,381886,1,0,0:0:0:0:
182,192,381886,1,0,0:0:0:0:
256,192,382058,128,0,382403:0:0:0:0:
182,192,382058,1,0,0:0:0:0:
109,192,382058,1,0,0:0:0:0:
36,192,382145,1,0,0:0:0:0:
475,192,382145,1,0,0:0:0:0:
402,192,382231,1,0,0:0:0:0:
329,192,382231,1,0,0:0:0:0:
182,192,382231,1,0,0:0:0:0:
109,192,382403,128,0,382748:0:0:0:0:
36,192,382403,1,0,0:0:0:0:
475,192,382403,1,0,0:0:0:0:
402,192,382489,1,0,0:0:0:0:
182,192,382489,1,0,0:0:0:0:
256,192,382576,1,0,0:0:0:0:
329,192,382576,1,0,0:0:0:0:
182,192,382748,128,0,383093:0:0:0:0:
36,192,382748,1,0,0:0:0:0:
475,192,382748,1,0,0:0:0:0:
402,192,382834,1,0,0:0:0:0:
329,192,382834,1,0,0:0:0:0:
256,192,382920,1,0,0:0:0:0:
36,192,382920,1,0,0:0:0:0:
109,192,382920,1,0,0:0:0:0:
329,192,383093,128,0,383782:0:0:0:0:
36,192,383093,1,0,0:0:0:0:
256,192,383093,1,0,0:0:0:0:
109,192,383179,1,0,0:0:0:0:
402,192,383179,1,0,0:0:0:0:
182,192,383265,1,0,0:0:0:0:
256,192,383265,1,0,0:0:0:0:
475,192,383438,1,0,0:0:0:0:
402,192,383438,1,0,0:0:0:0:
256,192,383524,1,0,0:0:0:0:
182,192,383524,1,0,0:0:0:0:
109,192,383610,1,0,0:0:0:0:
36,192,383610,1,0,0:0:0:0:
402,192,383610,1,0,0:0:0:0:
475,192,383610,1,0,0:0:0:0:
182,192,383696,1,0,0:0:0:0:
109,192,383782,1,0,0:0:0:0:
36,192,383782,1,0,0:0:0:0:
256,192,383782,1,0,0:0:0:0:
402,192,383782,1,0,0:0:0:0:
475,192,383869,1,0,0:0:0:0:
402,192,383955,1,0,0:0:0:0:
329,192,383955,1,0,0:0:0:0:
182,192,383955,1,0,0:0:0:0:
109,192,383955,1,0,0:0:0:0:
36,192,384041,1,0,0:0:0:0:
475,192,384127,128,0,384472:0:0:0:0:
109,192,384127,1,0,0:0:0:0:
256,192,384127,1,0,0:0:0:0:
402,192,384127,1,0,0:0:0:0:
182,192,384127,1,0,0:0:0:0:
329,192,384214,1,0,0:0:0:0:
402,192,384300,1,0,0:0:0:0:
109,192,384300,1,0,0:0:0:0:
36,192,384300,1,0,0:0:0:0:
256,192,384300,1,0,0:0:0:0:
182,192,384386,1,0,0:0:0:0:
402,192,384472,128,0,384989:0:0:0:0:
36,192,384472,1,0,0:0:0:0:
109,192,384472,1,0,0:0:0:0:
329,192,384472,1,0,0:0:0:0:
256,192,384472,1,0,0:0:0:0:
182,192,384558,1,0,0:0:0:0:
109,192,384645,1,0,0:0:0:0:
329,192,384645,1,0,0:0:0:0:
256,192,384645,1,0,0:0:0:0:
475,192,384645,1,0,0:0:0:0:
36,192,384731,1,0,0:0:0:0:
329,192,384817,1,0,0:0:0:0:
256,192,384817,1,0,0:0:0:0:
182,192,384817,1,0,0:0:0:0:
109,192,384817,1,0,0:0:0:0:
475,192,384903,1,0,0:0:0:0:
329,192,384989,1,0,0:0:0:0:
36,192,384989,1,0,0:0:0:0:
109,192,384989,1,0,0:0:0:0:
182,192,384989,1,0,0:0:0:0:
256,192,385047,1,0,0:0:0:0:
475,192,385047,1,0,0:0:0:0:
402,192,385104,1,0,0:0:0:0:
182,192,385104,1,0,0:0:0:0:
329,192,385162,1,0,0:0:0:0:
109,192,385162,1,0,0:0:0:0:
36,192,385219,1,0,0:0:0:0:
256,192,385219,1,0,0:0:0:0:
182,192,385277,1,0,0:0:0:0:
475,192,385277,1,0,0:0:0:0:
402,192,385334,1,0,0:0:0:0:
329,192,385334,1,0,0:0:0:0:
109,192,385334,1,0,0:0:0:0:
36,192,385392,1,0,0:0:0:0:
256,192,385392,1,0,0:0:0:0:
109,192,385449,1,0,0:0:0:0:
475,192,385449,1,0,0:0:0:0:
402,192,385507,1,0,0:0:0:0:
182,192,385507,1,0,0:0:0:0:
256,192,385564,1,0,0:0:0:0:
329,192,385564,1,0,0:0:0:0:
36,192,385622,1,0,0:0:0:0:
182,192,385622,1,0,0:0:0:0:
109,192,385679,1,0,0:0:0:0:
329,192,385679,1,0,0:0:0:0:
402,192,385736,1,0,0:0:0:0:
256,192,385736,1,0,0:0:0:0:
475,192,385794,1,0,0:0:0:0:
182,192,385794,1,0,0:0:0:0:
402,192,385851,1,0,0:0:0:0:
109,192,385851,1,0,0:0:0:0:
329,192,385909,1,0,0:0:0:0:
36,192,385909,1,0,0:0:0:0:
256,192,385966,1,0,0:0:0:0:
475,192,385966,1,0,0:0:0:0:
36,192,386024,1,0,0:0:0:0:
109,192,386024,1,0,0:0:0:0:
182,192,386024,1,0,0:0:0:0:
256,192,386110,1,0,0:0:0:0:
329,192,386110,1,0,0:0:0:0:
402,192,386196,1,0,0:0:0:0:
475,192,386196,1,0,0:0:0:0:
36,192,386196,1,0,0:0:0:0:
109,192,386282,1,0,0:0:0:0:
182,192,386282,1,0,0:0:0:0:
256,192,386369,1,0,0:0:0:0:
329,192,386369,1,0,0:0:0:0:
475,192,386369,1,0,0:0:0:0:
402,192,386369,1,0,0:0:0:0:
36,192,386714,128,0,389472:0:0:0:0:
182,192,386714,128,0,390162:0:0:0:0:
256,192,386714,128,0,390851:0:0:0:0:
329,192,386714,128,0,390162:0:0:0:0:
475,192,386714,128,0,389472:0:0:0:0:
