osu file format v14

[General]
AudioFilename: audio.mp3
AudioLeadIn: 0
PreviewTime: 126382
Countdown: 0
SampleSet: Soft
StackLeniency: 0.4
Mode: 0
LetterboxInBreaks: 0
WidescreenStoryboard: 1

[Editor]
Bookmarks: 21108,48364,65193,102876,150803,165437
DistanceSpacing: 1.9
BeatDivisor: 4
GridSize: 16
TimelineZoom: 2.3

[Metadata]
Title:Vampire
TitleUnicode:ヴァンパイア
Artist:VESPERBELL
ArtistUnicode:VESPERBELL
Creator:Petal
Version:Shii's Hard
Source:
Tags:japanese pop j-pop jpop cover full version DECO*27 カスカ KASUKA matha ayucchi shii ShiiTsuin shikibe mayu Shizuku- Kazato Asa
BeatmapID:3281949
BeatmapSetID:1493527

[Difficulty]
HPDrainRate:4
CircleSize:4
OverallDifficulty:6
ApproachRate:7.5
SliderMultiplier:1.5
SliderTickRate:1

[Events]
//Background and Video events
0,0,"BG.png",0,0
//Break Periods
2,89539,100039
2,127588,132417
//Storyboard Layer 0 (Background)
//Storyboard Layer 1 (Fail)
//Storyboard Layer 2 (Pass)
//Storyboard Layer 3 (Foreground)
//Storyboard Layer 4 (Overlay)
//Storyboard Sound Samples

[TimingPoints]
1535,365.853658536585,4,2,1,30,1,0
1900,-125,4,2,1,30,0,0
4644,-125,4,2,1,40,0,0
6107,-125,4,2,1,50,0,0
6839,-125,4,2,1,60,0,0
7388,-100,4,2,1,60,0,0
11047,-133.333333333333,4,2,1,70,0,0
11595,-133.333333333333,4,2,1,55,0,0
13242,-100,4,2,1,70,0,0
24949,-117.647058823529,4,2,1,60,0,0
25314,-117.647058823529,4,2,1,50,0,0
35925,-117.647058823529,4,2,1,60,0,0
36656,-100,4,2,1,65,0,0
48364,-100,4,2,1,70,0,0
52022,-100,4,2,1,60,0,0
52754,-100,4,2,1,70,0,0
57144,-83.3333333333333,4,2,1,80,0,1
80375,-83.3333333333333,4,2,1,70,0,1
80559,-83.3333333333333,4,2,1,70,0,0
83486,-100,4,2,1,45,0,0
100864,-100,4,2,1,55,0,0
101047,-100,4,2,1,65,0,0
112754,-100,4,2,1,70,0,0
127388,-100,4,2,1,50,0,0
133242,-100,4,2,1,70,0,0
137632,-83.3333333333333,4,2,1,70,0,0
139461,-76.9230769230769,4,2,1,80,0,1
162326,-76.9230769230769,4,2,1,70,0,1
162510,-76.9230769230769,4,2,1,70,0,0
165437,-76.9230769230769,4,2,1,70,0,1
176778,-76.9230769230769,4,2,1,60,0,0

[Colours]
Combo1 : 236,143,75
Combo2 : 254,216,86
Combo3 : 178,198,204
Combo4 : 227,116,113

[HitObjects]
13,378,1535,5,2,3:2:0:0:
128,311,1900,6,0,P|107:316|64:322,1,60,2|0,2:0|2:0,2:0:0:0:
11,267,2266,2,0,P|7:215|2:178,2,90,2|2|2,2:0|2:0|2:0,2:0:0:0:
205,384,3181,6,0,P|207:347|211:321,1,60,2|0,2:0|2:0,2:0:0:0:
266,268,3547,1,2,2:0:0:0:
266,268,3730,2,0,P|310:262|355:258,2,90,2|2|2,2:0|2:0|2:0,2:0:0:0:
99,207,4644,6,0,P|62:202|44:203,2,30,2|2|10,2:0|2:0|2:0,2:0:0:0:
167,168,5010,2,0,P|204:163|222:164,2,30,2|2|2,2:0|2:0|3:2,2:0:0:0:
7,23,5559,5,10,3:2:0:0:
7,23,5742,2,0,P|16:82|25:141,1,120,2|2,2:0|2:0,2:0:0:0:
92,185,6291,2,0,P|88:233|85:258,2,60,10|2|2,2:0|2:0|3:2,2:0:0:0:
147,131,6839,2,0,P|143:101|141:71,2,60,10|10|10,2:0|2:0|2:0,2:0:0:0:
208,179,7388,6,0,P|253:172|290:66,1,150,6|10,3:2|2:0,2:0:0:0:
246,29,7937,1,2,2:0:0:0:
376,119,8303,6,0,P|414:114|460:105,1,75,2|8,2:0|2:0,2:0:0:0:
504,177,8669,2,0,P|429:186|355:200,1,150,10|10,3:2|2:0,2:0:0:0:
315,269,9217,2,0,P|319:306|326:343,1,75,0|10,3:0|2:0,2:0:0:0:
234,384,9583,2,0,P|240:347|245:309,1,75,2|2,3:2|3:0,2:0:0:0:
243,235,9949,1,14,2:0:0:0:
243,235,10132,1,2,2:0:0:0:
190,175,10315,5,2,3:2:0:0:
249,314,10681,5,2,2:3:0:0:
340,191,11047,6,0,P|333:140|328:110,2,56.2500021457673,10|10|2,2:0|2:0|2:0,2:0:0:0:
406,231,11595,1,2,2:0:0:0:
509,21,13242,6,0,P|436:17|333:-11,1,150,6|10,3:2|2:0,2:0:0:0:
299,45,13791,1,2,2:0:0:0:
299,45,13974,2,0,P|295:118|267:221,1,150,2|10,3:2|2:0,2:0:0:0:
331,254,14522,1,2,2:0:0:0:
331,254,14705,6,0,P|373:246|408:244,2,75,2|2|10,3:2|2:0|2:0,2:0:0:0:
260,292,15254,2,0,P|222:289|185:282,2,75,2|2|2,2:0|3:2|2:0,2:0:0:0:
326,348,15803,1,10,2:0:0:0:
326,348,15986,1,2,2:0:0:0:
326,348,16169,6,0,P|373:382|476:364,1,150,6|8,3:2|2:0,2:0:0:0:
490,218,16900,2,0,P|443:184|340:202,1,150,0|8,3:0|2:0,2:0:0:0:
292,145,17449,2,0,P|277:77|255:-2,1,150,2|2,2:0|2:0,2:0:0:0:
194,60,17998,2,0,P|205:106|213:140,2,75,10|2|2,2:0|2:0|3:2,2:0:0:0:
137,7,18547,1,10,2:0:0:0:
137,7,18730,1,10,2:0:0:0:
0,199,19095,6,0,P|53:191|156:177,1,150,6|10,3:2|2:0,2:0:0:0:
218,218,19644,1,2,2:0:0:0:
218,218,19827,2,0,P|271:226|374:240,1,150,2|10,3:2|2:0,2:0:0:0:
416,180,20376,1,2,2:0:0:0:
416,180,20559,6,0,P|411:132|407:103,2,75,2|2|10,3:2|2:0|2:0,2:0:0:0:
469,238,21108,2,0,P|464:286|460:315,2,75,2|2|2,2:0|3:2|2:0,2:0:0:0:
511,176,21656,1,10,2:0:0:0:
511,176,21839,1,2,2:0:0:0:
511,176,22022,6,0,P|492:130|491:13,1,150,0|8,3:0|2:0,2:0:0:0:
272,67,22754,2,0,P|291:113|292:230,1,150,8|8,2:0|2:0,2:0:0:0:
235,260,23303,6,0,P|127:244|55:239,1,150,10|2,2:0|2:0,2:0:0:0:
40,181,23852,1,10,2:0:0:0:
40,181,24034,1,2,2:0:0:0:
40,181,24217,2,0,P|33:120|31:94,1,75,10|10,2:0|2:0,2:0:0:0:
81,48,24583,2,0,P|142:41|168:39,1,75,10|10,2:0|2:0,2:0:0:0:
231,0,24949,6,0,P|224:59|220:138,1,127.50000243187,6|2,3:2|3:2,2:0:0:0:
111,285,25681,6,0,P|115:332|118:380,2,95.6250018239022,2|2|2,3:2|2:0|2:0,2:0:0:0:
13,134,26595,5,2,2:0:0:0:
13,134,26778,2,0,P|53:145|75:153,1,63.7500012159348,2|2,3:2|2:0,2:0:0:0:
127,204,27144,2,0,P|169:203|192:202,1,63.7500012159348,2|2,3:2|2:0,2:0:0:0:
256,161,27510,1,2,3:2:0:0:
256,161,27693,1,2,2:0:0:0:
336,298,28059,5,2,2:0:0:0:
336,298,28242,2,0,P|333:336|327:368,1,63.7500012159348,2|2,3:2|2:0,2:0:0:0:
402,369,28608,2,0,P|407:337|409:305,1,63.7500012159348,2|2,3:2|2:0,2:0:0:0:
472,263,28974,1,2,3:2:0:0:
472,263,29156,2,0,P|499:237|461:146,1,127.50000243187,2|2,2:0|2:0,2:0:0:0:
424,106,29705,1,2,3:2:0:0:
424,106,29888,1,2,2:0:0:0:
424,106,30071,2,0,P|370:115|295:127,1,127.50000243187,2|0,3:2|3:0,2:0:0:0:
187,0,30803,6,0,B|210:16|210:16|196:132,1,127.50000243187,2|2,3:2|3:2,2:0:0:0:
29,174,31534,6,0,B|11:186|11:186|22:273,2,95.6250018239022,2|2|2,3:2|2:0|2:0,2:0:0:0:
167,284,32449,5,2,2:0:0:0:
167,284,32632,2,0,L|234:273,1,63.7500012159348,2|2,3:2|2:0,2:0:0:0:
280,217,32998,2,0,L|347:228,1,63.7500012159348,2|2,3:2|2:0,2:0:0:0:
396,288,33364,1,2,3:2:0:0:
396,288,33547,1,2,2:0:0:0:
511,171,33913,5,2,2:0:0:0:
511,171,34095,2,0,L|517:99,1,63.7500012159348,2|2,3:2|2:0,2:0:0:0:
443,97,34461,2,0,L|437:160,1,63.7500012159348,2|2,3:2|2:0,2:0:0:0:
373,200,34827,2,0,L|309:194,1,63.7500012159348,2|2,3:2|2:0,2:0:0:0:
253,247,35193,6,0,L|259:319,1,63.7500012159348,2|2,3:2|2:0,2:0:0:0:
185,321,35559,2,0,L|179:257,1,63.7500012159348,2|2,3:2|2:0,2:0:0:0:
173,181,35925,1,10,2:0:0:0:
97,377,36291,5,10,3:2:0:0:
71,307,36474,1,2,2:0:0:0:
71,307,36656,2,0,P|30:318|-9:331,1,75,6|2,3:2|2:0,2:0:0:0:
119,247,37022,2,0,P|129:205|138:165,1,75,8|2,2:0|2:0,2:0:0:0:
146,318,37388,1,2,3:2:0:0:
146,318,37571,2,0,P|176:348|206:375,1,75,2|8,2:0|2:0,2:0:0:0:
312,384,37937,5,2,2:0:0:0:
312,384,38120,2,0,P|351:375|392:369,1,75,2|2,3:2|2:0,2:0:0:0:
406,297,38486,2,0,P|371:283|336:273,1,75,10|2,2:0|2:0,2:0:0:0:
412,188,38852,1,2,3:2:0:0:
412,188,39034,2,0,P|439:217|464:249,1,75,2|8,2:0|2:0,2:0:0:0:
502,135,39400,5,2,2:0:0:0:
502,135,39583,2,0,L|510:56,1,75,2|2,3:2|2:0,2:0:0:0:
430,112,39949,2,0,L|438:33,1,75,10|2,2:0|2:0,2:0:0:0:
338,0,40315,2,0,L|346:79,1,75,2|2,3:2|2:0,2:0:0:0:
266,23,40681,2,0,L|274:102,1,75,10|2,2:0|2:0,2:0:0:0:
223,157,41047,5,2,3:2:0:0:
223,157,41230,2,0,P|162:164|138:168,2,75,2|10|2,2:0|2:0|2:0,2:0:0:0:
286,203,41778,2,0,P|294:257|313:364,1,150,2|10,3:2|2:0,2:0:0:0:
203,381,42327,5,2,2:0:0:0:
203,381,42510,2,0,P|164:372|123:366,1,75,6|2,3:2|2:0,2:0:0:0:
109,294,42876,2,0,P|144:280|179:270,1,75,10|2,2:0|2:0,2:0:0:0:
103,185,43242,1,2,3:2:0:0:
103,185,43425,2,0,P|76:214|51:246,1,75,10|8,2:0|2:0,2:0:0:0:
178,174,43791,5,2,2:0:0:0:
178,174,43974,2,0,P|219:185|258:198,1,75,2|2,3:2|2:0,2:0:0:0:
130,114,44339,2,0,P|120:72|111:32,1,75,10|2,2:0|2:0,2:0:0:0:
103,185,44705,1,2,3:2:0:0:
103,185,44888,2,0,P|73:215|43:242,1,75,10|8,2:0|2:0,2:0:0:0:
18,328,45254,5,2,2:0:0:0:
18,328,45345,1,2,2:0:0:0:
18,328,45437,2,0,L|97:316,1,75,2|2,3:2|2:0,2:0:0:0:
146,372,45803,2,0,L|225:384,1,75,10|2,2:0|2:0,2:0:0:0:
262,314,46169,2,0,L|341:302,1,75,2|2,3:2|2:0,2:0:0:0:
402,358,46534,1,10,2:0:0:0:
402,358,46717,1,10,2:0:0:0:
476,308,46900,6,0,L|484:388,2,75,2|2|10,3:2|2:0|2:0,2:0:0:0:
419,259,47449,1,2,3:2:0:0:
419,259,47632,2,0,L|426:184,1,75,10|8,2:0|2:0,2:0:0:0:
485,137,47998,2,0,L|477:62,1,75,10|8,2:0|2:0,2:0:0:0:
374,0,48364,6,0,B|346:6|346:6|333:73|333:73|310:79,2,112.5,6|0|2,3:2|3:0|3:2,2:0:0:0:
405,111,49095,1,10,2:0:0:0:
207,12,49644,5,0,3:0:0:0:
207,12,49736,1,0,3:0:0:0:
207,12,49827,2,0,L|94:21,2,112.5,4|4|2,3:0|3:0|3:2,2:0:0:0:
292,77,50559,1,10,2:0:0:0:
272,151,50742,1,0,3:0:0:0:
194,135,50925,1,10,2:0:0:0:
16,231,51291,6,0,B|5:278|5:278|97:300,2,112.5,4|4|2,3:0|3:0|3:2,2:0:0:0:
44,127,52022,1,10,2:0:0:0:
176,247,52388,5,2,3:2:0:0:
230,190,52571,1,2,3:2:0:0:
302,212,52754,2,0,L|374:232,1,75,10|2,2:0|3:2,2:0:0:0:
439,193,53120,1,10,2:0:0:0:
391,131,53303,2,0,L|354:138,2,37.5,2|0|10,3:2|3:0|2:0,2:0:0:0:
453,84,53669,2,0,L|488:96,2,37.5,0|0|10,3:0|3:0|2:0,2:0:0:0:
382,49,54034,1,0,3:0:0:0:
303,14,54217,5,2,3:2:0:0:
285,86,54583,5,10,2:0:0:0:
266,164,54949,5,0,3:0:0:0:
266,164,55132,1,8,2:0:0:0:
248,237,55498,5,10,2:0:0:0:
232,317,55864,5,2,3:2:0:0:
232,317,56047,1,10,2:0:0:0:
232,317,56230,1,10,2:0:0:0:
275,382,56413,1,8,2:0:0:0:
512,40,57144,6,0,B|483:32|452:44|457:94|421:116|381:97,1,134.999995880127,6|0,3:2|2:0,2:0:0:0:
383,111,57510,2,2,P|329:98|287:91,1,89.9999972534181,10|0,2:0|2:0,2:1:0:0:
232,0,57876,5,2,3:2:0:0:
232,0,58150,5,2,2:0:0:0:
232,0,58425,6,0,P|212:40|215:90,1,89.9999972534181,2|0,2:0|3:0,2:0:0:0:
87,68,58791,2,2,P|111:105|156:127,1,89.9999972534181,2|8,2:0|2:0,2:1:0:0:
260,183,59156,5,2,2:0:0:0:
260,183,59339,2,0,P|326:171|392:155,2,134.999995880127,2|2|2,3:2|2:0|2:0,2:0:0:0:
206,241,60071,5,6,3:2:0:0:
143,173,60254,2,0,P|148:142|162:120,2,44.999998626709,2|2|10,2:0|2:0|2:0,2:0:0:0:
58,225,60620,1,2,2:0:0:0:
58,225,60711,1,2,2:0:0:0:
58,225,60803,2,0,P|67:295|74:370,1,134.999995880127,2|0,3:2|2:0,2:0:0:0:
87,371,61169,1,10,2:0:0:0:
156,315,61352,1,2,2:0:0:0:
156,315,61534,6,0,P|210:322|248:335,1,89.9999972534181,0|2,3:0|2:0,2:0:0:0:
329,384,61900,2,0,P|383:377|421:364,1,89.9999972534181,10|2,2:0|2:0,2:0:0:0:
492,285,62266,1,2,3:2:0:0:
492,285,62449,1,10,2:0:0:0:
438,187,62632,1,10,2:0:0:0:
438,187,62815,1,10,2:0:0:0:
327,206,62998,6,0,P|309:266|288:361,1,134.999995880127,6|0,3:2|2:0,2:0:0:0:
288,360,63364,2,2,P|243:389|198:364,1,89.9999972534181,10|2,2:0|2:0,2:1:0:0:
179,311,63730,1,0,3:0:0:0:
91,378,63913,2,0,P|36:370|0:367,1,89.9999972534181,2|8,2:0|2:0,2:0:0:0:
22,221,64278,2,0,P|77:229|113:232,1,89.9999972534181,2|0,2:0|3:0,2:0:0:0:
216,160,64644,5,2,2:0:0:0:
230,85,64827,1,10,2:0:0:0:
244,10,65010,1,2,2:0:0:0:
360,56,65193,2,0,P|404:51|449:45,1,89.9999972534181,2|0,3:2|2:0,2:0:0:0:
454,148,65559,1,10,2:0:0:0:
376,138,65742,1,2,2:0:0:0:
372,237,65925,6,0,P|416:232|461:226,1,89.9999972534181,2|0,3:2|2:0,2:0:0:0:
512,336,66291,2,0,P|445:326|378:319,1,134.999995880127,10|0,2:0|2:0,2:0:0:0:
361,335,66656,1,2,3:2:0:0:
300,285,66839,1,2,2:0:0:0:
300,285,67022,1,10,2:0:0:0:
229,361,67205,1,10,2:0:0:0:
229,361,67388,6,0,P|135:375|41:384,1,179.999994506836,2|10,3:2|2:0,2:0:0:0:
11,320,67937,1,2,2:0:0:0:
11,320,68120,2,0,P|3:273|0:226,1,89.9999972534181,10|2,2:0|2:0,2:0:0:0:
47,134,68486,2,0,P|51:110|53:87,3,44.999998626709,10|8|8|8,2:0|2:0|2:0|2:0,2:0:0:0:
88,61,68852,6,0,L|138:53,3,44.999998626709,6|2|2|2,3:2|2:0|2:0|2:0,2:0:0:0:
164,17,69217,2,0,L|214:25,3,44.999998626709,10|0|2|2,2:1|2:0|2:0|2:0,2:0:0:0:
236,55,69583,2,0,L|286:47,3,44.999998626709,2|2|2|2,3:2|2:0|2:0|2:0,2:0:0:0:
315,9,69949,2,0,L|406:34,1,89.9999972534181,8|2,2:0|2:0,2:0:0:0:
507,4,70315,5,2,3:2:0:0:
471,69,70498,1,2,2:0:0:0:
508,139,70681,1,10,2:0:0:0:
472,204,70864,1,2,2:0:0:0:
511,289,71047,2,0,P|470:249|374:243,1,134.999995880127,2|0,3:2|2:0,2:0:0:0:
384,255,71413,2,0,P|381:321|373:363,1,89.9999972534181,10|2,2:0|2:0,2:0:0:0:
261,381,71778,5,6,3:2:0:0:
249,303,71961,1,2,2:0:0:0:
237,225,72144,1,10,2:0:0:0:
305,179,72327,2,0,P|314:120|341:-1,1,179.999994506836,2|2,2:0|2:0,2:0:0:0:
214,18,72876,2,0,P|218:46|231:107,1,89.9999972534181,10|2,2:0|2:0,2:0:0:0:
167,191,73242,5,2,3:2:0:0:
90,203,73425,1,2,2:0:0:0:
59,133,73608,2,0,P|59:67|64:27,1,89.9999972534181,10|2,2:0|2:0,2:0:0:0:
4,201,73974,1,2,3:2:0:0:
15,278,74156,1,10,2:0:0:0:
28,353,74339,1,2,3:2:0:0:
221,384,74705,6,0,P|239:324|260:229,1,134.999995880127,6|0,3:2|2:0,2:0:0:0:
260,230,75071,2,2,P|305:201|350:226,1,89.9999972534181,10|0,2:0|2:0,2:1:0:0:
380,274,75437,1,0,3:0:0:0:
500,217,75620,2,0,P|450:211|399:204,1,89.9999972534181,2|8,2:0|2:0,2:0:0:0:
281,128,75986,2,0,P|331:122|382:115,1,89.9999972534181,2|0,2:0|3:0,2:0:0:0:
512,81,76352,5,2,2:0:0:0:
505,6,76534,1,10,2:0:0:0:
428,0,76717,1,2,2:0:0:0:
316,50,76900,2,0,P|266:44|215:37,1,89.9999972534181,2|0,3:2|2:0,2:0:0:0:
133,126,77266,1,10,2:0:0:0:
208,113,77449,1,2,2:0:0:0:
142,9,77632,6,0,P|92:33|80:73,1,89.9999972534181,2|0,3:2|2:0,2:0:0:0:
100,195,77998,2,0,P|111:254|124:358,1,134.999995880127,10|0,2:0|2:0,2:0:0:0:
113,352,78364,1,2,3:2:0:0:
189,382,78547,1,2,2:0:0:0:
189,382,78730,1,10,2:0:0:0:
263,305,78913,1,10,2:0:0:0:
263,305,79095,6,0,B|363:307|340:378|433:388,1,179.999994506836,2|10,3:2|2:0,2:0:0:0:
486,299,79644,1,2,2:0:0:0:
486,299,79827,2,0,P|482:238|481:190,1,89.9999972534181,10|10,2:0|2:0,2:0:0:0:
342,215,80193,2,0,P|346:276|347:324,1,89.9999972534181,10|2,2:0|2:1,2:0:0:0:
256,384,80559,5,10,2:0:0:0:
256,384,80742,1,8,2:0:0:0:
256,304,81291,5,10,2:0:0:0:
256,304,81474,1,10,2:0:0:0:
256,224,82205,5,10,2:1:0:0:
256,148,82571,5,10,2:1:0:0:
256,148,82754,1,10,2:1:0:0:
10,266,83486,6,0,P|5:314|-2:360,2,75,6|2|10,3:2|2:0|2:0,2:0:0:0:
75,130,84217,6,0,P|67:81|63:36,2,75,2|2|10,3:2|2:0|2:0,2:0:0:0:
141,281,84949,6,0,P|136:329|129:375,2,75,2|2|10,3:2|2:0|2:0,2:0:0:0:
219,119,85681,6,0,P|211:70|207:25,2,75,2|2|10,3:2|2:0|2:0,2:0:0:0:
323,285,86413,6,0,P|318:333|311:379,2,75,0|2|8,3:0|2:0|2:0,2:0:0:0:
400,90,87144,6,0,P|392:41|388:-4,2,75,0|2|8,3:0|2:0|2:0,2:0:0:0:
456,145,87693,1,12,2:0:0:0:
498,212,87876,6,0,P|493:249|487:286,1,75,2|2,3:2|2:0,2:0:0:0:
424,329,88242,2,0,P|386:324|349:318,1,75,10|2,2:0|2:0,2:0:0:0:
291,264,88608,6,0,B|283:233|283:233|285:208,2,50,10|8|8,2:0|2:0|3:0,2:0:0:0:
262,311,88974,6,0,B|211:313|211:313|163:334,1,100,2|0,2:0|3:0,2:0:0:0:
116,313,89339,5,6,2:0:0:0:
67,352,100864,5,8,2:0:0:0:
67,352,101047,2,0,P|24:364|-7:388,1,75,6|2,3:2|2:0,2:0:0:0:
95,282,101413,2,0,P|55:260|17:255,1,75,10|2,2:0|2:0,2:0:0:0:
165,252,101778,1,2,3:2:0:0:
165,252,101961,2,2,P|152:209|128:177,1,75,2|8,2:0|2:0,2:1:0:0:
24,134,102327,5,2,2:0:0:0:
24,134,102510,2,0,P|83:122|106:117,1,75,2|2,3:2|2:0,2:0:0:0:
169,31,102876,2,0,P|228:43|251:48,1,75,10|2,2:0|2:0,2:0:0:0:
314,134,103242,1,2,3:2:0:0:
314,134,103425,2,2,P|373:122|396:117,1,75,2|8,2:0|2:0,2:1:0:0:
443,19,103791,5,2,2:0:0:0:
443,19,103882,1,2,2:0:0:0:
443,19,103974,2,0,P|453:65|463:97,1,75,6|2,3:2|2:0,2:0:0:0:
512,150,104339,2,0,P|502:196|492:228,1,75,10|2,2:0|2:0,2:0:0:0:
414,303,104705,2,0,L|504:294,1,75,2|2,3:2|2:0,2:0:0:0:
499,370,105071,2,0,L|424:377,1,75,10|2,2:0|2:0,2:0:0:0:
337,311,105437,6,0,P|346:352|347:391,2,75,2|2|10,3:2|2:0|2:0,2:0:0:0:
283,254,105986,1,2,2:0:0:0:
283,254,106169,2,0,P|292:196|385:169,1,150,10|2,2:0|3:2,2:0:0:0:
490,116,106717,5,10,2:0:0:0:
490,116,106900,2,0,P|431:104|408:99,1,75,6|2,3:2|2:0,2:0:0:0:
345,13,107266,2,0,P|286:25|263:30,1,75,10|2,2:0|2:0,2:0:0:0:
200,116,107632,1,2,3:2:0:0:
200,116,107815,2,0,P|141:104|118:99,1,75,10|8,2:0|2:0,2:0:0:0:
0,98,108181,5,2,2:0:0:0:
0,98,108364,2,0,P|26:124|59:140,1,75,2|2,3:2|2:0,2:0:0:0:
0,227,108730,2,0,P|37:226|72:214,1,75,10|2,2:0|2:0,2:0:0:0:
91,318,109095,1,2,3:2:0:0:
91,318,109278,2,0,P|117:291|134:258,1,75,10|8,2:0|2:0,2:0:0:0:
217,347,109644,5,2,2:0:0:0:
217,347,109736,1,2,2:0:0:0:
217,347,109827,2,0,P|267:332|295:329,1,75,6|2,3:2|2:0,2:0:0:0:
346,279,110193,2,0,P|396:294|424:297,1,75,10|2,2:0|2:0,2:0:0:0:
485,259,110559,2,0,L|501:179,1,75,2|2,3:2|2:0,2:0:0:0:
448,128,110925,2,0,L|432:48,1,75,10|2,2:0|2:0,2:0:0:0:
321,159,111291,6,0,P|361:182|408:182,2,75,8|2|10,2:0|2:0|2:0,2:0:0:0:
272,99,111839,1,10,2:0:0:0:
272,99,112022,2,0,P|235:104|203:124,1,75,2|8,3:2|3:0,2:0:0:0:
161,189,112388,2,0,P|124:183|92:163,1,75,2|2,3:2|2:0,2:0:0:0:
0,85,112754,6,0,B|-8:35|-8:35|55:20,2,112.5,6|8|2,3:2|3:0|3:2,2:0:0:0:
21,183,113486,1,10,2:0:0:0:
167,23,114034,5,0,3:0:0:0:
167,23,114126,1,0,3:0:0:0:
167,23,114217,2,0,L|296:6,2,112.5,4|4|2,3:0|3:0|3:2,2:0:0:0:
106,103,114949,5,10,2:0:0:0:
120,176,115132,1,0,3:0:0:0:
134,249,115315,1,10,2:0:0:0:
264,378,115681,6,0,B|283:374|283:374|304:308|304:308|329:304,2,112.5,4|4|2,3:0|3:0|3:2,2:0:0:0:
209,292,116413,1,10,2:0:0:0:
363,217,116778,5,2,3:2:0:0:
432,244,116961,1,2,3:2:0:0:
500,203,117144,2,0,L|486:118,1,75,10|2,2:0|3:2,2:0:0:0:
510,57,117510,1,10,2:0:0:0:
433,37,117693,2,0,L|438:-7,2,37.5,2|0|10,3:2|3:0|2:0,2:0:0:0:
373,98,118059,2,0,L|378:142,2,37.5,2|0|10,3:2|3:0|2:0,2:0:0:0:
309,11,118425,1,0,3:0:0:0:
309,11,118608,6,0,L|181:2,2,112.5,6|4|2,3:2|3:0|3:2,2:0:0:0:
386,84,119339,1,10,2:0:0:0:
147,53,119888,5,0,3:0:0:0:
147,53,119980,1,0,3:0:0:0:
147,53,120071,2,0,B|90:52|90:52|60:-2,2,112.5,4|4|2,3:0|3:0|3:2,2:0:0:0:
249,100,120803,1,10,2:0:0:0:
238,177,120986,1,2,3:2:0:0:
159,181,121169,1,10,2:0:0:0:
28,278,121534,6,0,B|23:298|23:298|50:361|50:361|48:384,2,112.5,4|4|2,3:0|3:0|3:2,2:0:0:0:
29,166,122266,1,10,2:0:0:0:
201,191,122632,5,2,3:2:0:0:
240,259,122815,1,2,3:2:0:0:
316,279,122998,2,0,L|402:269,1,75,10|2,2:0|3:2,2:0:0:0:
412,192,123364,1,10,2:0:0:0:
360,123,123547,2,0,L|322:131,2,37.5,2|0|10,3:2|3:0|2:0,2:0:0:0:
382,43,123913,2,0,L|419:50,2,37.5,0|0|10,3:0|3:0|2:0,2:0:0:0:
298,28,124278,1,0,3:0:0:0:
209,14,124461,5,2,3:2:0:0:
227,86,124827,5,10,2:0:0:0:
246,164,125193,5,10,2:0:0:0:
246,164,125376,1,10,2:0:0:0:
264,237,125742,5,10,2:0:0:0:
296,316,126108,5,2,3:2:0:0:
296,316,126291,1,10,2:0:0:0:
296,316,126474,1,10,2:0:0:0:
243,376,126657,1,10,2:0:0:0:
258,0,127388,5,6,2:0:0:0:
256,384,133242,5,6,3:2:0:0:
256,384,133974,5,6,3:2:0:0:
256,384,134705,5,6,3:2:0:0:
256,384,135437,5,6,3:2:0:0:
256,384,136169,5,2,3:2:0:0:
96,320,136534,5,10,2:0:0:0:
32,169,136900,1,2,3:2:0:0:
32,169,137083,1,2,3:2:0:0:
32,169,137266,1,2,3:2:0:0:
174,311,137632,6,0,P|231:305|274:301,1,89.9999972534181,0|0,3:0|3:0,2:0:0:0:
111,258,137998,2,0,P|66:253|21:248,1,89.9999972534181,8|0,2:0|3:0,2:0:0:0:
130,384,138364,5,8,2:0:0:0:
170,175,138730,5,10,2:0:0:0:
453,378,139461,6,2,P|441:330|433:282,1,97.4999955368044,14|0,2:0|2:0,2:1:0:0:
332,229,139827,5,2,3:2:0:0:
332,229,140101,5,2,2:0:0:0:
331,229,140376,6,0,P|374:207|422:208,1,97.4999955368044,2|0,2:0|3:0,2:0:0:0:
415,85,140742,2,2,P|455:111|478:153,1,97.4999955368044,2|8,2:0|2:0,2:1:0:0:
512,290,141108,1,2,2:0:0:0:
512,290,141291,2,0,P|409:317|348:341,2,146.249993305207,2|2|2,3:2|2:0|2:0,2:0:0:0:
426,216,142022,5,6,3:2:0:0:
368,327,142205,2,0,P|361:363|361:386,2,48.7499977684022,2|2|10,2:0|2:0|2:0,2:0:0:0:
266,266,142571,1,2,2:0:0:0:
266,266,142663,1,2,2:0:0:0:
266,266,142754,2,0,P|191:278|111:291,2,146.249993305207,2|2|2,3:2|2:0|2:0,2:0:0:0:
318,209,143486,6,0,P|331:161|320:106,1,97.4999955368044,0|2,3:0|2:0,2:0:0:0:
457,112,143852,2,0,P|421:76|368:58,1,97.4999955368044,8|2,2:0|2:0,2:0:0:0:
252,87,144217,1,8,2:0:0:0:
252,87,144400,1,10,2:0:0:0:
167,3,144583,1,10,2:0:0:0:
167,3,144766,1,2,3:2:0:0:
57,51,144949,6,0,P|46:130|27:211,1,146.249993305207,6|0,3:2|2:0,2:0:0:0:
27,218,145315,2,2,P|45:265|103:280,1,97.4999955368044,10|2,2:0|2:0,2:1:0:0:
148,237,145681,1,0,3:0:0:0:
201,368,145864,2,0,P|211:312|218:261,1,97.4999955368044,2|8,2:0|2:0,2:0:0:0:
371,288,146230,2,0,P|361:344|354:395,1,97.4999955368044,2|0,2:0|3:0,2:0:0:0:
293,264,146595,5,2,2:0:0:0:
309,189,146778,1,10,2:0:0:0:
325,114,146961,1,2,2:0:0:0:
265,25,147144,6,0,P|313:22|376:10,1,97.4999955368044,2|0,3:2|2:0,2:0:0:0:
473,88,147510,1,10,2:0:0:0:
481,10,147693,1,2,2:0:0:0:
402,118,147876,6,0,P|405:166|417:229,1,97.4999955368044,2|0,3:2|2:0,2:0:0:0:
308,258,148242,2,0,P|320:185|325:113,1,146.249993305207,10|0,2:0|2:0,2:0:0:0:
316,104,148608,1,2,3:2:0:0:
245,144,148791,1,2,2:0:0:0:
245,144,148974,1,10,2:0:0:0:
176,40,149156,1,10,2:0:0:0:
176,40,149339,6,0,P|167:132|146:242,1,194.999991073609,2|14,3:2|2:0,2:0:0:0:
96,289,149888,1,2,2:0:0:0:
96,289,150071,2,0,P|50:284|-4:274,1,97.4999955368044,2|2,3:2|2:0,2:0:0:0:
142,351,150437,2,0,P|158:347|192:343,3,48.7499977684022,10|8|8|8,2:0|2:0|2:0|2:0,2:0:0:0:
228,307,150803,6,0,L|233:249,3,48.7499977684022,6|2|2|2,3:2|2:0|2:0|2:0,2:0:0:0:
271,230,151169,1,10,2:1:0:0:
271,230,151352,1,2,2:0:0:0:
340,307,151534,2,0,L|345:365,3,48.7499977684022,2|2|2|2,3:2|2:0|2:0|2:0,2:0:0:0:
383,384,151900,1,8,2:0:0:0:
467,342,152083,5,2,2:0:0:0:
467,342,152175,1,2,2:0:0:0:
467,342,152266,2,0,P|457:279|452:238,1,97.4999955368044,2|2,3:2|2:0,2:0:0:0:
493,173,152632,1,10,2:0:0:0:
493,173,152815,1,2,2:0:0:0:
389,205,152998,2,0,P|322:198|274:190,1,97.4999955368044,2|0,3:2|2:0,2:0:0:0:
238,132,153364,1,10,2:0:0:0:
238,132,153547,1,2,2:0:0:0:
178,232,153730,6,0,P|183:293|186:349,2,97.4999955368044,6|2|10,3:2|2:0|2:0,2:0:0:0:
108,170,154278,2,0,P|98:284|93:388,1,194.999991073609,2|2,2:0|2:0,2:0:0:0:
17,318,154827,2,0,P|14:269|9:220,1,97.4999955368044,10|2,2:0|2:0,2:0:0:0:
0,93,155193,5,2,3:2:0:0:
59,43,155376,1,2,2:0:0:0:
128,79,155559,2,0,P|123:127|120:176,1,97.4999955368044,10|2,2:0|2:0,2:0:0:0:
225,118,155925,1,2,3:2:0:0:
298,103,156108,1,10,2:0:0:0:
372,89,156291,1,10,2:0:0:0:
511,226,156656,6,0,P|482:276|458:362,1,146.249993305207,6|0,3:2|2:0,2:0:0:0:
446,376,157022,2,2,P|398:386|351:349,1,97.4999955368044,10|0,2:0|2:0,2:1:0:0:
342,286,157388,1,0,3:0:0:0:
252,383,157571,2,0,P|263:325|269:267,1,97.4999955368044,2|8,2:0|2:0,2:0:0:0:
356,213,157937,2,0,P|345:155|339:97,1,97.4999955368044,2|0,2:0|3:0,2:0:0:0:
278,0,158303,5,2,2:0:0:0:
214,40,158486,1,10,2:0:0:0:
236,112,158669,1,2,2:0:0:0:
363,47,158852,2,0,P|421:36|479:30,1,97.4999955368044,2|0,3:2|2:0,2:0:0:0:
508,133,159217,1,10,2:0:0:0:
429,121,159400,1,2,2:0:0:0:
358,217,159583,6,0,P|416:206|474:200,1,97.4999955368044,2|0,3:2|2:0,2:0:0:0:
512,319,159949,2,0,P|436:304|361:296,1,146.249993305207,10|0,2:0|2:0,2:0:0:0:
359,309,160315,1,2,3:2:0:0:
293,263,160498,1,2,2:0:0:0:
293,263,160681,1,10,2:0:0:0:
237,358,160864,1,10,2:0:0:0:
237,358,161047,6,0,B|123:350|183:277|65:256,1,194.999991073609,2|10,3:2|2:0,2:0:0:0:
4,384,161595,1,2,2:0:0:0:
4,384,161778,2,0,P|8:314|7:265,1,97.4999955368044,10|10,2:0|2:0,2:0:0:0:
149,216,162144,2,0,P|149:264|152:313,1,97.4999955368044,10|2,2:0|2:1,2:0:0:0:
256,384,162510,5,10,2:0:0:0:
256,384,162693,1,8,2:0:0:0:
256,304,163242,5,10,2:0:0:0:
256,304,163425,1,10,2:0:0:0:
256,224,164156,5,10,2:1:0:0:
256,148,164522,5,10,2:1:0:0:
256,148,164705,1,10,2:1:0:0:
426,343,165438,6,0,P|475:356|511:384,1,97.4999955368044,6|0,3:2|2:0,2:0:0:0:
402,271,165804,2,2,P|447:245|491:239,1,97.4999955368044,10|0,2:0|2:0,2:1:0:0:
336,230,166169,1,2,3:2:0:0:
336,230,166352,2,0,P|350:180|378:143,1,97.4999955368044,2|8,2:0|2:0,2:0:0:0:
512,90,166717,6,0,L|408:79,1,97.4999955368044,2|0,2:0|3:0,2:0:0:0:
299,0,167083,1,2,2:0:0:0:
291,75,167266,1,10,2:0:0:0:
283,150,167449,1,2,2:0:0:0:
203,46,167632,2,0,L|0:67,1,194.999991073609,2|10,3:2|2:0,2:0:0:0:
86,343,168364,6,0,P|36:356|0:384,1,97.4999955368044,6|0,3:2|2:0,2:0:0:0:
110,271,168730,2,2,P|64:245|20:239,1,97.4999955368044,10|0,2:0|2:0,2:1:0:0:
176,230,169095,1,2,3:2:0:0:
176,230,169278,2,0,P|161:180|133:143,1,97.4999955368044,2|8,2:0|2:0,2:0:0:0:
22,81,169644,6,0,L|126:70,1,97.4999955368044,2|0,2:0|3:0,2:0:0:0:
229,150,170010,1,2,2:0:0:0:
221,75,170193,1,8,2:0:0:0:
213,0,170376,1,2,2:0:0:0:
302,100,170559,2,0,L|505:79,1,194.999991073609,2|8,3:2|2:0,2:0:0:0:
512,314,171291,6,0,P|461:277|425:238,1,97.4999955368044,6|0,3:2|2:0,2:0:0:0:
377,384,171656,2,2,P|367:322|369:269,1,97.4999955368044,10|0,2:0|2:0,2:1:0:0:
231,339,172022,1,2,3:2:0:0:
231,339,172205,2,0,P|258:299|292:264,1,97.4999955368044,2|8,2:0|2:0,2:0:0:0:
416,181,172571,6,0,L|308:196,1,97.4999955368044,2|0,2:0|3:0,2:0:0:0:
210,130,172937,1,2,2:0:0:0:
135,138,173120,1,10,2:0:0:0:
60,146,173303,1,2,2:0:0:0:
0,247,173486,2,0,L|230:279,1,194.999991073609,2|10,3:2|2:0,2:0:0:0:
509,379,174217,6,2,P|498:324|491:272,1,97.4999955368044,2|0,3:2|2:0,2:1:0:0:
420,201,174583,2,2,P|408:273|393:344,1,146.249993305207,10|0,2:0|2:0,2:1:0:0:
383,357,174949,1,2,3:2:0:0:
316,309,175132,1,2,2:0:0:0:
316,309,175315,1,10,2:0:0:0:
251,381,175498,1,10,2:0:0:0:
251,381,175681,6,0,B|164:372|190:293|79:291,1,194.999991073609,2|10,3:2|2:1,2:0:0:0:
6,203,176230,1,2,2:0:0:0:
6,203,176413,2,0,P|55:194|106:181,1,97.4999955368044,10|0,2:1|2:0,2:0:0:0:
85,291,176778,2,0,P|66:216|41:91,1,194.999991073609,10|0,2:1|2:0,2:0:0:0:
