osu file format v14

[General]
AudioFilename: audio.mp3
AudioLeadIn: 0
PreviewTime: 126382
Countdown: 0
SampleSet: Soft
StackLeniency: 0.4
Mode: 0
LetterboxInBreaks: 0
WidescreenStoryboard: 1

[Editor]
Bookmarks: 165437
DistanceSpacing: 1
BeatDivisor: 4
GridSize: 32
TimelineZoom: 2.3

[Metadata]
Title:Vampire
TitleUnicode:ヴァンパイア
Artist:VESPERBELL
ArtistUnicode:VESPERBELL
Creator:Petal
Version:Normal
Source:
Tags:japanese pop j-pop jpop cover full version DECO*27 カスカ KASUKA matha ayucchi shii ShiiTsuin shikibe mayu Shizuku- Kazato Asa
BeatmapID:3062983
BeatmapSetID:1493527

[Difficulty]
HPDrainRate:3.5
CircleSize:3.5
OverallDifficulty:4
ApproachRate:5
SliderMultiplier:0.999999999999999
SliderTickRate:1

[Events]
//Background and Video events
0,0,"BG.png",0,0
//Break Periods
2,89539,98383
2,127588,132042
//Storyboard Layer 0 (Background)
//Storyboard Layer 1 (Fail)
//Storyboard Layer 2 (Pass)
//Storyboard Layer 3 (Foreground)
//Storyboard Layer 4 (Overlay)
//Storyboard Sound Samples

[TimingPoints]
1535,365.853658536585,4,2,1,30,1,0
1900,-111.111111111111,4,2,1,30,0,0
4278,-111.111111111111,4,2,1,40,0,0
6107,-111.111111111111,4,2,1,50,0,0
6839,-111.111111111111,4,2,1,60,0,0
7388,-100,4,2,1,60,0,0
11047,-100,4,2,1,70,0,0
11595,-100,4,2,1,55,0,0
11961,-100,4,2,1,60,0,0
13242,-100,4,2,1,70,0,0
24949,-111.111111111111,4,2,1,60,0,0
25314,-111.111111111111,4,2,1,50,0,0
35925,-111.111111111111,4,2,1,60,0,0
36656,-100,4,2,1,65,0,0
48364,-100,4,2,1,70,0,0
52022,-100,4,2,1,60,0,0
52754,-100,4,2,1,70,0,0
57144,-90.9090909090909,4,2,1,80,0,1
80559,-90.9090909090909,4,2,1,70,0,0
83486,-111.111111111111,4,2,1,45,0,0
99583,-111.111111111111,4,2,1,55,0,0
101047,-100,4,2,1,65,0,0
112754,-100,4,2,1,70,0,0
127388,-100,4,2,1,50,0,0
133242,-111.111111111111,4,2,1,70,0,0
136169,-100,4,2,1,70,0,0
139095,-100,4,2,1,40,0,0
139461,-100,4,2,1,80,0,1
140010,-90.9090909090909,4,2,1,80,0,1
162510,-90.9090909090909,4,2,1,70,0,0
163608,-90.9090909090909,4,2,1,60,0,0
164156,-90.9090909090909,4,2,1,70,0,0
165437,-100,4,2,1,70,0,0
176778,-100,4,2,1,60,0,0
177143,-100,4,2,1,5,0,0

[Colours]
Combo1 : 236,143,75
Combo2 : 254,216,86
Combo3 : 178,198,204
Combo4 : 227,116,113

[HitObjects]
409,49,1535,5,2,3:2:0:0:
353,119,1900,2,0,L|365:170,1,44.999998626709,2|0,2:0|2:0,2:0:0:0:
334,198,2266,2,0,P|296:198|265:233,2,67.4999979400635,2|2|2,2:0|2:0|2:0,2:0:0:0:
400,258,3181,1,2,2:0:0:0:
349,332,3547,1,2,2:0:0:0:
343,335,3730,2,0,L|268:318,1,67.4999979400635,2|2,2:0|2:0,2:0:0:0:
214,267,4278,6,0,P|175:267|110:332,1,134.999995880127,2|10,2:0|2:0,2:0:0:0:
31,375,5193,1,2,3:2:0:0:
24,368,5376,2,0,L|13:314,1,44.999998626709,2|10,2:0|3:2,2:0:0:0:
31,281,5742,2,0,L|10:183,1,89.999997253418,2|2,2:0|2:0,2:0:0:0:
26,149,6291,1,10,2:0:0:0:
104,104,6656,1,2,3:2:0:0:
112,107,6839,2,0,L|157:99,2,44.999998626709,10|10|10,2:0|2:0|2:0,2:0:0:0:
79,86,7388,6,0,P|61:48|151:-1,1,150,6|2,3:2|2:0,2:0:0:0:
221,34,8303,2,0,L|278:24,1,50,2|8,2:0|2:0,2:0:0:0:
317,41,8669,2,0,L|338:147,1,99.9999999999999,10|10,3:2|2:0,2:0:0:0:
316,184,9217,1,0,3:0:0:0:
389,251,9583,1,2,3:2:0:0:
317,320,9949,2,0,L|263:309,1,50,14|2,2:0|2:0,2:0:0:0:
223,334,10315,5,2,3:2:0:0:
148,266,10681,1,2,2:3:0:0:
75,334,11047,2,0,L|85:395,2,50,10|10|2,2:0|2:0|2:0,2:0:0:0:
35,303,11595,1,2,2:0:0:0:
3,208,11961,5,10,3:2:0:0:
65,130,12327,2,0,P|86:127|74:141,1,50,10|10,2:0|2:0,2:0:0:0:
233,18,13242,6,0,L|293:30,1,50,6|2,3:2|2:0,2:0:0:0:
316,64,13608,2,0,L|365:73,1,50,10|2,2:0|2:0,2:0:0:0:
413,59,13974,2,0,L|422:6,2,50,2|2|10,3:2|2:0|2:0,2:0:0:0:
472,139,14705,2,0,L|456:258,1,99.9999999999999,2|10,3:2|2:0,2:0:0:0:
422,273,15254,1,2,2:0:0:0:
415,277,15437,2,0,L|358:264,1,50,2|2,3:2|2:0,2:0:0:0:
332,228,15803,2,0,L|275:215,1,50,10|2,2:0|2:0,2:0:0:0:
217,293,16352,6,0,P|174:323|117:304,1,99.9999999999999,2|2,2:0|2:0,2:0:0:0:
65,238,17083,1,2,2:0:0:0:
131,163,17449,2,0,L|151:58,1,99.9999999999999,2|2,2:0|2:0,2:0:0:0:
190,35,17998,1,10,2:0:0:0:
266,98,18364,1,2,3:2:0:0:
273,90,18547,2,0,L|330:81,1,50,10|10,2:0|2:0,2:0:0:0:
344,179,19095,6,0,L|285:189,1,50,6|2,3:2|2:0,2:0:0:0:
267,229,19461,2,0,L|205:239,1,50,10|2,2:0|2:0,2:0:0:0:
171,216,19827,2,0,L|161:158,2,50,2|2|10,3:2|2:0|2:0,2:0:0:0:
86,270,20559,2,0,P|123:298|138:361,1,99.9999999999999,2|10,3:2|2:0,2:0:0:0:
178,378,21108,1,2,2:0:0:0:
184,371,21291,2,0,L|247:382,1,50,2|2,3:2|2:0,2:0:0:0:
278,359,21656,2,0,L|341:370,1,50,10|2,2:0|2:0,2:0:0:0:
409,310,22205,6,0,P|397:260|426:213,1,99.9999999999999,2|2,2:0|2:0,2:0:0:0:
507,172,22937,1,2,2:0:0:0:
443,94,23303,2,0,L|340:111,1,99.9999999999999,10|2,2:0|2:0,2:0:0:0:
306,77,23852,1,10,2:0:0:0:
248,158,24217,2,0,L|261:220,1,50,10|10,2:0|2:0,2:0:0:0:
236,252,24583,2,0,L|246:300,1,50,10|10,2:0|2:0,2:0:0:0:
225,341,24949,6,0,P|190:361|140:340,1,89.999997253418,6|2,3:2|3:2,2:0:0:0:
75,283,25681,2,0,L|67:203,1,67.4999979400635,2|2,3:2|2:0,2:0:0:0:
49,137,26230,6,0,P|87:133|133:171,1,89.999997253418,2|2,2:0|2:0,2:0:0:0:
164,187,26778,2,0,L|208:175,1,44.999998626709,2|2,3:2|2:0,2:0:0:0:
248,158,27144,1,2,3:2:0:0:
289,77,27510,2,0,L|345:93,1,44.999998626709,2|2,3:2|2:0,2:0:0:0:
415,125,28059,6,0,P|423:103|415:74,2,44.999998626709,2|2|2,2:0|3:2|2:0,2:0:0:0:
384,158,28608,2,0,L|403:252,1,89.999997253418,2|2,3:2|3:2,2:0:0:0:
392,290,29156,2,0,P|356:315|315:303,1,89.999997253418,2|2,2:0|2:0,2:0:0:0:
283,269,29705,1,2,3:2:0:0:
229,341,30071,2,0,L|175:350,2,44.999998626709,2|2|0,3:2|2:0|3:0,2:0:0:0:
283,269,30803,6,0,L|266:167,1,89.999997253418,2|2,3:2|3:2,2:0:0:0:
196,125,31534,2,0,P|170:151|130:151,1,67.4999979400635,2|2,3:2|2:0,2:0:0:0:
76,200,32083,2,0,P|117:202|155:242,1,89.999997253418,2|2,2:0|2:0,2:0:0:0:
157,278,32632,1,2,3:2:0:0:
210,350,32998,2,0,L|267:339,1,44.999998626709,2|2,3:2|2:0,2:0:0:0:
281,305,33364,2,0,L|325:296,1,44.999998626709,2|2,3:2|2:0,2:0:0:0:
403,340,33913,6,0,L|393:394,2,44.999998626709,2|2|2,2:0|3:2|2:0,2:0:0:0:
438,312,34461,2,0,L|447:251,1,44.999998626709,2|2,3:2|2:0,2:0:0:0:
421,228,34827,2,0,L|429:171,1,44.999998626709,2|2,3:2|2:0,2:0:0:0:
462,154,35193,1,2,3:2:0:0:
426,71,35559,1,2,3:2:0:0:
341,103,35925,2,0,L|243:87,1,89.999997253418,10|10,2:0|3:2,2:0:0:0:
157,54,36656,6,0,P|145:82|158:117,1,50,6|2,3:2|2:0,2:0:0:0:
176,141,37022,2,0,P|177:165|166:187,1,50,8|2,2:0|2:0,2:0:0:0:
123,214,37388,1,2,3:2:0:0:
115,219,37571,2,0,L|46:206,1,50,2|8,2:0|2:0,2:0:0:0:
52,309,38120,6,0,L|115:319,1,50,2|2,3:2|2:0,2:0:0:0:
137,352,38486,2,0,L|186:359,1,50,10|2,2:0|2:0,2:0:0:0:
233,339,38852,1,2,3:2:0:0:
240,332,39034,2,0,P|247:298|234:269,1,50,2|8,2:0|2:0,2:0:0:0:
300,199,39583,5,2,3:2:0:0:
381,256,39949,1,10,2:0:0:0:
443,178,40315,2,0,L|450:117,1,50,2|2,3:2|2:0,2:0:0:0:
483,91,40681,2,0,L|490:30,1,50,10|2,2:0|2:0,2:0:0:0:
456,2,41047,2,0,P|417:1|374:46,1,99.9999999999999,2|10,3:2|2:0,2:0:0:0:
285,85,41778,2,0,L|226:73,2,50,2|8|10,3:2|2:0|2:0,2:0:0:0:
348,162,42510,6,0,L|335:220,1,50,6|2,3:2|2:0,2:0:0:0:
367,250,42876,2,0,L|354:308,1,50,10|2,2:0|2:0,2:0:0:0:
314,327,43242,1,2,3:2:0:0:
305,322,43425,2,0,P|272:328|259:345,1,50,10|8,2:0|2:0,2:0:0:0:
170,379,43974,6,0,L|104:369,1,50,2|2,3:2|2:0,2:0:0:0:
88,332,44339,2,0,L|98:266,1,50,10|2,2:0|2:0,2:0:0:0:
69,239,44705,1,2,3:2:0:0:
65,229,44888,2,0,P|81:207|80:172,1,50,10|8,2:0|2:0,2:0:0:0:
28,100,45437,5,2,3:2:0:0:
89,20,45803,1,10,2:0:0:0:
163,86,46169,2,0,L|280:70,1,99.9999999999999,2|10,3:2|2:0,2:0:0:0:
301,102,46717,1,10,2:0:0:0:
310,99,46900,5,2,3:2:0:0:
374,22,47266,1,10,2:0:0:0:
440,96,47632,2,0,L|428:152,1,50,10|8,2:0|2:0,2:0:0:0:
387,173,47998,2,0,L|375:229,1,50,10|8,2:0|2:0,2:0:0:0:
403,264,48364,6,0,P|444:272|468:304,2,74.9999999999999,6|0|2,3:2|3:0|3:2,2:0:0:0:
367,298,49095,2,0,L|253:317,1,99.9999999999999,10|2,2:0|2:0,2:0:0:0:
169,300,49827,2,0,P|163:336|180:369,2,74.9999999999999,4|4|2,3:0|3:0|3:2,2:0:0:0:
201,261,50559,2,0,L|176:148,1,99.9999999999999,10|10,2:0|2:0,2:0:0:0:
191,63,51291,6,0,B|154:52|154:52|112:89,2,74.9999999999999,4|4|2,3:0|3:0|3:2,2:0:0:0:
234,87,52022,2,0,L|337:60,1,99.9999999999999,10|2,2:0|3:2,2:0:0:0:
375,84,52571,1,2,3:2:0:0:
383,80,52754,1,10,2:0:0:0:
466,135,53120,2,0,L|455:199,1,50,10|2,2:0|3:2,2:0:0:0:
447,233,53486,2,0,P|406:253|349:226,1,99.9999999999999,10|10,2:0|2:0,2:0:0:0:
276,176,54217,5,2,3:2:0:0:
212,253,54583,1,10,2:0:0:0:
135,188,54949,1,0,3:0:0:0:
126,191,55132,1,8,2:0:0:0:
56,263,55498,6,0,L|75:369,1,99.9999999999999,10|2,2:0|3:2,2:0:0:0:
119,382,56047,2,0,L|180:368,1,50,10|10,2:0|2:0,2:0:0:0:
216,358,56413,1,8,2:0:0:0:
411,258,57144,6,0,P|417:205|464:163,1,110.000003356934,6|10,3:2|2:0,2:0:0:0:
404,68,57876,1,2,3:2:0:0:
393,61,58059,2,0,L|330:75,1,55.0000016784668,2|8,2:0|2:0,2:0:0:0:
298,110,58425,1,2,2:0:0:0:
209,44,58791,2,2,P|146:47|117:97,1,110.000003356934,2|2,2:0|2:0,2:1:0:0:
85,124,59339,2,0,L|99:199,1,55.0000016784668,2|2,3:2|2:0,2:0:0:0:
143,205,59705,1,10,2:0:0:0:
92,302,60071,6,0,P|156:303|196:347,1,110.000003356934,6|10,3:2|2:0,2:0:0:0:
280,270,60803,2,0,L|294:211,2,55.0000016784668,2|2|10,3:2|2:0|2:0,2:0:0:0:
290,324,61352,2,0,P|332:356|386:353,1,110.000003356934,2|2,2:0|2:0,2:0:0:0:
430,320,61900,1,10,2:0:0:0:
395,215,62266,1,2,3:2:0:0:
403,208,62449,2,0,L|465:221,2,55.0000016784668,10|10|10,2:0|2:0|2:0,2:0:0:0:
370,163,62998,6,0,L|397:42,1,110.000003356934,6|10,3:2|2:0,2:0:0:0:
362,10,63547,1,2,2:0:0:0:
265,63,63913,2,0,L|254:117,1,55.0000016784668,2|8,2:0|2:0,2:0:0:0:
218,158,64278,2,0,P|265:166|299:216,1,110.000003356934,2|2,2:0|2:0,2:0:0:0:
278,266,64827,1,10,2:0:0:0:
208,351,65193,2,0,L|99:334,1,110.000003356934,2|10,3:2|2:0,2:0:0:0:
22,255,65925,5,2,3:2:0:0:
105,183,66291,1,10,2:0:0:0:
53,86,66656,2,0,L|-4:78,2,55.0000016784668,2|2|10,3:2|2:0|2:0,2:0:0:0:
97,53,67205,1,10,2:0:0:0:
107,48,67388,2,0,P|153:52|190:114,1,110.000003356934,2|10,3:2|2:0,2:0:0:0:
273,171,68120,2,0,L|353:157,1,55.0000016784668,10|2,2:0|2:0,2:0:0:0:
365,122,68486,1,10,2:0:0:0:
454,185,68852,6,0,L|442:249,1,55.0000016784668,6|2,3:2|2:0,2:0:0:0:
402,275,69217,2,0,L|333:290,1,55.0000016784668,10|2,2:1|2:0,2:0:0:0:
315,331,69583,1,2,3:2:0:0:
226,266,69949,1,8,2:0:0:0:
273,171,70315,2,0,L|273:112,1,55.0000016784668,2|2,3:2|2:0,2:0:0:0:
242,69,70681,2,0,L|183:69,1,55.0000016784668,10|2,2:0|2:0,2:0:0:0:
138,43,71047,2,0,P|77:47|53:89,1,110.000003356934,2|10,3:2|2:0,2:0:0:0:
121,171,71778,6,0,L|182:159,2,55.0000016784668,6|2|10,3:2|2:0|2:0,2:0:0:0:
80,208,72327,2,0,L|104:325,1,110.000003356934,2|2,2:0|2:0,2:0:0:0:
147,347,72876,1,10,2:0:0:0:
231,276,73242,2,0,L|297:290,1,55.0000016784668,2|2,3:2|2:0,2:0:0:0:
317,332,73608,2,0,L|370:343,1,55.0000016784668,10|2,2:0|2:0,2:0:0:0:
421,321,73974,1,2,3:2:0:0:
366,225,74339,1,2,3:2:0:0:
453,158,74705,6,0,L|481:44,1,110.000003356934,6|10,3:2|2:0,2:0:0:0:
377,7,75437,1,0,3:0:0:0:
371,14,75620,2,0,P|340:33|314:26,1,55.0000016784668,2|8,2:0|2:0,2:0:0:0:
274,4,75986,2,0,L|144:21,1,110.000003356934,2|2,2:0|2:0,2:0:0:0:
126,57,76534,1,10,2:0:0:0:
189,146,76900,1,2,3:2:0:0:
100,211,77266,2,0,L|114:278,1,55.0000016784668,10|2,2:0|2:0,2:0:0:0:
124,318,77632,5,2,3:2:0:0:
213,253,77998,1,10,2:0:0:0:
305,312,78364,2,0,L|315:372,2,55.0000016784668,2|2|10,3:2|2:0|2:0,2:0:0:0:
338,268,78913,1,10,2:0:0:0:
344,259,79095,2,0,L|331:187,1,55.0000016784668,2|2,3:2|2:0,2:0:0:0:
362,157,79461,1,10,2:0:0:0:
284,79,79827,2,0,L|217:94,2,55.0000016784668,10|10|10,2:0|2:0|2:0,2:0:0:0:
373,14,80559,5,10,2:0:0:0:
383,17,80742,1,8,2:0:0:0:
446,169,81291,6,0,L|512:160,2,55.0000016784668,10|10|2,2:0|2:0|2:0,2:0:0:0:
398,141,81839,1,2,2:0:0:0:
318,216,82205,6,0,L|333:291,1,55.0000016784668,10|2,2:1|2:0,2:0:0:0:
305,319,82571,1,10,2:1:0:0:
308,330,82754,1,10,2:1:0:0:
129,353,83486,6,0,L|71:343,1,44.999998626709,6|2,3:2|2:0,2:0:0:0:
59,307,83852,2,0,L|72:251,1,44.999998626709,10|2,2:0|2:0,2:0:0:0:
55,220,84217,2,0,L|70:163,2,44.999998626709,2|2|10,3:2|2:0|2:0,2:0:0:0:
144,231,84949,6,0,L|241:217,1,89.999997253418,2|10,3:2|2:0,2:0:0:0:
304,162,85681,2,0,P|313:122|278:69,1,89.999997253418,2|10,3:2|2:0,2:0:0:0:
346,7,86413,1,0,3:0:0:0:
351,16,86595,2,0,L|403:26,1,44.999998626709,2|8,2:0|2:0,2:0:0:0:
425,59,86961,2,0,L|477:69,1,44.999998626709,2|0,2:0|3:0,2:0:0:0:
511,49,87327,1,2,2:0:0:0:
506,138,87693,1,12,2:0:0:0:
496,142,87876,6,0,L|478:236,1,89.999997253418,2|10,3:2|2:0,2:0:0:0:
418,296,88608,1,10,2:0:0:0:
362,224,88974,1,2,2:0:0:0:
294,283,89339,5,6,2:0:0:0:
67,146,99583,6,0,P|111:141|151:187,1,89.999997253418,2|10,3:0|3:0,2:0:0:0:
199,240,100315,2,0,P|233:267|276:262,1,89.999997253418,10|8,2:0|2:0,2:0:0:0:
365,214,101047,6,0,L|375:147,1,50,6|2,3:2|2:0,2:0:0:0:
409,130,101413,2,0,L|419:63,1,50,10|2,2:0|2:0,2:0:0:0:
387,39,101778,1,2,3:2:0:0:
375,31,101961,2,2,P|346:30|327:52,1,50,2|8,2:0|2:0,2:1:0:0:
254,108,102510,6,0,L|196:97,1,50,2|2,3:2|2:0,2:0:0:0:
169,62,102876,2,0,L|119:52,1,50,10|2,2:0|2:0,2:0:0:0:
73,73,103242,1,2,3:2:0:0:
64,80,103425,2,2,P|55:111|66:141,1,50,2|8,2:0|2:0,2:1:0:0:
141,183,103974,6,0,L|129:245,1,50,6|2,3:2|2:0,2:0:0:0:
89,259,104339,2,0,L|77:321,1,50,10|2,2:0|2:0,2:0:0:0:
109,348,104705,1,2,3:2:0:0:
198,303,105071,2,0,L|257:313,1,50,10|2,2:0|2:0,2:0:0:0:
285,344,105437,1,2,3:2:0:0:
354,271,105803,2,0,L|407:282,2,50,10|2|10,2:0|2:0|2:0,2:0:0:0:
316,237,106352,1,8,2:0:0:0:
309,231,106534,1,2,3:2:0:0:
219,186,106900,6,0,L|227:121,1,50,6|2,3:2|2:0,2:0:0:0:
256,96,107266,2,0,L|321:104,1,50,10|2,2:0|2:0,2:0:0:0:
343,135,107632,1,2,3:2:0:0:
351,129,107815,2,0,P|376:122|401:149,1,50,10|8,2:0|2:0,2:0:0:0:
468,202,108364,6,0,L|456:264,1,50,2|2,3:2|2:0,2:0:0:0:
416,278,108730,2,0,L|404:340,1,50,10|2,2:0|2:0,2:0:0:0:
371,363,109095,1,2,3:2:0:0:
360,357,109278,2,0,P|336:349|309:361,1,50,10|8,2:0|2:0,2:0:0:0:
216,381,109827,6,0,L|151:371,1,50,6|2,3:2|2:0,2:0:0:0:
136,333,110193,2,0,L|146:268,1,50,10|2,2:0|2:0,2:0:0:0:
176,245,110559,1,2,3:2:0:0:
103,175,110925,1,10,2:0:0:0:
152,88,111291,6,0,P|199:86|246:131,1,99.9999999999999,8|10,2:0|2:0,2:0:0:0:
293,200,112022,2,0,L|346:190,1,50,2|8,3:2|3:0,2:0:0:0:
366,146,112388,2,0,L|419:136,1,50,2|2,3:2|2:0,2:0:0:0:
449,100,112754,6,0,P|457:64|443:29,2,74.9999999999999,6|8|2,3:2|3:0|3:2,2:0:0:0:
415,136,113486,2,0,L|431:234,1,99.9999999999999,10|2,2:0|2:0,2:0:0:0:
421,334,114217,6,0,P|459:333|498:359,2,74.9999999999999,4|4|2,3:0|3:0|3:2,2:0:0:0:
382,366,114949,1,10,2:0:0:0:
332,278,115315,1,10,2:0:0:0:
237,310,115681,6,0,L|227:384,2,74.9999999999999,4|4|2,3:0|3:0|3:2,2:0:0:0:
204,271,116413,2,0,L|217:160,1,99.9999999999999,10|2,2:0|3:2,2:0:0:0:
247,132,116961,1,2,3:2:0:0:
249,122,117144,1,10,2:0:0:0:
197,36,117510,2,0,L|129:50,1,50,10|2,2:0|3:2,2:0:0:0:
104,21,117876,2,0,P|63:40|54:95,1,99.9999999999999,10|10,2:0|2:0,2:0:0:0:
97,180,118608,6,0,L|173:161,2,74.9999999999999,6|4|2,3:2|3:0|3:2,2:0:0:0:
49,194,119339,2,0,L|34:309,1,99.9999999999999,10|2,2:0|2:0,2:0:0:0:
112,357,120071,6,0,P|73:360|43:397,2,74.9999999999999,4|4|2,3:0|3:0|3:2,2:0:0:0:
151,326,120803,2,0,L|262:351,1,99.9999999999999,10|10,2:0|2:0,2:0:0:0:
342,314,121534,6,0,B|360:347|360:347|348:394,2,74.9999999999999,4|4|2,3:0|3:0|3:2,2:0:0:0:
308,276,122266,2,0,L|322:205,1,50,10|2,2:0|2:0,2:0:0:0:
359,199,122632,2,0,L|373:128,1,50,2|2,3:2|3:2,2:0:0:0:
344,105,122998,1,10,2:0:0:0:
282,26,123364,1,10,2:0:0:0:
204,89,123730,2,0,L|184:195,1,99.9999999999999,10|10,2:0|2:0,2:0:0:0:
167,285,124461,5,2,3:2:0:0:
262,256,124827,1,10,2:0:0:0:
304,344,125193,1,10,2:0:0:0:
314,348,125376,1,10,2:0:0:0:
392,285,125742,6,0,L|376:173,1,99.9999999999999,10|2,2:0|3:2,2:0:0:0:
341,150,126291,1,10,2:0:0:0:
333,140,126474,2,0,L|325:81,1,50,10|10,2:0|2:0,2:0:0:0:
256,192,127388,5,6,2:0:0:0:
0,33,133242,6,0,P|60:24|125:81,1,134.999995880127,6|0,3:2|2:0,2:0:0:0:
162,62,133974,2,0,P|214:102|279:94,1,134.999995880127,6|0,3:2|2:0,2:0:0:0:
307,58,134705,1,6,3:2:0:0:
450,167,135437,1,6,3:2:0:0:
381,225,135803,2,0,L|395:289,1,44.999998626709,2|2,2:0|2:0,2:0:0:0:
395,319,136169,6,0,L|337:330,1,50,2|2,3:2|2:3,2:0:0:0:
302,304,136534,1,10,2:0:0:0:
206,335,136900,2,0,L|214:392,2,50,2|2|2,3:2|3:2|3:2,2:0:0:0:
170,299,137449,1,2,2:0:0:0:
162,289,137632,6,0,L|154:234,1,50,0|8,3:0|2:0,2:0:0:0:
184,199,137998,2,0,L|176:144,1,50,8|8,2:0|2:0,2:0:0:0:
136,119,138364,1,8,2:0:0:0:
200,42,138730,1,10,2:0:0:0:
280,100,139095,2,0,L|346:107,1,50,2|2,2:0|2:0,2:0:0:0:
371,69,139461,5,14,2:0:0:0:
440,154,139827,1,2,3:2:0:0:
445,165,140010,2,0,L|431:230,1,55.0000016784668,2|8,2:0|2:0,2:0:0:0:
398,261,140376,2,0,L|325:244,1,55.0000016784668,2|0,2:0|3:0,2:0:0:0:
293,270,140742,2,2,P|234:275|196:324,1,110.000003356934,2|2,2:0|2:0,2:1:0:0:
159,347,141291,1,2,3:2:0:0:
67,285,141656,1,10,2:0:0:0:
145,207,142022,5,6,3:2:0:0:
67,129,142388,2,0,L|82:67,1,55.0000016784668,10|2,2:0|2:0,2:0:0:0:
105,26,142754,2,0,P|158:29|199:89,1,110.000003356934,2|10,3:2|2:0,2:0:0:0:
232,109,143303,2,0,L|365:79,1,110.000003356934,2|2,2:0|2:0,2:0:0:0:
375,43,143852,1,8,2:0:0:0:
453,120,144217,1,8,2:0:0:0:
459,131,144400,2,0,L|518:117,2,55.0000016784668,10|10|2,2:0|2:0|3:2,2:0:0:0:
417,167,144949,6,0,P|411:229|460:267,1,110.000003356934,6|10,3:2|2:0,2:0:0:0:
496,266,145498,1,2,2:0:0:0:
428,352,145864,2,0,L|366:340,1,55.0000016784668,2|8,2:0|2:0,2:0:0:0:
328,310,146230,2,0,P|281:310|238:360,1,110.000003356934,2|2,2:0|2:0,2:0:0:0:
190,377,146778,1,10,2:0:0:0:
141,278,147144,1,2,3:2:0:0:
242,236,147510,2,0,L|252:168,1,55.0000016784668,10|2,2:0|2:0,2:0:0:0:
291,144,147876,5,2,3:2:0:0:
273,35,148242,1,10,2:0:0:0:
163,41,148608,2,0,L|101:24,2,55.0000016784668,2|2|10,3:2|2:0|2:0,2:0:0:0:
185,91,149156,1,10,2:0:0:0:
188,102,149339,2,0,L|153:220,1,110.000003356934,2|14,3:2|2:0,2:0:0:0:
130,314,150071,2,0,L|189:304,1,55.0000016784668,2|2,3:2|2:0,2:0:0:0:
239,297,150437,1,10,2:0:0:0:
334,352,150803,6,0,L|346:296,1,55.0000016784668,6|2,3:2|2:0,2:0:0:0:
394,272,151169,2,0,L|405:218,1,55.0000016784668,10|2,2:1|2:0,2:0:0:0:
376,171,151534,1,2,3:2:0:0:
457,97,151900,1,8,2:0:0:0:
359,46,152266,2,0,L|295:58,1,55.0000016784668,2|2,3:2|2:0,2:0:0:0:
257,27,152632,2,0,L|202:37,1,55.0000016784668,10|2,2:0|2:0,2:0:0:0:
166,78,152998,1,2,3:2:0:0:
62,39,153364,1,10,2:0:0:0:
81,147,153730,6,0,L|141:159,2,55.0000016784668,6|2|10,3:2|2:0|2:0,2:0:0:0:
33,175,154278,2,0,P|12:223|43:280,1,110.000003356934,2|2,2:0|2:0,2:0:0:0:
80,303,154827,1,10,2:0:0:0:
156,382,155193,6,0,L|230:367,1,55.0000016784668,2|2,3:2|2:0,2:0:0:0:
243,327,155559,2,0,L|296:316,1,55.0000016784668,10|2,2:0|2:0,2:0:0:0:
347,338,155925,1,2,3:2:0:0:
420,256,156291,1,10,2:0:0:0:
322,205,156656,6,0,P|321:161|341:151,1,55.0000016784668,6|0,3:2|2:0,2:0:0:0:
365,118,157022,2,2,L|483:100,1,110.000003356934,10|0,2:0|3:0,2:1:0:0:
503,54,157571,1,2,2:0:0:0:
405,2,157937,2,0,L|282:19,1,110.000003356934,2|2,2:0|2:0,2:0:0:0:
241,9,158486,1,10,2:0:0:0:
154,77,158852,2,0,L|174:191,1,110.000003356934,2|10,3:2|2:0,2:0:0:0:
216,219,159400,1,2,2:0:0:0:
222,227,159583,6,0,P|194:254|194:285,1,55.0000016784668,2|0,3:2|2:0,2:0:0:0:
229,309,159949,1,10,2:0:0:0:
337,329,160315,2,0,L|325:392,2,55.0000016784668,2|2|10,3:2|2:0|2:0,2:0:0:0:
378,292,160864,1,10,2:0:0:0:
382,280,161047,1,2,3:2:0:0:
468,211,161413,1,10,2:0:0:0:
400,124,161778,2,0,L|331:135,1,55.0000016784668,10|10,2:0|2:0,2:0:0:0:
297,105,162144,1,10,2:0:0:0:
203,163,162510,5,10,2:0:0:0:
193,157,162693,1,8,2:0:0:0:
73,43,163242,6,0,L|60:96,1,55.0000016784668,10|10,2:0|2:0,2:0:0:0:
24,138,163608,1,2,2:0:0:0:
22,151,163791,1,2,2:0:0:0:
103,224,164156,6,0,L|85:296,2,55.0000016784668,10|2|10,2:1|2:0|2:1,2:0:0:0:
153,200,164705,1,10,2:1:0:0:
273,361,165437,6,0,L|375:341,1,99.9999999999999,6|10,3:2|2:0,2:0:0:0:
426,258,166169,1,2,3:2:0:0:
431,247,166352,2,0,L|420:182,1,50,2|8,2:0|2:0,2:0:0:0:
381,168,166717,2,0,P|332:175|302:221,1,99.9999999999999,2|2,2:0|2:0,2:0:0:0:
269,250,167266,1,10,2:0:0:0:
184,196,167632,1,2,3:2:0:0:
110,263,167998,2,0,L|52:254,1,50,10|2,2:0|2:0,2:0:0:0:
24,219,168364,6,0,P|15:161|51:127,1,99.9999999999999,6|10,3:2|2:0,2:0:0:0:
93,44,169095,1,2,3:2:0:0:
101,37,169278,2,0,L|156:48,1,50,2|8,2:0|2:0,2:0:0:0:
189,78,169644,2,0,L|304:60,1,99.9999999999999,2|2,2:0|2:0,2:0:0:0:
323,26,170193,1,8,2:0:0:0:
401,87,170559,2,0,L|390:145,1,50,2|8,3:2|2:0,2:0:0:0:
414,181,170925,1,8,2:0:0:0:
314,185,171291,6,0,P|256:197|231:234,1,99.9999999999999,6|10,3:2|2:0,2:0:0:0:
143,271,172022,1,2,3:2:0:0:
138,283,172205,2,0,L|151:338,1,50,2|8,2:0|2:0,2:0:0:0:
191,358,172571,2,0,L|312:333,1,99.9999999999999,2|2,2:0|2:0,2:0:0:0:
326,304,173120,1,10,2:0:0:0:
412,353,173486,2,0,L|425:295,1,50,2|2,3:2|2:0,2:0:0:0:
404,257,173852,2,0,L|417:199,1,50,10|2,2:0|2:0,2:0:0:0:
453,176,174217,5,2,3:2:0:0:
421,80,174583,1,10,2:0:0:0:
334,131,174949,2,0,L|323:186,2,50,2|2|10,3:2|2:0|2:0,2:0:0:0:
302,91,175498,1,10,2:0:0:0:
292,82,175681,6,0,L|235:94,1,50,2|2,3:2|2:0,2:0:0:0:
201,120,176047,2,0,L|152:109,1,50,10|2,2:1|2:0,2:0:0:0:
122,69,176413,1,10,2:1:0:0:
47,135,176778,2,0,L|68:243,1,99.9999999999999,10|0,2:1|2:0,2:0:0:0:
