osu file format v14

[General]
AudioFilename: audio.mp3
AudioLeadIn: 0
PreviewTime: 126382
Countdown: 0
SampleSet: Soft
StackLeniency: 0.6
Mode: 0
LetterboxInBreaks: 0
WidescreenStoryboard: 1

[Editor]
Bookmarks: 13242,24949,83486,89339,99583,127388,133242
DistanceSpacing: 0.2
BeatDivisor: 4
GridSize: 4
TimelineZoom: 2.4

[Metadata]
Title:Vampire
TitleUnicode:ヴァンパイア
Artist:VESPERBELL
ArtistUnicode:VESPERBELL
Creator:Petal
Version:Mayu's Insane
Source:
Tags:japanese pop j-pop jpop cover full version DECO*27 カスカ KASUKA matha ayucchi shii ShiiTsuin shikibe mayu Shizuku- Kazato Asa
BeatmapID:3155912
BeatmapSetID:1493527

[Difficulty]
HPDrainRate:5
CircleSize:4.5
OverallDifficulty:8
ApproachRate:9
SliderMultiplier:1.7
SliderTickRate:1

[Events]
//Background and Video events
0,0,"bg.png",0,0
//Break Periods
2,89539,98983
2,127588,132642
//Storyboard Layer 0 (Background)
//Storyboard Layer 1 (Fail)
//Storyboard Layer 2 (Pass)
//Storyboard Layer 3 (Foreground)
//Storyboard Layer 4 (Overlay)
//Storyboard Sound Samples

[TimingPoints]
1535,365.853658536585,4,2,1,30,1,0
1535,-142.857142857143,4,2,1,30,0,0
4278,-142.857142857143,4,2,1,40,0,0
5742,-100,4,2,1,40,0,0
6291,-142.857142857143,4,2,1,40,0,0
6839,-142.857142857143,4,2,1,60,0,0
7388,-100,4,2,1,60,0,0
11047,-100,4,2,1,70,0,0
11595,-100,4,2,1,55,0,0
11961,-100,4,2,1,60,0,0
12510,-333.333333333333,4,2,1,60,0,0
12875,-100,4,2,1,5,0,0
13242,-100,4,2,1,70,0,0
24949,-125,4,2,1,60,0,0
25315,-125,4,2,1,50,0,0
35925,-125,4,2,1,60,0,0
35986,-125,4,2,1,5,0,0
36291,-125,4,2,1,60,0,0
36656,-125,4,2,1,65,0,0
46900,-100,4,2,1,65,0,0
48364,-100,4,2,1,70,0,0
48546,-100,4,2,1,5,0,0
48638,-100,4,2,1,70,0,0
48820,-100,4,2,1,5,0,0
48913,-166.666666666667,4,2,1,70,0,0
49827,-100,4,2,1,70,0,0
50009,-100,4,2,1,5,0,0
50102,-100,4,2,1,70,0,0
50284,-100,4,2,1,5,0,0
50376,-100,4,2,1,70,0,0
51473,-100,4,2,1,5,0,0
51565,-100,4,2,1,70,0,0
51748,-100,4,2,1,5,0,0
51838,-100,4,2,1,70,0,0
52022,-100,4,2,1,60,0,0
52754,-100,4,2,1,70,0,0
54217,-66.6666666666667,4,2,1,70,0,0
54308,-66.6666666666667,4,2,1,5,0,0
54583,-66.6666666666667,4,2,1,70,0,0
54674,-66.6666666666667,4,2,1,5,0,0
54766,-66.6666666666667,4,2,1,70,0,0
55040,-66.6666666666667,4,2,1,5,0,0
55132,-66.6666666666667,4,2,1,70,0,0
55223,-66.6666666666667,4,2,1,5,0,0
55498,-66.6666666666667,4,2,1,70,0,0
55772,-66.6666666666667,4,2,1,5,0,0
55864,-66.6666666666667,4,2,1,70,0,0
56413,-125,4,2,1,70,0,0
56778,-200,4,2,1,30,0,0
57144,-100,4,2,1,80,0,1
57510,-66.6666666666667,4,2,1,80,0,1
57876,-100,4,2,1,80,0,1
61352,-76.9230769230769,4,2,1,80,0,1
61900,-100,4,2,1,80,0,1
66291,-76.9230769230769,4,2,1,80,0,1
66839,-100,4,2,1,80,0,1
80376,-83.3333333333333,4,2,1,70,0,1
80559,-100,4,2,1,70,0,0
82754,-166.666666666667,4,2,1,70,0,0
83119,-100,4,2,1,5,0,0
83486,-100,4,2,1,45,0,0
88242,-76.9230769230769,4,2,1,45,0,0
88608,-100,4,2,1,45,0,0
99583,-66.6666666666667,4,2,1,55,0,0
100315,-66.6666666666667,4,2,1,55,0,0
101047,-125,4,2,1,65,0,0
111291,-100,4,2,1,65,0,0
112754,-100,4,2,1,70,0,0
112936,-100,4,2,1,5,0,0
113028,-100,4,2,1,70,0,0
113486,-166.666666666667,4,2,1,70,0,0
114217,-100,4,2,1,70,0,0
114399,-100,4,2,1,5,0,0
114492,-100,4,2,1,70,0,0
114674,-100,4,2,1,5,0,0
114766,-100,4,2,1,70,0,0
115863,-100,4,2,1,5,0,0
115955,-100,4,2,1,70,0,0
116138,-100,4,2,1,5,0,0
116229,-100,4,2,1,70,0,0
118790,-100,4,2,1,5,0,0
118882,-100,4,2,1,70,0,0
119064,-100,4,2,1,5,0,0
119156,-100,4,2,1,70,0,0
119339,-166.666666666667,4,2,1,70,0,0
120071,-100,4,2,1,70,0,0
120253,-100,4,2,1,5,0,0
120345,-100,4,2,1,70,0,0
120527,-100,4,2,1,5,0,0
120620,-100,4,2,1,70,0,0
121716,-100,4,2,1,5,0,0
121809,-100,4,2,1,70,0,0
121992,-100,4,2,1,5,0,0
122082,-100,4,2,1,70,0,0
124461,-66.6666666666667,4,2,1,70,0,0
124552,-66.6666666666667,4,2,1,5,0,0
124827,-66.6666666666667,4,2,1,70,0,0
124918,-66.6666666666667,4,2,1,5,0,0
125010,-66.6666666666667,4,2,1,70,0,0
125284,-66.6666666666667,4,2,1,5,0,0
125376,-66.6666666666667,4,2,1,70,0,0
125467,-66.6666666666667,4,2,1,5,0,0
125742,-66.6666666666667,4,2,1,70,0,0
126016,-66.6666666666667,4,2,1,5,0,0
126108,-66.6666666666667,4,2,1,70,0,0
126656,-125,4,2,1,70,0,0
127022,-125,4,2,1,40,0,0
127388,-125,4,2,1,50,0,0
133242,-125,4,2,1,70,0,0
133882,-125,4,2,1,5,0,0
133974,-125,4,2,1,70,0,0
134614,-125,4,2,1,5,0,0
134705,-125,4,2,1,70,0,0
135345,-125,4,2,1,5,0,0
135437,-125,4,2,1,70,0,0
136169,-100,4,2,1,70,0,0
138730,-333.333333333333,4,2,1,70,0,0
139004,-333.333333333333,4,2,1,5,0,0
139095,-142.857142857143,4,2,1,40,0,0
139461,-83.3333333333333,4,2,1,80,0,1
148242,-66.6666666666667,4,2,1,80,0,1
148608,-83.3333333333333,4,2,1,80,0,1
150803,-100,4,2,1,80,0,1
162327,-83.3333333333333,4,2,1,70,0,1
162510,-100,4,2,1,70,0,0
163608,-100,4,2,1,60,0,0
164156,-100,4,2,1,70,0,0
164522,-166.666666666667,4,2,1,70,0,0
165070,-100,4,2,1,5,0,0
165437,-100,4,2,1,70,0,0
174583,-66.6666666666667,4,2,1,70,0,0
174949,-100,4,2,1,70,0,0
176413,-83.3333333333333,4,2,1,70,0,0
176778,-166.666666666667,4,2,1,60,0,0
177144,-500,4,2,1,5,0,0

[Colours]
Combo1 : 236,143,75
Combo2 : 254,216,86
Combo3 : 178,198,204
Combo4 : 227,116,113

[HitObjects]
447,194,1535,6,0,P|449:160|416:128,1,59.4999981842042,2|0,3:2|2:0,2:2:0:0:
374,10,1900,2,0,L|356:106,1,89.2499972763062,2|0,2:0|0:0,2:2:0:0:
357,106,2266,1,2,2:0:0:0:
268,86,2541,1,2,0:0:0:0:
214,156,2815,1,2,2:0:0:0:
24,25,3181,6,0,P|106:46|121:97,1,118.999996368408,2|2,2:0|2:0,0:0:0:0:
78,146,3730,2,0,L|90:219,1,59.4999981842042,2|2,2:0|2:0,2:2:0:0:
89,212,4004,1,2,0:0:0:0:
12,336,4278,6,0,L|144:357,1,118.999996368408,2|2,2:0|2:0,0:0:0:0:
201,324,4736,1,2,2:0:0:0:
196,320,4827,2,0,P|188:286|195:241,1,59.4999981842042,10|2,2:0|2:0,2:2:0:0:
255,163,5193,2,0,P|263:197|256:242,1,59.4999981842042,2|2,3:2|2:0,0:0:0:0:
261,221,5467,1,0,0:0:0:0:
261,221,5559,1,10,3:2:0:0:
352,352,5742,6,0,B|427:372|436:297|519:318,1,170,2|2,2:0|2:0,0:0:0:0:
374,242,6291,2,0,P|366:203|359:159,1,59.4999981842042,10|2,2:0|2:0,0:0:0:0:
495,119,6656,2,0,P|487:158|480:202,1,59.4999981842042,2|10,3:2|2:0,0:0:0:0:
349,94,7022,5,10,2:0:0:0:
262,121,7205,1,10,2:0:0:0:
202,54,7388,2,0,P|131:56|85:115,1,127.5,6|0,3:2|0:0,2:2:0:0:
88,102,7754,1,10,2:0:0:0:
11,98,7937,2,0,P|20:141|59:174,1,85,2|0,2:0|3:0,2:2:0:0:
12,246,8303,2,0,L|27:349,1,85,2|8,2:0|2:0,2:2:0:0:
224,384,8669,6,0,B|234:299|234:299|237:292|237:292|250:197,1,170,10|10,3:2|2:0,2:2:0:0:
161,267,9217,1,0,3:0:0:0:
305,346,9400,1,10,2:0:0:0:
161,267,9583,2,0,L|151:174,1,85,2|2,3:2|3:0,2:2:0:0:
288,32,9949,5,14,2:0:0:0:
252,131,10132,1,2,2:0:0:0:
165,70,10315,6,0,L|210:61,1,42.5,2|2,3:2|2:3,2:2:0:0:
340,100,10498,2,0,L|385:91,5,42.5,2|2|2|2|2|2,3:0|2:3|2:3|2:3|2:3|2:3,2:2:0:0:
329,24,11047,6,0,L|287:32,1,42.5,10|2,2:0|2:3,2:2:0:0:
252,131,11230,2,0,L|210:139,4,42.5,10|2|2|2|2,2:0|2:3|2:3|2:3|2:3,2:2:0:0:
32,221,11961,6,0,P|110:231|150:288,1,127.5,10|0,3:2|2:0,2:2:0:0:
146,272,12327,1,10,2:0:0:0:
224,224,12510,2,0,L|232:163,1,50.9999984436036,10|0,2:0|2:0,2:2:0:0:
479,352,13242,5,6,3:2:0:0:
401,326,13425,1,2,2:0:0:0:
336,384,13608,1,10,2:0:0:0:
401,326,13791,1,2,2:0:0:0:
312,216,13974,5,2,3:2:0:0:
312,216,14156,2,0,P|312:264|328:312,1,85,2|10,2:0|2:0,0:0:0:0:
480,200,14522,2,0,L|492:115,1,85,2|2,2:0|3:2,0:0:0:0:
353,3,14888,5,2,2:0:0:0:
416,57,15071,1,10,2:0:0:0:
334,86,15254,1,2,2:0:0:0:
156,149,15437,5,2,3:2:0:0:
81,160,15620,1,2,2:0:0:0:
70,85,15803,1,10,2:0:0:0:
145,74,15986,1,2,2:0:0:0:
128,224,16169,5,6,3:2:0:0:
251,165,16352,2,0,P|288:184|339:181,1,85,2|8,2:0|2:0,0:0:0:0:
227,338,16717,2,0,P|224:296|196:253,1,85,2|0,2:0|3:0,0:0:0:0:
389,273,17083,2,0,P|354:295|331:341,1,85,2|8,2:0|2:0,0:0:0:0:
200,352,17449,6,0,L|148:345,1,42.5,2|0,2:0|0:0,2:2:0:0:
48,384,17632,1,0,3:0:0:0:
23,363,17723,1,2,2:0:0:0:
8,335,17814,1,2,2:0:0:0:
6,304,17906,1,2,0:0:0:0:
16,274,17997,1,10,2:0:0:0:
143,226,18181,1,2,2:0:0:0:
46,138,18364,1,2,3:2:0:0:
46,138,18547,6,0,L|55:194,1,42.5,10|0,2:0|0:0,0:0:0:0:
147,61,18730,2,0,L|138:117,1,42.5,10|0,2:0|0:0,2:2:0:0:
223,151,18913,5,0,3:0:0:0:
223,151,19004,1,0,3:0:0:0:
223,151,19095,2,0,L|334:130,1,85,6|2,3:2|2:0,0:0:0:0:
392,96,19461,1,10,2:0:0:0:
448,176,19644,1,2,2:0:0:0:
416,16,19827,5,2,3:2:0:0:
364,197,20010,2,0,L|381:288,1,85,2|10,2:0|2:0,0:0:0:0:
173,363,20376,5,2,2:0:0:0:
80,384,20559,1,2,3:2:0:0:
15,313,20742,1,2,2:0:0:0:
137,201,20925,5,10,2:0:0:0:
80,384,21108,1,2,2:0:0:0:
137,201,21291,5,2,3:2:0:0:
224,240,21474,1,2,2:0:0:0:
208,144,21656,1,10,2:0:0:0:
152,288,21839,6,0,P|163:331|164:372,1,85,2|0,2:0|3:0,0:0:0:0:
352,264,22205,2,0,L|448:288,1,85,2|8,2:0|2:0,0:0:0:0:
137,201,22571,2,0,L|41:225,1,85,2|8,2:0|2:0,0:0:0:0:
304,48,22937,6,0,P|320:104|312:144,1,85,2|8,2:0|2:0,0:0:0:0:
272,264,23303,5,10,2:0:0:0:
272,264,23394,1,2,2:0:0:0:
272,264,23486,1,0,3:0:0:0:
230,102,23669,1,2,2:0:0:0:
392,144,23852,2,0,L|480:126,1,85,10|2,2:0|2:0,0:0:0:0:
296,176,24217,5,10,2:0:0:0:
272,16,24400,1,10,2:0:0:0:
112,40,24583,1,10,2:0:0:0:
136,200,24766,1,10,2:0:0:0:
64,248,24949,6,0,P|24:192|24:96,2,136,6|2|2,3:2|3:2|3:2,2:2:0:0:
184,312,25955,1,2,2:0:0:0:
184,312,26047,2,0,L|168:392,1,68,0|2,3:0|2:0,2:2:0:0:
268,252,26413,6,0,P|256:216|262:165,1,68,0|2,3:0|2:0,2:2:0:0:
348,125,26778,2,0,P|360:161|354:212,1,68,2|2,3:2|2:0,2:2:0:0:
432,328,27144,5,2,3:2:0:0:
506,306,27327,1,2,2:0:0:0:
489,382,27510,5,2,3:2:0:0:
449,252,27693,2,0,L|459:178,1,68,2|0,2:0|3:0,0:0:0:0:
400,32,28059,5,2,2:0:0:0:
329,66,28242,1,2,3:2:0:0:
278,4,28425,1,2,2:0:0:0:
207,94,28608,5,2,3:2:0:0:
278,128,28791,1,2,2:0:0:0:
329,66,28974,1,2,3:2:0:0:
274,206,29156,6,0,L|293:298,1,68,2|0,2:0|3:0,2:2:0:0:
382,300,29522,1,2,2:0:0:0:
381,308,29614,1,0,0:0:0:0:
379,317,29705,2,0,L|360:409,1,68,2|2,3:2|2:0,2:2:0:0:
200,311,30071,6,0,B|142:296|136:358|68:339,1,136,2|0,3:2|3:0,2:2:0:0:
8,145,30803,6,0,P|57:152|84:197,1,102,2|0,3:2|0:0,2:2:0:0:
81,200,31169,2,0,L|92:269,1,68,2|0,3:2|2:0,2:2:0:0:
205,136,31534,2,0,L|194:205,1,68,2|0,3:2|0:0,0:0:0:0:
194,203,31809,1,2,2:0:0:0:
194,203,31900,1,0,3:0:0:0:
333,335,32083,6,0,P|392:295|468:311,1,136,2|2,2:0|2:0,0:0:0:0:
309,227,32632,2,0,L|322:155,1,68,2|2,3:2|2:0,2:2:0:0:
459,42,32998,5,2,3:2:0:0:
437,115,33181,1,2,2:0:0:0:
512,95,33364,1,2,3:2:0:0:
381,63,33547,2,0,L|303:78,1,68,2|0,2:0|3:0,0:0:0:0:
118,203,33913,5,2,2:0:0:0:
138,126,34095,1,2,3:2:0:0:
59,145,34278,1,2,2:0:0:0:
191,354,34644,5,2,2:0:0:0:
253,295,34827,1,2,3:2:0:0:
329,318,35010,1,2,2:0:0:0:
329,318,35193,6,0,P|315:361|317:392,1,68,2|2,3:2|2:0,2:2:0:0:
416,272,35559,2,0,P|402:229|404:198,1,68,2|2,3:2|2:0,2:2:0:0:
464,144,35925,5,10,2:0:0:0:
80,232,36291,1,10,3:2:0:0:
16,168,36474,6,0,L|24:128,1,34,0|0,2:0|0:0,0:0:0:0:
26,120,36656,5,6,3:2:0:0:
155,93,36839,1,2,2:0:0:0:
83,0,37022,2,0,P|76:36|91:85,1,68,8|2,2:0|2:0,0:0:0:0:
192,184,37388,5,2,3:2:0:0:
192,184,37571,2,0,L|180:263,1,68,2|8,2:0|2:0,0:0:0:0:
272,120,37937,5,2,2:0:0:0:
272,120,38028,1,2,2:0:0:0:
272,120,38120,1,2,3:2:0:0:
368,92,38303,1,2,2:0:0:0:
446,175,38486,2,0,L|523:156,1,68,10|2,2:0|2:0,0:0:0:0:
343,203,38852,5,2,3:2:0:0:
400,328,39034,2,0,L|414:255,1,68,2|8,2:0|2:0,0:0:0:0:
192,184,39400,6,0,L|140:197,1,34,2|2,2:0|2:0,0:0:0:0:
146,196,39583,5,2,3:2:0:0:
44,168,39766,1,2,2:0:0:0:
119,108,39949,1,10,2:0:0:0:
80,249,40132,1,2,2:0:0:0:
248,336,40315,5,2,3:2:0:0:
192,256,40498,1,2,2:0:0:0:
192,256,40589,1,2,2:0:0:0:
192,256,40681,1,10,2:0:0:0:
160,384,40864,1,2,2:0:0:0:
335,288,41047,6,0,P|369:289|398:307,1,68,2|2,3:2|2:0,0:0:0:0:
397,306,41321,1,2,0:0:0:0:
397,306,41413,1,10,2:0:0:0:
273,230,41595,1,2,2:0:0:0:
412,160,41778,1,2,3:2:0:0:
412,160,41961,2,0,L|405:202,1,34,8|0,2:0|0:0,0:0:0:0:
313,138,42144,2,0,L|306:96,1,34,10|0,2:0|0:0,0:0:0:0:
400,45,42327,5,2,2:0:0:0:
406,47,42419,1,2,2:0:0:0:
413,49,42510,2,0,L|502:32,1,68,6|2,3:2|2:0,0:0:0:0:
273,230,42876,2,0,L|184:213,1,68,10|2,2:0|2:0,0:0:0:0:
56,136,43242,5,2,3:2:0:0:
198,90,43425,1,10,2:0:0:0:
95,0,43608,1,8,2:0:0:0:
120,200,43791,5,2,2:0:0:0:
120,200,43882,1,2,2:0:0:0:
120,200,43974,2,0,L|104:286,1,68,2|2,3:2|2:0,0:0:0:0:
227,378,44339,2,0,L|240:312,1,68,10|2,2:0|2:0,0:0:0:0:
392,192,44705,5,2,3:2:0:0:
480,216,44888,1,10,2:0:0:0:
416,280,45071,1,8,2:0:0:0:
459,130,45254,5,2,2:0:0:0:
459,130,45345,1,2,2:0:0:0:
459,130,45437,2,0,P|459:91|445:55,1,68,2|2,3:2|2:0,0:0:0:0:
288,96,45803,2,0,P|288:135|302:171,1,68,10|2,2:0|2:0,0:0:0:0:
192,312,46169,5,2,3:2:0:0:
88,296,46352,1,2,2:0:0:0:
148,246,46534,5,10,2:0:0:0:
131,361,46717,1,10,2:0:0:0:
8,304,46900,6,0,P|-8:264|8:192,1,85,2|0,3:2|0:0,2:2:0:0:
104,48,47266,2,0,P|120:88|104:160,1,85,10|2,2:0|3:2,2:2:0:0:
50,170,47632,5,10,2:0:0:0:
162,194,47815,1,8,2:0:0:0:
274,218,47998,1,10,2:0:0:0:
344,168,48181,5,10,2:0:0:0:
344,168,48272,1,2,2:0:0:0:
344,168,48364,2,0,P|330:126|350:55,1,85,6|0,3:2|2:0,2:2:0:0:
432,64,48638,2,0,P|446:106|426:177,1,85,0|0,3:0|2:0,2:2:0:0:
504,224,48913,1,2,3:2:0:0:
504,224,49004,1,2,3:2:0:0:
504,224,49095,2,0,L|404:246,1,101.999996887207,10|2,2:0|2:0,0:0:0:0:
208,352,49644,5,0,3:0:0:0:
208,352,49736,1,0,3:0:0:0:
208,352,49827,2,0,P|184:304|200:248,1,85,4|0,3:0|2:0,2:2:0:0:
248,168,50102,2,0,P|272:216|256:272,1,85,4|0,3:0|2:0,2:2:0:0:
269,245,50376,1,2,3:2:0:0:
49,317,50559,6,0,L|30:214,1,85,10|0,2:0|3:0,0:0:0:0:
168,88,50925,2,0,L|149:191,1,85,10|0,2:0|2:0,2:2:0:0:
264,344,51291,6,0,P|303:324|360:328,1,85,4|0,3:0|2:0,2:2:0:0:
459,264,51565,2,0,P|416:262|379:243,1,85,4|0,3:0|0:0,0:0:0:0:
379,243,51839,1,2,3:2:0:0:
429,101,52022,6,0,L|442:209,1,85,10|0,2:0|0:0,0:0:0:0:
439,185,52388,5,2,3:2:0:0:
349,166,52571,1,2,3:2:0:0:
186,274,52754,6,0,L|203:364,1,85,10|2,2:0|3:2,0:0:0:0:
333,249,53120,2,0,L|350:159,1,85,10|2,2:0|3:2,0:0:0:0:
353,148,53394,1,0,3:0:0:0:
356,130,53485,1,10,2:0:0:0:
211,0,53669,1,0,3:0:0:0:
211,0,53760,1,0,3:0:0:0:
211,0,53852,2,0,P|235:49|224:109,1,85,10|0,2:0|3:0,0:0:0:0:
32,184,54217,6,0,L|47:256,1,63.7500024318696,2|0,3:2|2:0,2:2:0:0:
45,246,54583,2,0,L|32:184,1,63.7500024318696,10|0,2:0|2:0,2:2:0:0:
234,78,54949,6,0,P|224:133|193:168,1,63.7500024318696,0|0,3:0|2:0,2:2:0:0:
144,122,55132,2,0,P|153:66|184:31,1,63.7500024318696,8|0,2:0|2:0,2:2:0:0:
318,286,55498,6,0,B|370:264|405:295|401:310|397:327|422:362|493:344,1,191.250007295609,10|0,2:0|2:0,2:2:0:0:
480,346,55864,2,0,P|434:357|413:397,1,63.7500024318696,2|0,3:2|0:0,0:0:0:0:
318,286,56047,2,0,L|334:218,1,63.7500024318696,10|0,2:0|0:0,0:0:0:0:
296,152,56230,2,0,P|288:133|300:151,1,63.7500024318696,10|0,2:0|0:0,0:0:0:0:
360,80,56413,5,8,2:0:0:0:
360,80,56778,6,0,L|350:17,1,63.75,0|0,2:0|2:0,2:2:0:0:
345,13,57144,6,0,P|303:8|260:35,1,85,6|0,3:2|2:0,2:2:0:0:
0,148,57510,6,2,B|45:136|85:177|76:190|64:208|111:242|161:224,1,191.250007295609,10|0,2:0|2:0,2:1:0:0:
208,172,57876,2,0,L|192:60,1,85,2|2,3:2|2:0,0:0:0:0:
190,64,58150,1,2,2:0:0:0:
190,64,58242,1,8,2:0:0:0:
296,155,58425,2,0,P|289:207|260:243,1,85,2|0,2:0|3:0,2:2:0:0:
461,363,58791,5,2,2:0:0:0:
414,179,58974,1,8,2:0:0:0:
279,328,59156,1,2,2:0:0:0:
185,297,59339,6,0,L|96:318,1,85,2|0,3:2|2:0,2:2:0:0:
102,316,59614,1,2,2:0:0:0:
102,316,59705,1,10,2:0:0:0:
46,189,59888,6,0,P|97:198|126:227,1,85,2|0,2:0|3:0,2:2:0:0:
310,104,60254,5,2,2:0:0:0:
316,77,60345,1,2,2:0:0:0:
322,50,60437,1,10,2:0:0:0:
168,4,60620,5,2,2:0:0:0:
174,31,60711,1,2,2:0:0:0:
180,58,60803,2,0,L|161:150,1,85,2|0,3:2|0:0,0:0:0:0:
162,141,61077,1,2,2:0:0:0:
162,141,61169,1,10,2:0:0:0:
288,240,61352,6,0,B|332:252|357:222|355:215|353:207|379:173|435:194,1,165.749992412568,2|0,2:0|0:0,0:0:0:0:
448,200,61717,1,2,2:0:0:0:
293,165,61900,1,10,2:0:0:0:
344,319,62083,1,2,2:0:0:0:
386,137,62266,5,2,3:2:0:0:
386,137,62449,2,0,L|377:82,1,42.5,10|0,2:0|0:0,0:0:0:0:
248,0,62632,2,0,L|230:110,1,85,10|10,2:0|2:0,0:0:0:0:
141,179,62906,5,8,0:0:0:0:
132,183,62998,2,0,B|78:204|67:149|7:173,1,127.5,6|0,3:2|2:0,2:2:0:0:
9,172,63364,1,10,2:0:0:0:
48,304,63547,2,0,P|69:251|53:206,1,85,2|0,2:0|3:0,2:2:0:0:
234,83,63913,2,0,P|213:136|229:181,1,85,2|8,2:0|2:0,2:2:0:0:
379,270,64278,6,0,L|474:252,1,85,2|0,2:0|3:0,2:2:0:0:
304,344,64644,5,2,2:0:0:0:
345,199,64827,1,10,2:0:0:0:
386,54,65010,1,2,2:0:0:0:
304,0,65193,6,0,P|265:23|200:16,1,85,2|0,3:2|2:0,2:2:0:0:
196,7,65467,1,2,0:0:0:0:
196,7,65559,1,10,2:0:0:0:
238,158,65742,1,2,2:0:0:0:
79,114,65925,6,0,L|170:96,1,85,2|0,3:2|2:0,2:2:0:0:
374,206,66291,6,0,B|288:197|312:263|209:247,1,165.749992412568,10|0,2:0|0:0,2:2:0:0:
179,233,66656,1,2,3:2:0:0:
36,270,66839,1,2,2:0:0:0:
13,126,67022,1,10,2:0:0:0:
162,97,67205,1,10,2:0:0:0:
122,303,67388,6,0,P|127:348|101:399,1,85,2|2,3:2|2:0,0:0:0:0:
286,219,67754,2,0,P|280:177|294:137,1,85,10|2,2:0|2:0,0:0:0:0:
349,346,68120,5,10,2:0:0:0:
187,245,68303,1,2,2:0:0:0:
400,120,68486,5,10,2:0:0:0:
395,140,68577,1,8,2:0:0:0:
391,161,68668,1,8,2:0:0:0:
386,182,68760,1,8,2:0:0:0:
382,203,68852,6,0,L|390:252,1,42.5,6|2,3:2|2:0,2:2:0:0:
458,275,69034,1,2,2:0:0:0:
458,275,69126,2,0,L|450:324,1,42.5,2|10,2:0|2:1,2:2:0:0:
405,374,69309,1,0,0:0:0:0:
405,374,69400,1,2,2:0:0:0:
225,218,69583,5,2,3:2:0:0:
225,218,69675,2,0,L|139:239,1,85,2|2,2:0|2:0,2:2:0:0:
91,180,69949,2,0,L|100:123,2,42.5,8|2|2,2:0|2:0|2:0,2:2:0:0:
148,325,70315,5,2,3:2:0:0:
0,257,70498,1,2,2:0:0:0:
11,361,70681,5,10,2:0:0:0:
142,238,70864,1,2,2:0:0:0:
312,328,71047,2,0,L|405:309,1,85,2|0,3:2|0:0,2:2:0:0:
257,235,71413,5,10,2:0:0:0:
223,384,71595,1,2,2:0:0:0:
257,235,71778,2,0,P|254:182|238:140,1,85,6|2,3:2|2:0,0:0:0:0:
286,20,72144,1,10,2:0:0:0:
477,114,72327,6,0,B|404:147|393:66|310:108,1,170,2|2,2:0|2:0,2:2:0:0:
183,32,72876,1,10,2:0:0:0:
132,162,73059,5,2,2:0:0:0:
132,162,73150,1,0,0:0:0:0:
132,162,73242,1,2,3:2:0:0:
260,65,73425,1,2,2:0:0:0:
101,5,73608,1,10,2:0:0:0:
220,149,73791,1,2,2:0:0:0:
40,192,73974,1,2,3:2:0:0:
120,312,74156,6,0,L|128:270,1,42.5,10|0,2:0|0:0,0:0:0:0:
124,257,74339,2,0,L|206:241,1,85,2|10,3:2|2:0,0:0:0:0:
363,372,74705,6,0,L|280:356,1,85,6|0,3:2|2:0,2:2:0:0:
461,258,75071,2,0,P|486:205|475:136,1,127.5,10|0,2:0|0:0,0:0:0:0:
462,121,75437,1,0,3:0:0:0:
319,175,75620,2,0,L|406:194,1,85,2|8,2:0|2:0,2:2:0:0:
267,13,75986,6,0,L|180:32,1,85,2|0,2:0|3:0,2:2:0:0:
41,193,76352,1,2,2:0:0:0:
120,165,76534,1,10,2:0:0:0:
184,218,76717,1,2,2:0:0:0:
113,337,76900,6,0,L|101:242,1,85,2|0,3:2|2:0,2:2:0:0:
269,166,77266,1,10,2:0:0:0:
219,318,77449,1,2,2:0:0:0:
374,367,77632,2,0,L|474:344,1,85,2|0,3:2|2:0,2:2:0:0:
366,192,77998,6,0,L|396:37,1,127.5,10|0,2:0|2:0,2:2:0:0:
396,37,78364,1,2,3:2:0:0:
466,203,78547,1,2,2:0:0:0:
269,166,78730,1,10,2:0:0:0:
464,216,78913,6,0,P|382:221|318:285,1,170,10|2,2:0|2:0,0:0:0:0:
176,208,79461,2,0,P|176:136|192:104,1,85,10|2,2:0|2:0,0:0:0:0:
304,8,79827,5,10,2:0:0:0:
269,166,80010,1,10,2:0:0:0:
120,72,80193,2,0,L|24:88,1,85,10|0,2:0|0:0,2:2:0:0:
168,288,80559,5,10,2:0:0:0:
224,56,80742,1,8,2:0:0:0:
224,56,81291,5,10,2:0:0:0:
168,288,81474,1,10,2:0:0:0:
168,288,82205,5,10,2:1:0:0:
168,288,82571,1,10,2:1:0:0:
392,232,82754,2,0,L|496:254,1,101.999996887207,10|0,2:1|2:0,2:2:0:0:
491,253,83486,6,0,P|490:203|457:153,1,85,6|2,3:2|2:0,2:2:0:0:
312,216,83852,2,0,P|313:266|345:315,1,85,10|2,2:0|2:0,2:2:0:0:
200,368,84217,5,2,3:2:0:0:
131,303,84400,1,2,2:0:0:0:
40,349,84583,1,10,2:0:0:0:
131,303,84766,1,2,2:0:0:0:
14,224,84949,6,0,L|-1:133,1,85,2|2,3:2|2:0,2:2:0:0:
148,26,85315,1,10,2:0:0:0:
124,112,85498,1,2,2:0:0:0:
63,53,85681,1,2,3:2:0:0:
219,176,85864,5,2,2:0:0:0:
298,154,86047,1,10,2:0:0:0:
377,132,86230,2,0,L|466:148,1,85,2|0,2:0|3:0,0:0:0:0:
335,0,86595,6,0,P|319:43|325:88,1,85,2|8,2:0|2:0,2:2:0:0:
448,228,86961,2,0,P|464:185|458:140,1,85,2|0,2:0|3:0,2:2:0:0:
288,264,87327,2,0,L|200:287,1,85,2|8,2:0|2:0,2:2:0:0:
65,163,87693,6,0,L|73:115,1,42.5,12|0,2:0|3:0,0:0:0:0:
74,112,87876,1,2,3:2:0:0:
51,243,88059,1,2,2:0:0:0:
0,80,88242,2,0,B|91:97|53:24|152:40,1,165.749992412568,10|0,2:0|0:0,2:2:0:0:
212,122,88608,5,10,2:0:0:0:
259,135,88730,1,8,2:0:0:0:
306,114,88852,1,8,3:0:0:0:
321,70,88974,2,0,L|309:4,2,56.6666666666667,2|2|2,2:0|2:0|3:2,2:2:0:0:
416,112,89339,5,6,2:0:0:0:
184,232,99583,6,0,L|270:245,1,63.7500024318696,2|0,3:0|2:0,2:2:0:0:
328,345,99766,2,0,L|414:358,1,63.7500024318696,8|8,3:0|3:0,2:2:0:0:
393,345,100315,6,0,L|329:335,1,63.7500024318696,10|0,2:0|2:0,2:2:0:0:
245,250,100498,2,0,L|181:240,1,63.7500024318696,12|0,2:0|2:0,2:2:0:0:
321,134,100681,5,8,2:0:0:0:
325,159,100772,1,8,2:0:0:0:
329,184,100863,1,8,2:0:0:0:
333,209,100955,1,8,2:0:0:0:
337,234,101046,5,6,3:2:0:0:
457,186,101230,1,2,2:0:0:0:
432,340,101413,2,0,L|416:265,1,68,10|2,2:0|2:0,0:0:0:0:
477,98,101778,5,2,3:2:0:0:
328,64,101961,1,2,2:0:0:0:
248,216,102144,1,8,2:0:0:0:
168,104,102327,5,2,2:0:0:0:
168,104,102419,1,2,2:0:0:0:
168,104,102510,2,0,L|79:119,1,68,2|2,3:2|2:0,0:0:0:0:
248,216,102876,2,0,L|337:231,1,68,10|2,2:0|2:0,0:0:0:0:
92,366,103242,5,2,3:2:0:0:
121,235,103425,1,2,2:0:0:0:
12,281,103608,1,8,2:0:0:0:
192,312,103791,5,2,2:0:0:0:
192,312,103882,1,2,2:0:0:0:
192,312,103974,2,0,L|266:299,1,68,6|2,3:2|2:0,0:0:0:0:
480,200,104339,2,0,L|406:187,1,68,10|2,2:0|2:0,0:0:0:0:
387,181,104614,1,0,0:0:0:0:
387,181,104705,1,2,3:2:0:0:
297,111,104888,2,0,L|303:72,2,34,2|0|10,2:0|2:0|2:0,0:0:0:0:
224,216,105254,1,2,2:0:0:0:
336,280,105437,5,2,3:2:0:0:
264,368,105620,1,2,2:0:0:0:
264,368,105711,1,2,2:0:0:0:
264,368,105803,2,0,P|248:328|256:280,1,68,10|2,2:0|2:0,0:0:0:0:
120,232,106169,1,10,2:0:0:0:
120,232,106352,2,0,L|76:241,1,34,8|0,2:0|0:0,0:0:0:0:
16,184,106534,1,2,3:2:0:0:
19,163,106625,1,2,2:0:0:0:
23,143,106716,1,10,2:0:0:0:
27,123,106808,1,2,2:0:0:0:
31,103,106899,5,6,3:2:0:0:
128,77,107083,1,2,2:0:0:0:
208,160,107266,1,10,2:0:0:0:
312,134,107449,1,2,2:0:0:0:
292,283,107632,6,0,P|276:237|287:194,1,68,2|10,3:2|2:0,0:0:0:0:
277,218,107906,1,0,0:0:0:0:
277,218,107998,1,8,2:0:0:0:
426,66,108181,6,0,L|411:116,1,34,2|2,2:0|2:0,0:0:0:0:
410,111,108364,5,2,3:2:0:0:
312,134,108547,1,2,2:0:0:0:
219,161,108730,1,10,2:0:0:0:
124,122,108913,1,2,2:0:0:0:
200,70,109095,5,2,3:2:0:0:
146,218,109278,2,0,L|159:296,1,68,10|8,2:0|2:0,0:0:0:0:
80,384,109644,5,2,2:0:0:0:
80,384,109736,1,2,2:0:0:0:
80,384,109827,2,0,P|70:351|73:308,1,68,6|2,3:2|2:0,0:0:0:0:
232,224,110193,2,0,P|242:257|239:300,1,68,10|2,2:0|2:0,0:0:0:0:
384,384,110559,5,2,3:2:0:0:
416,248,110742,1,2,2:0:0:0:
468,332,110925,1,10,2:0:0:0:
332,300,111108,1,2,2:0:0:0:
232,384,111291,5,8,2:0:0:0:
232,384,111382,1,8,2:0:0:0:
120,352,111565,1,8,2:0:0:0:
120,352,111656,2,0,L|144:240,1,85,10|10,2:0|2:0,2:2:0:0:
144,248,111931,1,8,2:0:0:0:
144,248,112022,1,2,3:2:0:0:
92,103,112205,1,8,3:0:0:0:
261,139,112388,1,2,3:2:0:0:
276,134,112479,1,2,2:0:0:0:
291,130,112570,1,2,2:0:0:0:
307,126,112662,1,2,2:0:0:0:
322,122,112754,6,0,P|377:141|394:176,1,85,6|0,3:2|2:0,2:2:0:0:
460,127,113028,2,0,P|468:174|438:222,1,85,8|0,3:0|2:0,2:2:0:0:
384,248,113303,5,2,3:2:0:0:
384,248,113394,1,2,2:0:0:0:
384,248,113486,2,0,L|357:365,1,101.999996887207,10|2,2:0|2:0,0:0:0:0:
192,376,114034,5,0,3:0:0:0:
192,376,114126,1,0,3:0:0:0:
192,376,114217,2,0,P|154:351|93:365,1,85,4|0,3:0|2:0,2:2:0:0:
0,263,114492,2,0,P|38:288|99:274,1,85,4|0,3:0|2:0,2:2:0:0:
136,238,114766,2,0,L|151:176,1,42.5,2|2,3:2|2:0,0:0:0:0:
41,24,114949,5,10,2:0:0:0:
65,169,115132,1,0,3:0:0:0:
211,145,115315,1,10,2:0:0:0:
242,70,115498,5,2,2:0:0:0:
242,70,115589,1,0,0:0:0:0:
242,70,115681,2,0,L|334:53,1,85,4|0,3:0|2:0,2:2:0:0:
387,103,115955,2,0,L|479:86,1,85,4|0,3:0|0:0,0:0:0:0:
470,87,116230,1,2,3:2:0:0:
333,222,116413,6,0,P|309:170|320:116,1,85,10|2,2:0|2:0,0:0:0:0:
179,24,116778,2,0,P|203:76|192:130,1,85,2|2,3:2|3:2,0:0:0:0:
126,295,117144,5,10,2:0:0:0:
96,192,117327,1,2,3:2:0:0:
22,270,117510,5,10,2:0:0:0:
200,216,117693,1,2,3:2:0:0:
200,216,117784,1,0,3:0:0:0:
200,216,117876,2,0,L|290:232,1,85,10|2,2:0|3:2,0:0:0:0:
394,114,118242,2,0,L|484:130,1,85,10|2,2:0|2:0,0:0:0:0:
387,274,118608,6,0,P|367:222|378:176,1,85,6|0,3:2|2:0,2:2:0:0:
295,54,118882,2,0,P|315:106|304:152,1,85,4|0,3:0|2:0,2:2:0:0:
240,176,119156,1,2,3:2:0:0:
240,176,119248,1,2,2:0:0:0:
240,176,119339,2,0,L|120:200,1,101.999996887207,10|2,2:0|2:0,0:0:0:0:
49,350,119888,5,0,3:0:0:0:
49,350,119980,1,0,3:0:0:0:
49,350,120071,2,0,P|97:358|121:390,1,85,4|0,3:0|2:0,2:2:0:0:
183,354,120345,2,0,P|202:309|195:256,1,85,4|0,3:0|2:0,2:2:0:0:
139,196,120620,2,0,L|128:249,1,42.5,2|2,3:2|3:2,0:0:0:0:
281,301,120803,5,10,2:0:0:0:
338,139,120986,1,2,3:2:0:0:
460,257,121169,1,10,2:0:0:0:
402,316,121352,5,2,2:0:0:0:
402,316,121443,1,0,0:0:0:0:
402,316,121534,2,0,P|380:271|389:220,1,85,4|0,3:0|2:0,2:2:0:0:
480,157,121809,2,0,L|460:253,1,85,4|0,3:0|0:0,0:0:0:0:
460,257,122083,1,2,3:2:0:0:
487,357,122266,6,0,B|398:327|416:398|315:363,1,170,10|2,2:0|3:2,0:0:0:0:
260,318,122815,1,2,3:2:0:0:
112,376,122998,6,0,P|70:375|25:354,1,85,10|2,2:0|3:2,0:0:0:0:
211,158,123364,2,0,P|231:194|235:244,1,85,10|2,2:0|3:2,0:0:0:0:
178,296,123638,1,0,3:0:0:0:
178,296,123730,2,0,L|86:280,1,85,10|0,2:0|3:0,0:0:0:0:
66,274,124004,1,0,3:0:0:0:
66,274,124095,1,10,2:0:0:0:
14,174,124278,1,0,3:0:0:0:
120,112,124461,6,0,L|108:174,1,63.7500024318696,2|0,3:2|2:0,2:2:0:0:
108,175,124827,2,0,L|120:113,1,63.7500024318696,10|0,2:0|2:0,2:2:0:0:
312,8,125193,6,0,P|326:36|326:67,1,63.7500024318696,10|0,2:0|2:0,2:2:0:0:
252,89,125376,2,0,P|237:60|237:29,1,63.7500024318696,10|0,2:0|2:0,2:2:0:0:
450,243,125742,6,0,B|389:257|361:229|368:214|374:200|323:169|276:195,1,191.250007295609,10|0,2:0|2:0,2:2:0:0:
264,200,126108,2,0,L|252:263,1,63.7500024318696,2|0,3:2|0:0,0:0:0:0:
304,384,126291,2,0,P|312:344|296:312,1,63.7500024318696,10|0,2:0|0:0,0:0:0:0:
360,256,126474,2,0,P|370:236|366:258,1,63.7500024318696,10|0,2:0|0:0,0:0:0:0:
200,336,126656,6,0,B|153:329|134:356|146:358|130:384|72:376,1,136,10|0,2:0|0:0,0:0:0:0:
77,376,127388,5,6,2:0:0:0:
440,96,133242,6,0,B|481:79|481:79|443:35|369:42|349:137|399:181,1,238,6|0,3:2|0:0,2:2:0:0:
443,273,133974,2,0,B|385:241|384:173|384:173|363:233|288:248,1,238,6|0,3:2|0:0,2:2:0:0:
256,312,134705,6,0,B|320:232|256:136|184:160|168:223|208:256,1,238,6|0,3:2|0:0,2:2:0:0:
344,384,135437,6,0,P|264:336|136:368,1,204,6|2,3:2|2:0,2:2:0:0:
24,192,136169,6,0,L|32:128,3,42.5,2|2|2|2,3:2|2:3|2:3|2:3,2:2:0:0:
112,240,136534,2,0,L|120:304,3,42.5,10|2|2|2,2:0|2:3|2:3|2:3,2:2:0:0:
177,190,136900,1,2,3:2:0:0:
193,191,136991,1,2,2:3:0:0:
210,194,137082,1,2,3:2:0:0:
227,196,137174,1,2,2:3:0:0:
244,198,137265,1,2,3:2:0:0:
261,201,137357,1,2,2:3:0:0:
277,203,137448,1,2,2:0:0:0:
294,206,137540,1,2,2:3:0:0:
311,207,137631,5,0,3:0:0:0:
279,9,137815,1,8,2:0:0:0:
80,41,137998,1,8,2:0:0:0:
112,240,138181,1,8,2:0:0:0:
196,125,138364,5,8,2:0:0:0:
196,125,138730,1,10,2:0:0:0:
196,125,139095,1,2,2:0:0:0:
215,128,139186,1,2,2:0:0:0:
235,132,139277,1,2,2:0:0:0:
255,135,139369,1,2,2:0:0:0:
274,139,139461,6,2,P|332:88|416:100,1,152.999995330811,14|0,2:0|2:0,2:2:0:0:
424,103,139827,1,2,3:2:0:0:
368,218,140010,1,2,2:0:0:0:
368,218,140102,1,2,0:0:0:0:
368,218,140193,2,0,L|352:154,1,50.9999984436036,8|0,2:0|0:0,0:0:0:0:
495,65,140376,6,0,P|498:131|473:166,1,101.999996887207,2|0,2:0|3:0,2:2:0:0:
320,288,140742,2,2,P|290:247|288:197,1,101.999996887207,2|8,2:0|2:0,0:1:0:0:
352,80,141108,1,2,2:0:0:0:
216,16,141291,6,0,L|96:40,1,101.999996887207,2|2,3:2|2:0,2:2:0:0:
115,36,141565,1,2,2:0:0:0:
115,36,141656,1,10,2:0:0:0:
64,216,141839,2,0,B|0:182|29:89|29:89|56:134|105:139,1,203.999993774414,2|2,2:0|2:0,0:0:0:0:
70,129,142297,1,2,2:0:0:0:
70,129,142388,1,10,2:0:0:0:
152,256,142571,1,2,2:0:0:0:
152,256,142663,1,2,2:0:0:0:
152,256,142754,2,0,L|133:366,1,101.999996887207,2|0,3:2|0:0,0:0:0:0:
134,356,143028,1,2,2:0:0:0:
134,356,143120,1,10,2:0:0:0:
40,320,143303,6,0,B|129:300|129:300|135:293|135:293|254:266,1,203.999993774414,2|2,2:0|2:0,0:0:0:0:
392,312,143852,1,8,2:0:0:0:
336,160,144034,1,2,2:0:0:0:
288,352,144217,5,8,2:0:0:0:
480,264,144400,1,10,2:0:0:0:
480,264,144492,1,8,0:0:0:0:
480,264,144583,2,0,L|496:160,1,101.999996887207,10|2,2:0|3:2,0:0:0:0:
416,14,144949,6,0,B|354:27|354:27|349:32|349:32|243:56,1,152.999995330811,6|0,3:2|2:0,2:2:0:0:
247,55,145315,1,10,2:0:0:0:
24,118,145498,2,0,P|116:134|141:185,1,152.999995330811,2|0,2:0|0:0,2:2:0:0:
141,197,145864,2,0,L|115:304,1,101.999996887207,2|8,2:0|2:0,2:2:0:0:
272,368,146230,6,0,B|338:383|362:318|351:321|342:323|377:262|448:284,1,203.999993774414,2|2,2:0|2:0,2:2:0:0:
472,296,146687,1,2,2:0:0:0:
472,296,146778,2,0,L|488:184,1,101.999996887207,10|2,2:0|2:0,0:0:0:0:
320,136,147144,5,2,3:2:0:0:
448,40,147327,1,0,2:0:0:0:
448,40,147419,1,2,0:0:0:0:
448,40,147510,1,10,2:0:0:0:
392,224,147693,1,2,2:0:0:0:
216,144,147876,2,0,L|105:164,1,101.999996887207,2|0,3:2|2:0,2:2:0:0:
21,348,148242,6,0,P|94:288|188:306,1,191.250007295609,10|0,2:0|0:0,2:2:0:0:
216,328,148608,5,2,3:2:0:0:
384,288,148791,1,2,2:0:0:0:
264,176,148974,1,10,2:0:0:0:
320,360,149156,6,0,B|377:354|423:381|423:381|438:326|483:297,1,203.999993774414,10|2,2:0|2:0,0:0:0:0:
311,210,149705,1,14,2:0:0:0:
450,96,149888,1,2,2:0:0:0:
384,288,150071,5,2,3:2:0:0:
450,96,150254,1,2,2:0:0:0:
224,160,150437,1,10,2:0:0:0:
198,155,150528,1,8,2:0:0:0:
173,150,150619,1,8,2:0:0:0:
148,145,150711,1,8,2:0:0:0:
123,141,150803,6,0,L|113:89,1,42.5,6|2,3:2|2:0,2:2:0:0:
202,0,150986,1,2,2:0:0:0:
202,0,151077,2,0,L|192:52,1,42.5,2|10,2:0|2:1,2:2:0:0:
271,87,151260,1,0,0:0:0:0:
271,87,151352,1,2,2:0:0:0:
149,230,151534,5,2,3:2:0:0:
149,230,151626,2,0,L|52:249,1,85,2|2,2:0|2:0,2:2:0:0:
22,341,151992,1,2,2:0:0:0:
53,333,152083,1,2,2:0:0:0:
90,339,152175,1,0,0:0:0:0:
111,361,152266,5,2,3:2:0:0:
215,328,152449,1,2,2:0:0:0:
313,384,152632,1,10,2:0:0:0:
429,353,152815,1,2,2:0:0:0:
347,204,152998,6,0,P|332:246|337:295,1,85,2|0,3:2|0:0,2:2:0:0:
334,285,153272,1,2,2:0:0:0:
334,285,153364,1,10,2:0:0:0:
464,260,153547,2,0,L|420:252,1,42.5,2|0,2:0|0:0,0:0:0:0:
295,139,153730,5,6,3:2:0:0:
217,215,153913,1,2,2:0:0:0:
116,183,154095,1,10,2:0:0:0:
171,47,154278,6,0,P|195:96|194:147,1,85,2|0,2:0|3:0,2:2:0:0:
56,254,154644,5,2,2:0:0:0:
56,254,154827,2,0,P|32:205|33:154,1,85,10|2,2:0|2:0,0:0:0:0:
217,215,155193,6,0,L|321:195,1,85,2|2,3:2|2:0,0:0:0:0:
300,198,155467,1,0,0:0:0:0:
300,198,155559,1,10,2:0:0:0:
425,232,155742,1,2,2:0:0:0:
390,105,155925,1,2,3:2:0:0:
390,105,156108,2,0,L|376:164,1,42.5,10|0,2:0|0:0,0:0:0:0:
424,231,156291,2,0,L|405:314,1,85,10|10,2:0|2:0,0:0:0:0:
287,361,156565,5,8,0:0:0:0:
281,359,156656,2,0,B|217:341|227:389|156:374,1,127.5,6|0,3:2|0:0,2:2:0:0:
126,361,157022,1,10,2:0:0:0:
151,222,157205,2,0,P|178:271|166:326,1,85,2|0,2:0|3:0,2:2:0:0:
272,128,157571,2,0,P|299:79|287:24,1,85,2|8,2:0|2:0,2:2:0:0:
505,199,157937,6,0,B|462:185|426:216|430:222|436:228|403:270|352:257,1,170,2|2,2:0|2:0,2:2:0:0:
204,187,158486,1,10,2:0:0:0:
323,94,158669,1,2,2:0:0:0:
256,256,158852,2,0,P|264:300|264:348,1,85,2|0,3:2|2:0,2:2:0:0:
264,340,159126,1,2,0:0:0:0:
264,340,159217,1,10,2:0:0:0:
357,258,159400,1,2,2:0:0:0:
174,308,159583,6,0,L|73:291,1,85,2|0,3:2|2:0,2:2:0:0:
1,157,159949,2,0,P|50:117|129:126,1,127.5,10|0,2:0|2:0,2:2:0:0:
144,142,160315,5,2,3:2:0:0:
247,171,160498,1,2,2:0:0:0:
328,98,160681,1,10,2:0:0:0:
229,1,160864,1,10,2:0:0:0:
229,1,160955,1,8,0:0:0:0:
229,1,161047,2,0,P|215:51|223:92,1,85,2|2,3:2|2:0,0:0:0:0:
323,285,161413,2,0,P|337:235|329:194,1,85,10|2,2:0|2:0,0:0:0:0:
425,340,161778,5,10,2:0:0:0:
292,384,161961,1,10,2:0:0:0:
191,308,162144,2,0,L|77:330,1,85,10|0,2:0|0:0,2:2:0:0:
9,137,162510,5,10,2:0:0:0:
241,203,162693,1,8,2:0:0:0:
241,203,163242,5,10,2:0:0:0:
172,9,163425,1,10,2:0:0:0:
172,9,164156,5,10,2:1:0:0:
172,9,164522,1,10,2:1:0:0:
112,216,164705,2,0,B|118:260|118:260|120:264|120:264|127:316,1,101.999996887207,10|0,2:1|2:0,2:2:0:0:
128,328,165437,6,0,P|196:288|264:304,1,127.5,6|0,3:2|0:0,2:2:0:0:
321,263,165803,2,2,L|335:353,1,85,10|0,2:0|2:0,2:2:0:0:
480,228,166169,5,2,3:2:0:0:
480,228,166352,2,0,P|498:187|495:139,1,85,2|8,2:0|2:0,2:2:0:0:
258,115,166717,6,0,B|340:103|315:190|430:169,1,170,2|2,2:0|2:0,2:2:0:0:
300,227,167266,1,10,2:0:0:0:
359,48,167449,1,2,2:0:0:0:
300,227,167632,2,0,L|315:317,1,85,2|2,3:2|2:0,2:2:0:0:
186,171,167998,2,0,L|201:81,1,85,10|2,2:0|2:0,0:0:0:0:
16,261,168364,6,0,P|13:324|59:372,1,127.5,6|0,3:2|0:0,2:2:0:0:
70,375,168730,2,2,L|160:353,1,85,10|0,2:0|2:0,2:2:0:0:
288,296,169095,5,2,3:2:0:0:
288,296,169278,2,0,P|331:296|376:321,1,85,2|8,2:0|2:0,2:2:0:0:
228,384,169644,6,0,B|207:285|277:317|249:206,1,170,2|2,2:0|2:0,2:2:0:0:
230,115,170193,1,8,2:0:0:0:
315,148,170376,1,2,2:0:0:0:
173,183,170559,5,2,3:2:0:0:
232,4,170742,1,8,2:0:0:0:
404,55,170925,1,8,2:0:0:0:
488,24,171108,5,0,3:0:0:0:
488,24,171199,1,0,3:0:0:0:
488,24,171291,2,0,P|513:77|506:150,1,127.5,6|0,3:2|0:0,2:2:0:0:
462,204,171656,2,2,P|436:162|445:110,1,85,10|0,2:0|2:0,2:2:0:0:
288,16,172022,1,2,3:2:0:0:
288,16,172205,2,0,L|272:120,1,85,2|8,2:0|2:0,2:2:0:0:
320,282,172571,6,0,B|275:266|243:298|243:298|240:307|240:307|216:340|149:320,1,170,2|2,2:0|2:0,2:2:0:0:
19,272,173120,1,10,2:0:0:0:
72,379,173303,1,2,2:0:0:0:
122,234,173486,2,0,P|106:179|106:139,1,85,2|2,3:2|2:0,2:2:0:0:
105,151,173760,1,0,0:0:0:0:
105,151,173852,1,10,2:0:0:0:
161,10,174034,1,2,2:0:0:0:
8,51,174217,6,2,L|105:69,1,85,2|0,3:2|2:0,2:1:0:0:
368,134,174583,2,2,B|262:112|300:205|171:182,1,191.250007295609,10|0,2:0|0:0,2:1:0:0:
192,184,174949,5,2,3:2:0:0:
305,214,175132,1,2,2:0:0:0:
305,214,175224,1,0,0:0:0:0:
305,214,175315,1,10,2:0:0:0:
268,109,175498,1,10,2:0:0:0:
228,272,175681,6,0,P|238:325|238:364,1,85,2|2,3:2|2:0,0:0:0:0:
368,252,176047,1,10,2:1:0:0:
144,328,176230,1,2,2:0:0:0:
356,384,176413,1,10,2:1:0:0:
145,110,176778,6,0,L|161:6,1,101.999996887207,10|0,2:1|0:0,2:2:0:0:
