osu file format v14

[General]
AudioFilename: audio.mp3
AudioLeadIn: 0
PreviewTime: 126382
Countdown: 0
SampleSet: Soft
StackLeniency: 0
Mode: 0
LetterboxInBreaks: 0
WidescreenStoryboard: 1

[Editor]
Bookmarks: 83486,89339,99583,127388,133242
DistanceSpacing: 0.2
BeatDivisor: 4
GridSize: 32
TimelineZoom: 2.1

[Metadata]
Title:Vampire
TitleUnicode:ヴァンパイア
Artist:VESPERBELL
ArtistUnicode:VESPERBELL
Creator:Petal
Version:Ayucchi's Expert
Source:
Tags:japanese pop j-pop jpop cover full version DECO*27 カスカ KASUKA matha ayucchi shii ShiiTsuin shikibe mayu Shizuku- Kazato Asa
BeatmapID:3062815
BeatmapSetID:1493527

[Difficulty]
HPDrainRate:6
CircleSize:5
OverallDifficulty:8.5
ApproachRate:8
SliderMultiplier:1.7
SliderTickRate:1

[Events]
//Background and Video events
0,0,"bg.png",0,0
//Break Periods
2,89539,98833
2,127588,132492
//Storyboard Layer 0 (Background)
//Storyboard Layer 1 (Fail)
//Storyboard Layer 2 (Pass)
//Storyboard Layer 3 (Foreground)
//Storyboard Layer 4 (Overlay)
//Storyboard Sound Samples

[TimingPoints]
1535,365.853658536585,4,2,1,30,1,0
1535,-142.857142857143,4,2,1,30,0,0
4461,-142.857142857143,4,2,1,40,0,0
5925,-142.857142857143,4,2,1,50,0,0
6839,-142.857142857143,4,2,1,60,0,0
7388,-100,4,2,1,60,0,0
11047,-100,4,2,1,70,0,0
11595,-100,4,2,1,55,0,0
11961,-100,4,2,1,60,0,0
12875,-100,4,2,1,5,0,0
13242,-100,4,2,1,70,0,0
24949,-125,4,2,1,60,0,0
25315,-125,4,2,1,50,0,0
35925,-125,4,2,1,60,0,0
35986,-125,4,2,1,5,0,0
36291,-125,4,2,1,60,0,0
36656,-125,4,2,1,65,0,0
46900,-100,4,2,1,65,0,0
48364,-100,4,2,1,70,0,0
48546,-100,4,2,1,5,0,0
48638,-100,4,2,1,70,0,0
48820,-100,4,2,1,5,0,0
48913,-100,4,2,1,70,0,0
50009,-100,4,2,1,5,0,0
50102,-100,4,2,1,70,0,0
50284,-100,4,2,1,5,0,0
50376,-100,4,2,1,70,0,0
51473,-100,4,2,1,5,0,0
51565,-100,4,2,1,70,0,0
51748,-100,4,2,1,5,0,0
51838,-100,4,2,1,70,0,0
52022,-100,4,2,1,60,0,0
52754,-100,4,2,1,70,0,0
54308,-100,4,2,1,5,0,0
54583,-100,4,2,1,70,0,0
54674,-100,4,2,1,5,0,0
54766,-100,4,2,1,70,0,0
55040,-100,4,2,1,5,0,0
55132,-100,4,2,1,70,0,0
55223,-100,4,2,1,5,0,0
55498,-100,4,2,1,70,0,0
55772,-100,4,2,1,5,0,0
55864,-100,4,2,1,70,0,0
56778,-333.333333333333,4,2,1,30,0,0
57144,-83.3333333333333,4,2,1,80,0,1
80376,-83.3333333333333,4,2,1,70,0,1
80559,-100,4,2,1,70,0,0
83119,-100,4,2,1,5,0,0
83486,-125,4,2,1,45,0,0
99583,-125,4,2,1,55,0,0
100315,-100,4,2,1,55,0,0
101047,-100,4,2,1,65,0,0
112754,-100,4,2,1,70,0,0
112936,-100,4,2,1,5,0,0
113028,-100,4,2,1,70,0,0
114399,-100,4,2,1,5,0,0
114492,-100,4,2,1,70,0,0
114674,-100,4,2,1,5,0,0
114766,-100,4,2,1,70,0,0
115863,-100,4,2,1,5,0,0
115955,-100,4,2,1,70,0,0
116138,-100,4,2,1,5,0,0
116229,-100,4,2,1,70,0,0
118790,-100,4,2,1,5,0,0
118882,-100,4,2,1,70,0,0
119064,-100,4,2,1,5,0,0
119156,-100,4,2,1,70,0,0
120253,-100,4,2,1,5,0,0
120345,-100,4,2,1,70,0,0
120527,-100,4,2,1,5,0,0
120620,-100,4,2,1,70,0,0
121716,-100,4,2,1,5,0,0
121809,-100,4,2,1,70,0,0
121992,-100,4,2,1,5,0,0
122082,-100,4,2,1,70,0,0
124552,-100,4,2,1,5,0,0
124827,-100,4,2,1,70,0,0
124918,-100,4,2,1,5,0,0
125010,-100,4,2,1,70,0,0
125284,-100,4,2,1,5,0,0
125376,-100,4,2,1,70,0,0
125467,-100,4,2,1,5,0,0
125742,-100,4,2,1,70,0,0
126016,-100,4,2,1,5,0,0
126108,-100,4,2,1,70,0,0
127388,-100,4,2,1,50,0,0
133242,-250,4,2,1,70,0,0
134705,-200,4,2,1,70,0,0
136169,-100,4,2,1,70,0,0
138730,-333.333333333333,4,2,1,70,0,0
139004,-333.333333333333,4,2,1,5,0,0
139095,-333.333333333333,4,2,1,40,0,0
139461,-83.3333333333333,4,2,1,80,0,1
162327,-83.3333333333333,4,2,1,70,0,1
162510,-100,4,2,1,70,0,0
163608,-100,4,2,1,60,0,0
164156,-100,4,2,1,70,0,0
165070,-100,4,2,1,5,0,0
165437,-100,4,2,1,70,0,0
176413,-83.3333333333333,4,2,1,70,0,0
176778,-500,4,2,1,60,0,0
177144,-500,4,2,1,5,0,0

[Colours]
Combo1 : 236,143,75
Combo2 : 254,216,86
Combo3 : 178,198,204
Combo4 : 227,116,113

[HitObjects]
105,119,1535,6,0,P|131:124|171:142,1,59.4999981842041,2|0,3:2|2:0,2:0:0:0:
188,63,1900,2,0,P|162:58|122:40,1,59.4999981842041,2|0,2:0|2:0,2:0:0:0:
34,136,2266,1,2,2:0:0:0:
41,254,2449,2,0,P|55:219|107:199,1,89.2499972763062,2|0,2:0|2:0,2:0:0:0:
107,192,2815,6,0,B|172:204|144:253|216:253,1,118.999996368408,2|2,2:0|2:0,2:0:0:0:
273,227,3364,1,0,2:0:0:0:
218,179,3547,1,2,2:0:0:0:
204,252,3730,2,0,P|215:299|217:328,1,59.4999981842041,2|2,2:0|2:0,2:0:0:0:
279,369,4095,2,0,P|284:339|292:311,1,59.4999981842041,0|2,2:0|2:0,2:0:0:0:
438,272,4461,6,0,L|368:261,1,59.4999981842041,2|2,3:2|2:0,2:0:0:0:
375,258,4736,1,2,2:0:0:0:
371,253,4827,2,0,P|364:212|385:190,1,59.4999981842041,10|2,2:0|2:0,2:0:0:0:
378,197,5102,1,2,2:0:0:0:
383,195,5193,5,2,3:2:0:0:
453,173,5376,1,2,2:0:0:0:
392,80,5559,5,10,3:2:0:0:
512,127,5742,1,2,2:0:0:0:
438,272,5925,5,2,3:2:0:0:
304,194,6108,1,2,2:0:0:0:
348,137,6291,5,10,2:0:0:0:
158,198,6474,1,2,2:0:0:0:
221,241,6656,1,2,3:2:0:0:
132,61,6839,5,10,2:0:0:0:
0,209,7022,1,10,2:0:0:0:
144,341,7205,1,10,2:0:0:0:
221,105,7388,6,0,P|205:44|190:0,1,85,6|0,3:2|2:0,2:0:0:0:
304,194,7754,1,10,2:0:0:0:
355,242,7937,2,0,P|395:232|413:177,1,85,2|0,2:0|3:0,2:0:0:0:
239,174,8303,2,0,P|188:189|154:199,1,85,2|8,2:0|2:0,2:0:0:0:
39,383,8669,6,0,P|63:340|153:343,1,127.5,10|0,3:2|2:0,2:0:0:0:
144,341,9034,1,10,2:0:0:0:
104,154,9217,1,0,3:0:0:0:
291,114,9400,1,10,2:0:0:0:
331,301,9583,6,0,P|299:277|249:282,1,85,2|2,3:2|3:0,2:0:0:0:
407,246,9949,1,14,2:0:0:0:
335,375,10132,1,2,2:0:0:0:
412,253,10315,6,0,L|402:205,1,42.5,2|2,3:2|2:3,2:0:0:0:
374,53,10498,2,0,L|364:101,1,42.5,2|2,3:0|2:3,2:0:0:0:
254,199,10681,1,2,2:3:0:0:
262,197,10772,1,2,2:3:0:0:
270,195,10864,1,2,2:3:0:0:
278,193,10955,1,2,2:3:0:0:
286,191,11047,6,0,P|278:176|252:160,1,42.5,10|2,2:0|2:3,2:0:0:0:
215,51,11230,2,0,P|198:45|169:52,1,42.5,10|2,2:0|2:3,2:0:0:0:
25,95,11413,1,2,2:0:0:0:
22,86,11504,1,2,2:3:0:0:
19,77,11595,1,2,2:0:0:0:
16,68,11687,1,2,2:3:0:0:
16,68,11961,6,0,B|91:72|59:122|149:116,1,127.5,10|0,3:2|2:0,2:0:0:0:
137,108,12327,2,0,L|121:172,1,42.5,10|0,2:0|2:0,2:0:0:0:
48,366,12510,2,0,P|36:291|118:253,1,170,10|0,2:0|2:0,2:0:0:0:
109,251,13242,5,6,3:2:0:0:
171,286,13425,1,2,2:0:0:0:
324,220,13608,5,10,2:0:0:0:
160,355,13791,1,2,2:0:0:0:
308,293,13974,5,2,3:2:0:0:
266,177,14156,1,2,2:0:0:0:
266,177,14339,1,10,2:0:0:0:
447,193,14522,1,2,2:0:0:0:
319,124,14705,5,2,3:2:0:0:
404,253,14888,1,2,2:0:0:0:
319,124,15071,1,10,2:0:0:0:
308,293,15254,1,2,2:0:0:0:
439,124,15437,5,2,3:2:0:0:
416,59,15620,1,2,2:0:0:0:
353,32,15803,1,10,2:0:0:0:
289,55,15986,1,2,2:0:0:0:
249,241,16169,5,6,3:2:0:0:
380,169,16352,1,2,2:0:0:0:
249,241,16534,1,8,2:0:0:0:
380,169,16717,1,2,2:0:0:0:
199,187,16900,5,0,3:0:0:0:
318,278,17083,1,2,2:0:0:0:
199,187,17266,1,8,2:0:0:0:
429,221,17449,6,0,P|419:262|414:304,1,85,2|0,2:0|3:0,2:0:0:0:
455,357,17724,1,2,2:0:0:0:
462,351,17815,1,2,2:0:0:0:
318,278,17998,1,10,2:0:0:0:
180,336,18181,1,2,2:0:0:0:
199,187,18364,1,2,3:2:0:0:
265,360,18547,5,10,2:0:0:0:
142,233,18730,2,0,P|88:225|43:223,1,85,10|0,2:0|3:0,2:0:0:0:
13,171,19004,1,0,3:0:0:0:
20,163,19095,5,6,3:2:0:0:
88,311,19278,1,2,2:0:0:0:
80,133,19461,5,10,2:0:0:0:
57,223,19644,1,2,2:0:0:0:
199,187,19827,5,2,3:2:0:0:
116,75,20010,1,2,2:0:0:0:
116,75,20193,1,10,2:0:0:0:
299,40,20376,1,2,2:0:0:0:
268,206,20559,5,2,3:2:0:0:
231,22,20742,1,2,2:0:0:0:
268,206,20925,1,10,2:0:0:0:
367,58,21108,1,2,2:0:0:0:
320,258,21291,5,2,3:2:0:0:
387,250,21474,1,2,2:0:0:0:
444,285,21656,1,10,2:0:0:0:
459,351,21839,1,2,2:0:0:0:
281,314,22022,5,0,3:0:0:0:
449,216,22205,1,2,2:0:0:0:
281,314,22388,1,8,2:0:0:0:
449,216,22571,1,2,2:0:0:0:
314,151,22754,5,8,2:0:0:0:
387,250,22937,1,2,2:0:0:0:
281,314,23120,1,8,2:0:0:0:
174,201,23303,5,10,2:0:0:0:
181,204,23394,1,2,2:0:0:0:
188,207,23486,1,0,3:0:0:0:
320,258,23669,1,2,2:0:0:0:
424,137,23852,5,10,2:0:0:0:
314,151,24034,1,2,2:0:0:0:
181,86,24217,5,10,2:0:0:0:
239,45,24400,1,10,2:0:0:0:
247,44,24492,1,8,2:0:0:0:
255,43,24583,1,10,2:0:0:0:
314,76,24766,1,10,2:0:0:0:
255,212,24949,6,0,P|212:207|170:207,1,68,6|0,3:2|2:0,2:0:0:0:
89,256,25315,2,0,P|76:290|96:322,1,68,2|0,3:2|2:0,2:0:0:0:
164,346,25681,1,2,3:2:0:0:
36,209,25955,1,2,2:0:0:0:
41,204,26047,2,0,L|53:125,1,68,0|2,3:0|2:0,2:0:0:0:
166,274,26413,6,0,P|199:281|225:316,1,68,0|2,3:0|2:0,2:0:0:0:
269,384,26778,2,0,P|291:359|324:352,1,68,2|2,3:2|2:0,2:0:0:0:
479,381,27144,6,0,P|492:354|483:309,1,68,2|2,3:2|2:0,2:0:0:0:
341,222,27510,2,0,P|328:249|337:294,1,68,2|2,3:2|2:0,2:0:0:0:
457,252,27876,5,0,3:0:0:0:
498,144,28059,2,0,L|512:210,2,68,2|2|2,2:0|3:2|2:0,2:0:0:0:
366,89,28608,2,0,P|353:117|371:156,1,68,2|2,3:2|2:0,2:0:0:0:
511,76,28974,1,2,3:2:0:0:
377,17,29156,6,0,L|303:30,1,68,2|0,2:0|3:0,2:0:0:0:
222,170,29522,1,2,2:0:0:0:
278,207,29705,2,0,P|302:161|278:126,1,68,2|2,3:2|2:0,2:0:0:0:
249,10,30071,2,0,P|207:27|144:44,1,102,2|0,3:2|2:0,2:0:0:0:
142,40,30437,2,0,P|167:68|143:115,1,68,0|0,3:0|2:0,2:0:0:0:
14,207,30803,6,0,P|9:152|2:140,1,68,2|0,3:2|2:0,2:0:0:0:
34,12,31169,2,0,P|67:33|75:70,1,68,2|0,3:2|2:0,2:0:0:0:
10,76,31534,1,2,3:2:0:0:
143,225,31809,1,2,2:0:0:0:
140,231,31901,2,0,L|61:250,1,68,0|2,3:0|2:0,2:0:0:0:
222,314,32266,6,0,P|237:277|210:228,1,68,0|2,3:0|2:0,2:0:0:0:
136,311,32632,2,0,P|130:344|145:374,1,68,2|2,3:2|2:0,2:0:0:0:
279,353,32998,2,0,P|324:337|366:334,1,68,2|2,3:2|2:0,2:0:0:0:
264,168,33364,2,0,P|219:184|177:187,1,68,2|2,3:2|2:0,2:0:0:0:
321,269,33730,5,0,3:0:0:0:
379,234,33913,2,0,P|353:206|306:206,2,68,2|2|2,2:0|3:2|2:0,2:0:0:0:
469,340,34461,5,2,3:2:0:0:
411,305,34644,2,0,P|437:277|484:277,2,68,2|2|2,2:0|3:2|2:0,2:0:0:0:
489,210,35193,6,0,P|497:154|511:120,1,68,2|2,3:2|2:0,2:0:0:0:
333,68,35559,2,0,P|325:124|311:158,1,68,2|2,3:2|2:0,2:0:0:0:
501,22,35925,6,0,B|452:34|466:67|414:71,1,102,10|0,2:0|2:0,2:0:0:0:
405,76,36291,2,0,P|406:41|372:8,1,68,10|0,3:2|2:0,2:0:0:0:
251,105,36656,5,6,3:2:0:0:
403,147,36839,1,2,2:0:0:0:
274,192,37022,5,8,2:0:0:0:
140,227,37205,1,2,2:0:0:0:
68,126,37388,5,2,3:2:0:0:
190,60,37571,1,2,2:0:0:0:
31,15,37754,1,8,2:0:0:0:
95,44,37937,5,2,2:0:0:0:
97,52,38028,1,2,2:0:0:0:
99,60,38120,1,2,3:2:0:0:
38,200,38303,1,2,2:0:0:0:
157,298,38486,5,10,2:0:0:0:
138,149,38669,1,2,2:0:0:0:
57,334,38852,5,2,3:2:0:0:
210,248,39034,1,2,2:0:0:0:
330,352,39217,1,8,2:0:0:0:
196,359,39400,5,2,2:0:0:0:
223,346,39492,1,2,2:0:0:0:
249,333,39583,1,2,3:2:0:0:
379,248,39766,5,2,2:0:0:0:
406,261,39858,1,0,2:0:0:0:
432,274,39949,1,10,2:0:0:0:
420,341,40132,1,2,2:0:0:0:
313,281,40315,1,2,3:2:0:0:
438,198,40498,5,2,2:0:0:0:
449,170,40589,1,0,2:0:0:0:
438,141,40681,1,10,2:0:0:0:
325,103,40864,5,2,2:0:0:0:
314,75,40955,1,0,2:0:0:0:
325,46,41047,1,2,3:2:0:0:
477,86,41230,1,2,2:0:0:0:
371,168,41413,5,10,2:0:0:0:
449,17,41595,1,2,2:0:0:0:
458,19,41686,1,0,2:0:0:0:
467,21,41778,1,2,3:2:0:0:
325,103,41961,1,8,2:0:0:0:
176,35,42144,1,10,2:0:0:0:
224,100,42327,5,2,2:0:0:0:
232,98,42419,1,2,2:0:0:0:
240,96,42510,1,6,3:2:0:0:
90,53,42693,1,2,2:0:0:0:
208,173,42876,5,10,2:0:0:0:
375,143,43059,1,2,2:0:0:0:
490,243,43242,5,2,3:2:0:0:
324,297,43425,1,10,2:0:0:0:
297,141,43608,1,8,2:0:0:0:
333,204,43791,5,2,2:0:0:0:
331,212,43882,1,2,2:0:0:0:
329,220,43974,1,2,3:2:0:0:
240,364,44156,1,2,2:0:0:0:
129,183,44339,5,10,2:0:0:0:
256,295,44522,1,2,2:0:0:0:
143,368,44705,5,2,3:2:0:0:
30,234,44888,1,10,2:0:0:0:
161,122,45071,1,8,2:0:0:0:
222,165,45254,5,2,2:0:0:0:
237,139,45345,1,2,2:0:0:0:
234,109,45437,1,2,3:2:0:0:
84,45,45620,1,2,2:0:0:0:
16,164,45803,5,10,2:0:0:0:
188,57,45986,1,2,2:0:0:0:
161,192,46169,5,2,3:2:0:0:
84,122,46352,1,2,2:0:0:0:
0,231,46534,5,10,2:0:0:0:
234,109,46717,1,10,2:0:0:0:
218,280,46900,6,0,P|131:263|71:257,1,127.5,2|0,3:2|2:0,2:0:0:0:
83,264,47266,2,0,P|62:301|115:325,1,85,10|2,2:0|3:2,2:0:0:0:
284,270,47632,5,10,2:0:0:0:
370,356,47815,1,8,2:0:0:0:
497,326,47998,1,10,2:0:0:0:
495,317,48089,1,2,2:0:0:0:
492,308,48181,1,10,2:0:0:0:
490,299,48272,1,2,2:0:0:0:
488,290,48364,6,0,P|459:290|401:300,1,85,6|0,3:2|2:0,2:0:0:0:
396,295,48638,2,0,P|376:250|417:206,1,85,0|0,3:0|2:0,2:0:0:0:
455,207,48913,5,2,3:2:0:0:
456,215,49004,1,2,3:2:0:0:
457,223,49095,1,10,2:0:0:0:
484,63,49461,5,2,2:0:0:0:
432,113,49644,1,0,3:0:0:0:
423,110,49736,1,0,3:0:0:0:
414,107,49827,2,0,P|378:124|311:149,1,85,4|0,3:0|2:0,2:0:0:0:
329,145,50102,2,0,P|335:93|291:76,1,85,4|0,3:0|2:0,2:0:0:0:
250,59,50376,5,2,3:2:0:0:
242,63,50467,1,2,3:2:0:0:
234,67,50559,1,10,2:0:0:0:
171,115,50742,1,0,3:0:0:0:
71,104,50925,2,0,P|53:60|93:30,1,85,10|0,2:0|2:0,2:0:0:0:
231,157,51291,6,0,P|216:206|210:260,1,85,4|0,3:0|2:0,2:0:0:0:
216,245,51565,1,4,3:0:0:0:
220,251,51656,2,0,P|192:221|126:230,1,85,2|2,2:0|3:2,2:0:0:0:
146,224,51931,1,0,2:0:0:0:
142,231,52022,1,10,2:0:0:0:
0,346,52388,5,2,3:2:0:0:
61,379,52571,1,2,3:2:0:0:
188,330,52754,5,10,2:0:0:0:
329,262,52937,1,2,3:2:0:0:
449,336,53120,5,10,2:0:0:0:
284,346,53303,1,2,3:2:0:0:
264,323,53394,1,0,3:0:0:0:
264,293,53486,1,10,2:0:0:0:
383,209,53669,1,0,3:0:0:0:
397,182,53761,1,0,3:0:0:0:
390,152,53852,1,10,2:0:0:0:
326,122,54034,1,0,3:0:0:0:
181,228,54217,6,0,L|235:241,1,42.5,2|0,3:2|2:0,2:0:0:0:
389,45,54583,2,0,L|335:58,1,42.5,10|0,2:0|2:0,2:0:0:0:
287,28,54766,1,0,3:0:0:0:
109,157,54949,6,0,P|115:181|122:221,1,42.5,0|0,3:0|2:0,2:0:0:0:
228,68,55132,2,0,P|222:44|215:4,1,42.5,8|0,2:0|2:0,2:0:0:0:
96,169,55498,6,0,P|112:249|124:323,1,127.5,10|0,2:0|2:0,2:0:0:0:
112,308,55864,1,2,3:2:0:0:
272,170,56047,1,10,2:0:0:0:
148,28,56230,1,10,2:0:0:0:
78,82,56413,1,8,2:0:0:0:
78,82,56778,6,2,P|84:108|88:129,1,38.2499988327027,0|0,2:0|2:0,2:1:0:0:
25,154,57144,6,0,P|73:152|107:189,1,101.999996887207,6|0,3:2|2:0,2:0:0:0:
60,244,57419,1,2,2:0:0:0:
56,253,57510,2,2,B|142:245|103:192|225:194,1,152.999995330811,10|0,2:0|2:0,2:1:0:0:
240,243,57876,5,2,3:2:0:0:
167,361,58059,1,2,2:0:0:0:
172,370,58150,1,2,2:0:0:0:
177,379,58242,1,8,2:0:0:0:
99,323,58425,6,0,P|68:331|-4:356,1,101.999996887207,2|0,2:0|3:0,2:0:0:0:
276,305,58791,2,2,P|312:261|299:210,1,101.999996887207,2|8,2:0|2:0,2:1:0:0:
179,269,59156,5,2,2:0:0:0:
266,130,59339,2,0,P|325:148|389:164,1,101.999996887207,2|0,3:2|2:0,2:0:0:0:
390,222,59614,1,2,2:0:0:0:
386,232,59705,1,10,2:0:0:0:
409,99,59888,5,2,2:0:0:0:
471,119,60071,2,0,P|500:75|474:20,1,101.999996887207,6|2,3:2|2:0,2:0:0:0:
429,0,60345,1,2,2:0:0:0:
419,3,60437,1,10,2:0:0:0:
266,130,60620,5,2,2:0:0:0:
256,127,60711,1,2,2:0:0:0:
246,124,60803,1,2,3:2:0:0:
334,21,61077,1,2,2:0:0:0:
342,17,61169,2,0,P|348:40|336:81,1,50.9999984436036,10|0,2:0|2:0,2:0:0:0:
185,164,61352,5,2,2:0:0:0:
167,133,61443,1,2,2:0:0:0:
175,98,61534,2,0,P|106:125|68:133,1,101.999996887207,2|2,3:2|2:0,2:0:0:0:
20,274,61900,5,10,2:0:0:0:
160,335,62083,1,2,2:0:0:0:
248,200,62266,1,2,3:2:0:0:
78,131,62449,5,10,2:0:0:0:
99,374,62632,1,10,2:0:0:0:
78,131,62815,1,10,2:0:0:0:
238,285,62998,6,0,B|320:278|285:227|392:222,1,152.999995330811,6|0,3:2|2:0,2:0:0:0:
421,271,63364,1,10,2:0:0:0:
327,381,63547,2,0,P|313:320|292:256,1,101.999996887207,2|0,2:0|3:0,2:0:0:0:
410,98,63913,2,0,P|424:159|445:223,1,101.999996887207,2|8,2:0|2:0,2:0:0:0:
197,205,64278,6,0,P|235:163|291:171,1,101.999996887207,2|0,2:0|3:0,2:0:0:0:
388,334,64644,1,2,2:0:0:0:
504,189,64827,1,10,2:0:0:0:
436,32,65010,1,2,2:0:0:0:
268,69,65193,6,0,P|351:89|393:99,1,101.999996887207,2|0,3:2|2:0,2:0:0:0:
261,229,65559,1,10,2:0:0:0:
117,139,65742,1,2,2:0:0:0:
40,265,65925,6,0,P|107:248|157:242,1,101.999996887207,2|0,3:2|2:0,2:0:0:0:
98,66,66291,2,0,P|57:88|42:142,1,101.999996887207,10|0,2:0|2:0,2:0:0:0:
157,311,66656,5,2,3:2:0:0:
322,195,66839,1,2,2:0:0:0:
501,249,67022,5,10,2:0:0:0:
279,139,67205,1,10,2:0:0:0:
139,243,67388,5,2,3:2:0:0:
70,219,67571,1,2,2:0:0:0:
142,125,67754,5,10,2:0:0:0:
299,75,67937,1,2,2:0:0:0:
459,150,68120,5,10,2:0:0:0:
439,214,68303,1,2,2:0:0:0:
320,350,68486,5,10,2:0:0:0:
300,320,68577,1,8,2:0:0:0:
301,284,68669,1,8,2:0:0:0:
319,253,68760,1,8,2:0:0:0:
352,239,68852,2,0,P|372:246|393:281,3,50.9999984436036,6|2|2|2,3:2|2:0|2:0|2:0,2:0:0:0:
234,208,69217,2,0,P|171:234|118:247,1,101.999996887207,10|2,2:1|2:0,2:0:0:0:
162,363,69583,5,2,3:2:0:0:
169,356,69675,2,0,P|160:311|150:298,1,50.9999984436036,2|2,2:0|2:0,2:0:0:0:
88,196,69858,1,2,2:0:0:0:
78,199,69949,2,0,L|19:218,2,50.9999984436036,8|2|2,2:0|2:0|2:0,2:0:0:0:
290,172,70315,6,0,P|271:223|265:284,1,101.999996887207,2|2,3:2|2:0,2:0:0:0:
112,129,70681,2,0,P|163:89|202:115,1,101.999996887207,10|2,2:0|2:0,2:0:0:0:
269,278,71047,6,0,P|335:303|392:240,1,152.999995330811,2|0,3:2|2:0,2:0:0:0:
357,195,71413,1,10,2:0:0:0:
501,251,71595,1,2,2:0:0:0:
484,79,71778,5,6,3:2:0:0:
324,135,71961,1,2,2:0:0:0:
240,56,72144,1,10,2:0:0:0:
419,33,72327,6,0,P|445:81|419:139,1,101.999996887207,2|0,2:0|3:0,2:0:0:0:
250,126,72693,1,2,2:0:0:0:
169,31,72876,1,10,2:0:0:0:
132,89,73059,1,2,2:0:0:0:
14,160,73242,5,2,3:2:0:0:
176,228,73425,1,2,2:0:0:0:
63,213,73608,5,10,2:0:0:0:
250,126,73791,1,2,2:0:0:0:
425,223,73974,1,2,3:2:0:0:
239,342,74156,5,10,2:0:0:0:
280,278,74339,1,2,3:2:0:0:
246,215,74522,1,10,2:0:0:0:
80,331,74705,6,0,P|139:350|178:369,1,101.999996887207,6|0,3:2|2:0,2:0:0:0:
332,324,75071,1,10,2:0:0:0:
383,281,75254,2,0,P|393:235|358:183,1,101.999996887207,2|0,2:0|3:0,2:0:0:0:
188,164,75620,6,0,P|130:187|82:198,1,101.999996887207,2|8,2:0|2:0,2:0:0:0:
262,0,75986,2,0,P|301:38|284:110,1,101.999996887207,2|0,2:0|3:0,2:0:0:0:
250,126,76352,1,2,2:0:0:0:
406,54,76534,1,10,2:0:0:0:
512,203,76717,1,2,2:0:0:0:
379,304,76900,6,0,P|335:284|242:274,1,101.999996887207,2|0,3:2|2:0,2:0:0:0:
447,175,77266,1,10,2:0:0:0:
342,366,77449,1,2,2:0:0:0:
202,281,77632,6,0,P|207:236|265:197,1,101.999996887207,2|0,3:2|2:0,2:0:0:0:
81,28,77998,2,0,P|108:115|113:196,1,152.999995330811,10|0,2:0|2:0,2:0:0:0:
66,227,78364,5,2,3:2:0:0:
181,154,78547,1,2,2:0:0:0:
247,200,78730,5,10,2:0:0:0:
25,120,78913,1,10,2:0:0:0:
74,343,79095,5,2,3:2:0:0:
106,284,79278,1,2,2:0:0:0:
247,200,79461,5,10,2:0:0:0:
279,259,79644,1,2,2:0:0:0:
143,343,79827,5,10,2:0:0:0:
317,199,80010,1,10,2:0:0:0:
506,262,80193,2,0,B|429:276|451:324|377:342,1,152.999995330811,10|0,2:0|2:0,2:0:0:0:
322,379,80559,6,0,P|310:354|326:320,1,42.5,10|0,2:0|2:0,2:0:0:0:
470,158,80742,2,0,L|462:215,1,42.5,8|0,2:0|2:0,2:0:0:0:
373,267,80925,1,2,2:0:0:0:
364,264,81016,1,2,2:0:0:0:
355,261,81108,1,2,2:0:0:0:
346,258,81199,1,2,2:0:0:0:
337,255,81291,6,0,L|287:271,1,42.5,10|0,2:0|2:0,2:0:0:0:
189,362,81474,2,0,L|239:378,1,42.5,10|0,2:0|2:0,2:0:0:0:
243,193,81656,1,2,2:0:0:0:
241,201,81748,1,2,2:0:0:0:
239,209,81839,1,2,2:0:0:0:
237,217,81931,1,2,2:0:0:0:
237,217,82205,6,0,P|183:252|122:192,1,127.5,10|0,2:1|2:0,2:0:0:0:
131,214,82571,6,0,L|122:268,1,42.5,10|0,2:1|2:0,2:0:0:0:
33,90,82754,2,0,P|119:109|213:147,1,170,10|0,2:1|2:0,2:0:0:0:
195,138,83486,6,0,P|183:100|201:70,1,68,6|2,3:2|2:0,2:0:0:0:
322,12,83852,2,0,P|334:50|316:80,1,68,10|2,2:0|2:0,2:0:0:0:
260,165,84217,2,0,P|297:147|338:140,1,68,2|2,3:2|2:0,2:0:0:0:
386,100,84583,2,0,P|423:118|464:125,1,68,10|2,2:0|2:0,2:0:0:0:
348,204,84949,6,0,P|340:241|357:271,1,68,2|2,3:2|2:0,2:0:0:0:
432,267,85315,1,10,2:0:0:0:
457,205,85498,1,2,2:0:0:0:
486,362,85681,5,2,3:2:0:0:
390,325,85864,1,2,2:0:0:0:
296,350,86047,5,10,2:0:0:0:
238,382,86230,1,2,2:0:0:0:
109,331,86413,5,0,3:0:0:0:
157,282,86595,2,0,P|189:294|206:324,1,68,2|8,2:0|2:0,2:0:0:0:
65,275,86961,2,0,P|58:224|46:193,1,68,2|0,2:0|3:0,2:0:0:0:
146,109,87327,2,0,P|153:160|165:191,1,68,2|8,2:0|2:0,2:0:0:0:
53,116,87693,5,12,2:0:0:0:
55,109,87784,1,0,3:0:0:0:
57,102,87876,1,2,3:2:0:0:
105,50,88059,1,2,2:0:0:0:
197,24,88242,6,0,P|234:42|261:50,1,68,10|2,2:0|2:0,2:0:0:0:
286,34,88486,5,8,2:0:0:0:
277,59,88608,5,10,2:0:0:0:
296,89,88730,5,8,2:0:0:0:
292,131,88852,5,8,3:0:0:0:
313,156,88974,6,0,L|367:139,2,45.3333333333333,2|2|2,2:0|2:0|3:2,2:0:0:0:
277,225,89339,5,6,2:0:0:0:
329,213,99583,6,0,P|339:233|345:252,1,34,2|0,3:0|2:0,2:0:0:0:
431,274,99766,2,0,P|437:259|445:244,1,34,8|8,3:0|3:0,2:0:0:0:
399,158,99949,1,10,3:0:0:0:
399,158,100132,1,2,2:3:0:0:
316,212,100315,6,0,P|326:232|335:257,1,42.5,10|0,2:0|2:0,2:0:0:0:
440,281,100498,2,0,P|448:261|458:243,1,42.5,12|0,2:0|2:0,2:0:0:0:
459,117,100681,5,8,2:0:0:0:
438,94,100773,1,8,2:0:0:0:
409,86,100864,1,8,2:0:0:0:
379,88,100956,1,8,2:0:0:0:
354,104,101047,1,6,3:2:0:0:
201,46,101230,1,2,2:0:0:0:
70,119,101413,5,10,2:0:0:0:
241,170,101595,1,2,2:0:0:0:
30,229,101778,5,2,3:2:0:0:
174,155,101961,1,2,2:0:0:0:
222,331,102144,1,8,2:0:0:0:
168,283,102327,5,2,2:0:0:0:
171,275,102419,1,2,2:0:0:0:
174,267,102510,1,2,3:2:0:0:
341,231,102693,1,2,2:0:0:0:
483,319,102876,5,10,2:0:0:0:
284,284,103059,1,2,2:0:0:0:
176,154,103242,5,2,3:2:0:0:
341,231,103425,1,2,2:0:0:0:
302,60,103608,1,8,2:0:0:0:
253,144,103791,5,2,2:0:0:0:
281,137,103882,1,2,2:0:0:0:
310,130,103974,1,6,3:2:0:0:
424,41,104156,5,2,2:0:0:0:
452,48,104247,1,0,2:0:0:0:
481,55,104339,1,10,2:0:0:0:
431,119,104522,1,2,2:0:0:0:
302,60,104705,1,2,3:2:0:0:
176,154,104888,5,2,2:0:0:0:
166,182,104980,1,0,2:0:0:0:
178,209,105071,1,10,2:0:0:0:
250,276,105254,1,2,2:0:0:0:
257,273,105345,1,0,2:0:0:0:
265,270,105437,1,2,3:2:0:0:
160,334,105620,5,2,2:0:0:0:
131,325,105711,1,2,2:0:0:0:
102,316,105803,1,10,2:0:0:0:
63,254,105986,1,2,2:0:0:0:
248,201,106169,1,10,2:0:0:0:
11,145,106352,5,8,2:0:0:0:
73,49,106534,1,2,3:2:0:0:
71,57,106626,1,2,2:0:0:0:
69,65,106717,1,10,2:0:0:0:
67,73,106809,1,2,2:0:0:0:
66,81,106900,1,6,3:2:0:0:
208,154,107083,1,2,2:0:0:0:
310,63,107266,5,10,2:0:0:0:
498,21,107449,1,2,2:0:0:0:
444,212,107632,5,2,3:2:0:0:
360,17,107815,1,10,2:0:0:0:
208,154,107998,1,8,2:0:0:0:
284,183,108181,5,2,2:0:0:0:
292,180,108272,1,2,2:0:0:0:
300,177,108364,1,2,3:2:0:0:
476,146,108547,1,2,2:0:0:0:
510,308,108730,5,10,2:0:0:0:
332,248,108913,1,2,2:0:0:0:
217,356,109095,5,2,3:2:0:0:
84,235,109278,1,10,2:0:0:0:
159,94,109461,1,8,2:0:0:0:
208,154,109644,5,2,2:0:0:0:
206,162,109736,1,2,2:0:0:0:
204,170,109827,1,6,3:2:0:0:
151,338,110010,1,2,2:0:0:0:
82,168,110193,5,10,2:0:0:0:
179,27,110376,1,2,2:0:0:0:
310,108,110559,5,2,3:2:0:0:
378,145,110742,1,2,2:0:0:0:
498,63,110925,5,10,2:0:0:0:
315,178,111108,1,2,2:0:0:0:
380,228,111291,5,8,2:0:0:0:
386,222,111382,2,0,L|453:234,1,42.5,8|2,2:0|2:0,2:0:0:0:
462,284,111565,1,8,2:0:0:0:
467,290,111656,2,0,P|468:338|418:363,1,85,10|10,2:0|2:0,2:0:0:0:
376,346,111931,1,8,2:0:0:0:
377,337,112023,2,0,L|392:277,3,42.5,2|2|8|4,3:2|2:0|3:0|3:0,2:0:0:0:
315,262,112388,5,2,3:2:0:0:
306,264,112480,1,2,2:0:0:0:
297,266,112571,1,2,2:0:0:0:
288,269,112663,1,2,2:0:0:0:
280,271,112754,6,0,P|221:259|189:242,1,85,6|0,3:2|2:0,2:0:0:0:
193,241,113028,2,0,P|163:277|176:319,1,85,8|0,3:0|2:0,2:0:0:0:
225,351,113303,5,2,3:2:0:0:
232,347,113394,1,2,2:0:0:0:
239,343,113486,1,10,2:0:0:0:
37,316,113852,5,2,2:0:0:0:
88,263,114034,1,0,3:0:0:0:
85,254,114126,1,0,3:0:0:0:
82,246,114217,2,0,P|43:245|19:197,1,85,4|0,3:0|2:0,2:0:0:0:
21,200,114492,2,0,P|56:133|61:101,1,85,4|0,3:0|2:0,2:0:0:0:
42,61,114766,5,2,3:2:0:0:
33,63,114858,1,2,2:0:0:0:
24,65,114949,1,10,2:0:0:0:
152,106,115132,1,0,3:0:0:0:
244,49,115315,2,0,P|305:67|357:73,1,85,10|2,2:0|2:0,2:0:0:0:
185,171,115681,6,0,P|160:204|171:243,1,85,4|0,3:0|2:0,2:0:0:0:
176,249,115955,1,4,3:0:0:0:
182,255,116047,2,0,P|249:232|279:226,1,85,2|2,2:0|3:2,2:0:0:0:
409,233,116413,5,10,2:0:0:0:
471,206,116595,1,2,2:0:0:0:
408,333,116778,5,2,3:2:0:0:
346,310,116961,1,2,3:2:0:0:
262,228,117144,5,10,2:0:0:0:
123,295,117327,1,2,3:2:0:0:
0,196,117510,5,10,2:0:0:0:
152,103,117693,1,2,3:2:0:0:
170,125,117784,1,0,3:0:0:0:
168,154,117876,1,10,2:0:0:0:
107,244,118059,1,2,3:2:0:0:
105,273,118151,1,0,3:0:0:0:
123,295,118242,1,10,2:0:0:0:
192,304,118425,1,2,2:0:0:0:
317,192,118608,6,0,P|387:209|412:222,1,85,6|0,3:2|2:0,2:0:0:0:
404,220,118882,2,0,P|437:198|431:148,1,85,4|0,3:0|2:0,2:0:0:0:
386,112,119156,5,2,3:2:0:0:
378,115,119247,1,2,2:0:0:0:
370,118,119339,1,10,2:0:0:0:
234,20,119705,5,2,2:0:0:0:
286,68,119888,1,0,3:0:0:0:
283,76,119980,1,0,3:0:0:0:
280,84,120071,2,0,P|246:96|186:134,1,85,4|0,3:0|2:0,2:0:0:0:
198,128,120345,2,0,P|196:170|239:208,1,85,4|0,3:0|2:0,2:0:0:0:
285,224,120620,5,2,3:2:0:0:
293,221,120711,1,2,3:2:0:0:
301,218,120803,1,10,2:0:0:0:
421,185,120986,1,2,3:2:0:0:
512,268,121169,2,0,P|518:316|467:350,1,85,10|2,2:0|2:0,2:0:0:0:
321,365,121534,6,0,P|257:340|209:333,1,85,4|0,3:0|2:0,2:0:0:0:
235,343,121809,1,4,3:0:0:0:
229,349,121900,2,0,P|246:303|207:265,1,85,2|2,2:0|3:2,2:0:0:0:
97,356,122266,5,10,2:0:0:0:
25,326,122449,1,2,2:0:0:0:
52,218,122632,5,2,3:2:0:0:
116,186,122815,1,2,3:2:0:0:
229,274,122998,5,10,2:0:0:0:
389,335,123181,1,2,3:2:0:0:
494,231,123364,5,10,2:0:0:0:
333,280,123547,1,2,3:2:0:0:
321,252,123638,1,0,3:0:0:0:
330,223,123730,1,10,2:0:0:0:
447,169,123913,1,0,3:0:0:0:
459,141,124004,1,0,3:0:0:0:
450,112,124096,1,10,2:0:0:0:
388,76,124278,1,0,3:0:0:0:
204,207,124461,6,0,P|239:220|258:229,1,42.5,2|0,3:2|2:0,2:0:0:0:
336,32,124827,2,0,P|301:19|282:10,1,42.5,10|0,2:0|2:0,2:0:0:0:
231,36,125010,1,0,3:0:0:0:
320,263,125193,6,0,P|330:238|320:201,1,42.5,10|0,2:0|2:0,2:0:0:0:
169,8,125376,2,0,P|159:33|169:70,1,42.5,10|0,2:0|2:0,2:0:0:0:
331,278,125742,6,0,P|346:225|338:145,1,127.5,10|0,2:0|2:0,2:0:0:0:
324,143,126108,1,2,3:2:0:0:
138,233,126291,1,10,2:0:0:0:
46,51,126474,1,10,2:0:0:0:
102,4,126656,1,10,2:0:0:0:
102,4,127388,5,6,2:0:0:0:
101,3,133242,6,0,L|144:16,3,34,6|0|0|0,3:2|2:0|2:0|2:0,2:0:0:0:
233,85,133974,2,0,L|275:72,3,34,6|0|0|0,3:2|2:0|2:0|2:0,2:0:0:0:
79,154,134705,6,0,P|62:132|64:99,3,42.5,6|0|0|0,3:2|2:0|2:0|2:0,2:0:0:0:
240,223,135437,2,0,P|257:201|255:168,3,42.5,6|2|2|2,3:2|2:0|2:0|2:0,2:0:0:0:
52,298,136169,6,0,L|94:310,3,42.5,2|2|2|2,3:2|2:3|2:3|2:3,2:0:0:0:
133,360,136534,2,0,L|173:347,3,42.5,10|2|2|2,2:0|2:3|2:3|2:3,2:0:0:0:
206,287,136900,5,2,3:2:0:0:
233,275,136992,1,2,2:3:0:0:
262,275,137083,1,2,3:2:0:0:
288,288,137175,1,2,2:3:0:0:
284,315,137266,5,2,3:2:0:0:
312,340,137358,1,2,2:3:0:0:
349,348,137449,1,2,2:0:0:0:
386,340,137541,1,2,2:3:0:0:
399,308,137632,5,0,3:0:0:0:
173,347,137815,1,8,2:0:0:0:
70,161,137998,1,8,2:0:0:0:
220,10,138181,1,8,2:0:0:0:
423,42,138364,2,0,P|415:98|414:184,1,127.5,8|0,2:0|2:0,2:0:0:0:
462,222,138730,6,0,L|418:238,1,38.2499988327027,10|0,2:0|2:0,2:0:0:0:
359,214,139095,5,2,2:0:0:0:
332,200,139187,1,2,2:0:0:0:
304,210,139278,1,2,2:0:0:0:
276,198,139370,1,2,2:0:0:0:
248,209,139461,2,2,B|157:227|213:272|97:283,1,152.999995330811,14|0,2:0|2:0,2:1:0:0:
71,326,139827,5,2,3:2:0:0:
245,373,140010,2,0,P|268:333|246:280,1,101.999996887207,2|8,2:0|2:0,2:0:0:0:
122,200,140376,6,0,P|50:217|3:230,1,101.999996887207,2|0,2:0|3:0,2:0:0:0:
142,49,140742,2,2,P|214:32|261:19,1,101.999996887207,2|8,2:0|2:0,2:1:0:0:
323,175,141108,5,2,2:0:0:0:
475,123,141291,2,0,P|493:67|458:15,1,101.999996887207,2|2,3:2|2:0,2:0:0:0:
412,15,141565,1,2,2:0:0:0:
403,20,141656,1,10,2:0:0:0:
285,107,141839,5,2,2:0:0:0:
234,58,142022,2,0,P|193:70|121:88,1,101.999996887207,6|2,3:2|2:0,2:0:0:0:
77,55,142297,1,2,2:0:0:0:
81,45,142388,1,10,2:0:0:0:
14,165,142571,5,2,2:0:0:0:
18,174,142663,1,2,2:0:0:0:
22,183,142754,1,2,3:2:0:0:
54,339,143028,1,2,2:0:0:0:
58,329,143120,2,0,L|81:260,1,50.9999984436036,10|0,2:0|2:0,2:0:0:0:
132,242,143303,5,2,2:0:0:0:
198,355,143486,2,0,P|245:329|314:315,1,101.999996887207,0|2,3:0|2:0,2:0:0:0:
424,359,143852,5,8,2:0:0:0:
293,241,144034,1,2,2:0:0:0:
362,83,144217,1,8,2:0:0:0:
452,232,144400,5,10,2:0:0:0:
240,171,144583,1,10,2:0:0:0:
452,232,144766,1,2,3:2:0:0:
493,12,144949,6,0,B|403:35|450:77|350:85,1,152.999995330811,6|0,3:2|2:0,2:0:0:0:
302,43,145315,1,10,2:0:0:0:
494,171,145498,2,0,P|517:123|477:72,1,101.999996887207,2|0,2:0|3:0,2:0:0:0:
242,82,145864,2,0,P|219:130|259:181,1,101.999996887207,2|8,2:0|2:0,2:0:0:0:
434,299,146230,6,0,P|381:281|321:273,1,101.999996887207,2|0,2:0|3:0,2:0:0:0:
194,347,146595,1,2,2:0:0:0:
184,349,146687,1,0,2:0:0:0:
174,351,146778,1,10,2:0:0:0:
75,199,146961,1,2,2:0:0:0:
145,50,147144,6,0,P|217:76|259:85,1,101.999996887207,2|0,3:2|2:0,2:0:0:0:
157,201,147510,1,10,2:0:0:0:
310,39,147693,1,2,2:0:0:0:
467,127,147876,6,0,P|494:67|465:28,1,101.999996887207,2|0,3:2|2:0,2:0:0:0:
449,261,148242,2,0,P|386:234|346:226,1,101.999996887207,10|0,2:0|2:0,2:0:0:0:
161,286,148608,5,2,3:2:0:0:
103,111,148791,1,2,2:0:0:0:
251,14,148974,5,10,2:0:0:0:
213,178,149156,1,10,2:0:0:0:
97,306,149339,5,2,3:2:0:0:
37,276,149522,1,2,2:0:0:0:
186,372,149705,5,14,2:0:0:0:
353,296,149888,1,2,2:0:0:0:
488,344,150071,5,2,3:2:0:0:
430,380,150254,1,2,2:0:0:0:
312,239,150437,5,10,2:0:0:0:
342,221,150528,1,8,2:0:0:0:
377,218,150620,1,8,2:0:0:0:
410,229,150711,1,8,2:0:0:0:
436,253,150803,2,0,L|424:309,3,50.9999984436036,6|2|2|2,3:2|2:0|2:0|2:0,2:0:0:0:
484,173,151169,2,0,P|475:114|481:55,1,101.999996887207,10|2,2:1|2:0,2:0:0:0:
343,137,151534,5,2,3:2:0:0:
338,127,151626,2,0,L|272:144,1,50.9999984436036,2|2,2:0|2:0,2:0:0:0:
198,57,151809,1,2,2:0:0:0:
207,53,151901,2,0,P|225:81|224:125,2,50.9999984436036,8|0|2,2:0|2:0|2:0,2:0:0:0:
60,192,152266,6,0,P|129:177|174:171,1,101.999996887207,2|2,3:2|2:0,2:0:0:0:
163,381,152632,2,0,P|125:341|145:286,1,101.999996887207,10|2,2:0|2:0,2:0:0:0:
228,98,152998,6,0,P|280:142|273:235,1,152.999995330811,2|0,3:2|2:0,2:0:0:0:
227,263,153364,1,10,2:0:0:0:
403,204,153547,1,2,2:0:0:0:
457,27,153730,5,6,3:2:0:0:
353,143,153913,1,2,2:0:0:0:
448,277,154095,1,10,2:0:0:0:
303,384,154278,6,0,P|278:336|305:280,1,101.999996887207,2|0,2:0|3:0,2:0:0:0:
403,204,154644,1,2,2:0:0:0:
227,263,154827,1,10,2:0:0:0:
184,204,155010,1,2,2:0:0:0:
43,305,155193,5,2,3:2:0:0:
260,194,155376,1,2,2:0:0:0:
124,151,155559,5,10,2:0:0:0:
323,230,155742,1,2,2:0:0:0:
455,101,155925,1,2,3:2:0:0:
278,17,156108,5,10,2:0:0:0:
329,71,156291,1,10,2:0:0:0:
305,138,156474,1,10,2:0:0:0:
133,49,156656,6,0,P|194:60|250:73,1,101.999996887207,6|0,3:2|2:0,2:0:0:0:
134,179,157022,1,10,2:0:0:0:
78,218,157205,2,0,P|46:178|69:110,1,101.999996887207,2|0,2:0|3:0,2:0:0:0:
286,214,157571,6,0,P|275:242|256:332,1,101.999996887207,2|8,2:0|2:0,2:0:0:0:
66,345,157937,2,0,P|93:299|171:301,1,101.999996887207,2|0,2:0|3:0,2:0:0:0:
307,363,158303,5,2,2:0:0:0:
213,209,158486,1,10,2:0:0:0:
304,59,158669,1,2,2:0:0:0:
481,84,158852,6,0,P|451:141|443:216,1,101.999996887207,2|0,3:2|2:0,2:0:0:0:
501,307,159217,1,10,2:0:0:0:
366,176,159400,1,2,2:0:0:0:
257,315,159583,6,0,P|194:298|171:242,1,101.999996887207,2|0,3:2|2:0,2:0:0:0:
304,59,159949,2,0,P|282:116|259:239,1,152.999995330811,10|0,2:0|2:0,2:0:0:0:
304,259,160314,5,2,3:2:0:0:
181,175,160498,1,2,2:0:0:0:
47,242,160681,5,10,2:0:0:0:
243,140,160864,1,10,2:0:0:0:
49,93,161047,5,2,3:2:0:0:
71,158,161230,1,2,2:0:0:0:
175,269,161413,5,10,2:0:0:0:
153,334,161596,1,2,2:0:0:0:
47,242,161778,5,10,2:0:0:0:
232,229,161961,1,10,2:0:0:0:
297,373,162144,2,0,B|382:355|343:317|437:309,1,152.999995330811,10|0,2:0|2:0,2:0:0:0:
494,349,162510,6,0,L|504:278,1,42.5,10|0,2:0|2:0,2:0:0:0:
298,178,162693,2,0,L|308:249,1,42.5,8|0,2:0|2:0,2:0:0:0:
410,245,162876,1,2,2:0:0:0:
418,242,162967,1,2,2:0:0:0:
426,239,163059,1,2,2:0:0:0:
434,236,163150,1,2,2:0:0:0:
442,233,163242,6,0,P|442:205|423:182,1,42.5,10|0,2:0|2:0,2:0:0:0:
466,81,163425,2,0,P|445:61|415:60,1,42.5,10|0,2:0|2:0,2:0:0:0:
282,93,163608,1,2,2:0:0:0:
274,91,163699,1,0,2:0:0:0:
266,89,163791,1,2,2:0:0:0:
258,87,163882,1,2,2:0:0:0:
258,87,164156,6,0,B|325:74|295:32|375:29,1,127.5,10|0,2:1|2:0,2:0:0:0:
373,37,164522,2,0,L|365:84,1,42.5,10|0,2:1|2:0,2:0:0:0:
322,256,164705,2,0,P|294:197|199:193,1,170,10|0,2:1|2:0,2:0:0:0:
198,193,165437,6,0,P|182:254|176:306,1,85,6|0,3:2|2:0,2:0:0:0:
35,348,165803,2,2,P|51:287|57:235,1,85,10|0,2:0|2:0,2:1:0:0:
76,107,166169,1,2,3:2:0:0:
133,146,166352,2,0,P|163:94|130:51,1,85,2|8,2:0|2:0,2:0:0:0:
178,275,166717,6,0,P|234:256|267:250,1,85,2|0,2:0|3:0,2:0:0:0:
374,353,167083,5,2,2:0:0:0:
412,291,167266,1,10,2:0:0:0:
328,181,167449,5,2,2:0:0:0:
282,125,167632,2,0,P|240:142|200:148,1,85,2|2,3:2|2:0,2:0:0:0:
400,221,167998,5,10,2:0:0:0:
503,149,168181,1,2,2:0:0:0:
367,32,168364,6,0,P|346:71|371:124,1,85,6|0,3:2|2:0,2:0:0:0:
483,237,168730,2,2,P|457:230|380:219,1,85,10|0,2:0|2:0,2:1:0:0:
288,304,169095,5,2,3:2:0:0:
228,337,169278,2,0,P|202:286|217:253,1,85,2|8,2:0|2:0,2:0:0:0:
60,383,169644,6,0,P|116:366|162:359,1,85,2|0,2:0|3:0,2:0:0:0:
213,192,170010,5,2,2:0:0:0:
145,222,170193,1,8,2:0:0:0:
32,139,170376,1,2,2:0:0:0:
140,18,170559,5,2,3:2:0:0:
265,123,170742,1,8,2:0:0:0:
209,262,170925,2,0,P|264:272|343:295,1,127.5,8|0,2:0|2:0,2:0:0:0:
340,304,171291,6,0,P|367:274|360:215,1,85,6|0,3:2|2:0,2:0:0:0:
347,103,171656,2,2,P|302:117|260:123,1,85,10|0,2:0|2:0,2:1:0:0:
437,19,172022,5,2,3:2:0:0:
493,61,172205,2,0,P|502:108|461:142,1,85,2|8,2:0|2:0,2:0:0:0:
492,317,172571,6,0,P|450:295|397:282,1,85,2|0,2:0|3:0,2:0:0:0:
239,326,172937,5,2,2:0:0:0:
209,262,173120,1,10,2:0:0:0:
42,232,173303,5,2,2:0:0:0:
101,193,173486,2,0,P|110:121|104:85,1,85,2|2,3:2|2:0,2:0:0:0:
79,293,173852,5,10,2:0:0:0:
218,195,174034,1,2,2:0:0:0:
317,288,174217,6,2,P|378:301|426:318,1,85,2|0,3:2|2:0,2:1:0:0:
306,132,174583,2,2,P|245:119|197:102,1,85,10|0,2:0|2:0,2:1:0:0:
436,215,174949,5,2,3:2:0:0:
481,72,175132,1,2,2:0:0:0:
331,0,175315,1,10,2:0:0:0:
379,65,175498,5,10,2:0:0:0:
387,62,175589,1,2,2:0:0:0:
395,59,175681,1,2,3:2:0:0:
223,112,175864,1,2,2:0:0:0:
57,52,176047,5,10,2:1:0:0:
90,286,176230,1,2,2:0:0:0:
346,263,176413,6,0,P|354:209|256:161,1,152.999995330811,10|0,2:1|2:0,2:0:0:0:
232,200,176778,6,0,L|239:246,1,42.5,10|0,2:1|2:0,2:0:0:0:
