osu file format v14

[General]
AudioFilename: audio.mp3
AudioLeadIn: 0
PreviewTime: 83132
Countdown: 0
SampleSet: Soft
StackLeniency: 0.4
Mode: 0
LetterboxInBreaks: 0
WidescreenStoryboard: 0

[Editor]
Bookmarks: 750,8250,23250,38250,53250,68250,83250,98250,113250,128250,143250,158250,165750,173250,175125,190125,205125,220125
DistanceSpacing: 0.9
BeatDivisor: 4
GridSize: 8
TimelineZoom: 1.8

[Metadata]
Title:Chocolate Disco
TitleUnicode:チョコレイト・ディスコ
Artist:VESPERBELL
ArtistUnicode:VESPERBELL
Creator:newton-
Version:Bittersweet
Source:
Tags:mocaotic xidorn perfume japanese pop cover カスカ kasuka ヨミ yomi vtuber virtual youtuber jpop vtuber vsinger spring anime showdown hidden hd2
BeatmapID:2957016
BeatmapSetID:1437192

[Difficulty]
HPDrainRate:5
CircleSize:5
OverallDifficulty:8
ApproachRate:7
SliderMultiplier:1.8
SliderTickRate:1

[Events]
//Background and Video events
0,0,"yomichan cute.png",0,0
//Break Periods
//Storyboard Layer 0 (Background)
//Storyboard Layer 1 (Fail)
//Storyboard Layer 2 (Pass)
//Storyboard Layer 3 (Foreground)
//Storyboard Layer 4 (Overlay)
//Storyboard Sound Samples

[TimingPoints]
750,468.75,4,2,1,50,1,0
15867,-100,4,2,1,5,0,0
15925,-100,4,2,1,50,0,0
16101,-100,4,2,1,5,0,0
16159,-100,4,2,1,50,0,0
16335,-100,4,2,1,5,0,0
16393,-100,4,2,1,50,0,0
16570,-100,4,2,1,5,0,0
16628,-100,4,2,1,50,0,0
17742,-100,4,2,1,5,0,0
17800,-100,4,2,1,50,0,0
17976,-100,4,2,1,5,0,0
18034,-100,4,2,1,50,0,0
18210,-100,4,2,1,5,0,0
18268,-100,4,2,1,50,0,0
18445,-100,4,2,1,5,0,0
18503,-100,4,2,1,50,0,0
19617,-100,4,2,1,5,0,0
19675,-100,4,2,1,50,0,0
19851,-100,4,2,1,5,0,0
19909,-100,4,2,1,50,0,0
20085,-100,4,2,1,5,0,0
20143,-100,4,2,1,50,0,0
20320,-100,4,2,1,5,0,0
20378,-100,4,2,1,50,0,0
20554,-100,4,2,1,5,0,0
20612,-100,4,2,1,50,0,0
20789,-100,4,2,1,5,0,0
20847,-100,4,2,1,50,0,0
22781,-50,4,2,1,75,0,0
22957,-50,4,2,1,5,0,0
23015,-50,4,2,1,75,0,0
23250,-66.6666666666667,4,2,1,75,0,0
23425,-66.6666666666667,4,2,1,5,0,0
23484,-100,4,2,1,75,0,0
23601,-100,4,2,1,5,0,0
23660,-100,4,2,1,75,0,0
23835,-100,4,2,1,5,0,0
23894,-100,4,2,1,75,0,0
24070,-100,4,2,1,5,0,0
24129,-100,4,2,1,75,0,0
25242,-100,4,2,1,5,0,0
25301,-100,4,2,1,75,0,0
25476,-100,4,2,1,5,0,0
25535,-100,4,2,1,75,0,0
27000,-66.6666666666667,4,2,1,75,0,0
27175,-66.6666666666667,4,2,1,5,0,0
27234,-100,4,2,1,75,0,0
27351,-100,4,2,1,5,0,0
27410,-100,4,2,1,75,0,0
27585,-100,4,2,1,5,0,0
27644,-100,4,2,1,75,0,0
27820,-100,4,2,1,5,0,0
27879,-100,4,2,1,75,0,0
28992,-100,4,2,1,5,0,0
29051,-100,4,2,1,75,0,0
29226,-100,4,2,1,5,0,0
29285,-100,4,2,1,75,0,0
30750,-66.6666666666667,4,2,1,75,0,0
30925,-66.6666666666667,4,2,1,5,0,0
30984,-100,4,2,1,75,0,0
31101,-100,4,2,1,5,0,0
31160,-100,4,2,1,75,0,0
31335,-100,4,2,1,5,0,0
31394,-100,4,2,1,75,0,0
31570,-100,4,2,1,5,0,0
31629,-100,4,2,1,75,0,0
32742,-100,4,2,1,5,0,0
32801,-100,4,2,1,75,0,0
32976,-100,4,2,1,5,0,0
33035,-100,4,2,1,75,0,0
34500,-66.6666666666667,4,2,1,75,0,0
34675,-66.6666666666667,4,2,1,5,0,0
34734,-100,4,2,1,75,0,0
34851,-100,4,2,1,5,0,0
34910,-100,4,2,1,75,0,0
35085,-100,4,2,1,5,0,0
35144,-100,4,2,1,75,0,0
35320,-100,4,2,1,5,0,0
35379,-100,4,2,1,75,0,0
36492,-100,4,2,1,5,0,0
36551,-100,4,2,1,75,0,0
36726,-100,4,2,1,5,0,0
36785,-100,4,2,1,75,0,0
38250,-100,4,2,1,60,0,0
38367,-100,4,2,1,5,0,0
38426,-100,4,2,1,60,0,0
38601,-100,4,2,1,5,0,0
38660,-100,4,2,1,60,0,0
40242,-100,4,2,1,5,0,0
40301,-100,4,2,1,60,0,0
40476,-100,4,2,1,5,0,0
40535,-100,4,2,1,60,0,0
42117,-100,4,2,1,5,0,0
42176,-100,4,2,1,60,0,0
42351,-100,4,2,1,5,0,0
42410,-100,4,2,1,60,0,0
43992,-100,4,2,1,5,0,0
44051,-100,4,2,1,60,0,0
44226,-100,4,2,1,5,0,0
44285,-100,4,2,1,60,0,0
45867,-100,4,2,1,5,0,0
45926,-100,4,2,1,60,0,0
46101,-100,4,2,1,5,0,0
46160,-100,4,2,1,60,0,0
47625,-100,4,2,1,60,0,0
47742,-100,4,2,1,5,0,0
47801,-100,4,2,1,60,0,0
47859,-100,4,2,1,60,0,0
47976,-100,4,2,1,5,0,0
48035,-100,4,2,1,60,0,0
49500,-100,4,2,1,60,0,0
49617,-100,4,2,1,5,0,0
49676,-100,4,2,1,60,0,0
49734,-100,4,2,1,60,0,0
49851,-100,4,2,1,5,0,0
49910,-100,4,2,1,60,0,0
51375,-100,4,2,1,60,0,0
51609,-100,4,2,1,60,0,0
53250,-100,4,2,1,65,0,0
53367,-100,4,2,1,5,0,0
53425,-100,4,2,1,65,0,0
53601,-100,4,2,1,5,0,0
53659,-100,4,2,1,65,0,0
55242,-100,4,2,1,5,0,0
55300,-100,4,2,1,65,0,0
55476,-100,4,2,1,5,0,0
55534,-100,4,2,1,65,0,0
57117,-100,4,2,1,5,0,0
57175,-100,4,2,1,65,0,0
57351,-100,4,2,1,5,0,0
57409,-100,4,2,1,65,0,0
58757,-100,4,2,1,5,0,0
58815,-100,4,2,1,65,0,0
58992,-100,4,2,1,5,0,0
59050,-100,4,2,1,65,0,0
59226,-100,4,2,1,5,0,0
59284,-100,4,2,1,65,0,0
60867,-100,4,2,1,5,0,0
60925,-100,4,2,1,65,0,0
61101,-100,4,2,1,5,0,0
61159,-100,4,2,1,65,0,0
62742,-100,4,2,1,5,0,0
62800,-100,4,2,1,65,0,0
62976,-100,4,2,1,5,0,0
63034,-100,4,2,1,65,0,0
64617,-100,4,2,1,5,0,0
64675,-100,4,2,1,65,0,0
64851,-100,4,2,1,5,0,0
64909,-100,4,2,1,65,0,0
68250,-100,4,2,1,70,0,0
68367,-100,4,2,1,5,0,0
68425,-100,4,2,1,70,0,0
68601,-100,4,2,1,5,0,0
68659,-100,4,2,1,70,0,0
68835,-100,4,2,1,5,0,0
68893,-100,4,2,1,70,0,0
69070,-100,4,2,1,5,0,0
69128,-100,4,2,1,70,0,0
69421,-100,4,2,1,5,0,0
69479,-100,4,2,1,70,0,0
69773,-100,4,2,1,5,0,0
69831,-100,4,2,1,70,0,0
70007,-100,4,2,1,5,0,0
70065,-100,4,2,1,70,0,0
70710,-100,4,2,1,5,0,0
70768,-100,4,2,1,70,0,0
70945,-100,4,2,1,5,0,0
71003,-100,4,2,1,70,0,0
72117,-100,4,2,1,5,0,0
72175,-100,4,2,1,70,0,0
72351,-100,4,2,1,5,0,0
72409,-100,4,2,1,70,0,0
72585,-100,4,2,1,5,0,0
72643,-100,4,2,1,70,0,0
72820,-100,4,2,1,5,0,0
72878,-100,4,2,1,70,0,0
73171,-100,4,2,1,5,0,0
73229,-100,4,2,1,70,0,0
73523,-100,4,2,1,5,0,0
73581,-100,4,2,1,70,0,0
73757,-100,4,2,1,5,0,0
73815,-100,4,2,1,70,0,0
74460,-100,4,2,1,5,0,0
74518,-100,4,2,1,70,0,0
74695,-100,4,2,1,5,0,0
74753,-100,4,2,1,70,0,0
75867,-100,4,2,1,5,0,0
75925,-100,4,2,1,70,0,0
76101,-100,4,2,1,5,0,0
76159,-100,4,2,1,70,0,0
76335,-100,4,2,1,5,0,0
76393,-100,4,2,1,70,0,0
76570,-100,4,2,1,5,0,0
76628,-100,4,2,1,70,0,0
76921,-100,4,2,1,5,0,0
76979,-100,4,2,1,70,0,0
77273,-100,4,2,1,5,0,0
77331,-100,4,2,1,70,0,0
77507,-100,4,2,1,5,0,0
77565,-100,4,2,1,70,0,0
78210,-100,4,2,1,5,0,0
78268,-100,4,2,1,70,0,0
78445,-100,4,2,1,5,0,0
78503,-100,4,2,1,70,0,0
79617,-100,4,2,1,5,0,0
79675,-100,4,2,1,70,0,0
79851,-100,4,2,1,5,0,0
79909,-100,4,2,1,70,0,0
82546,-100,4,2,1,5,0,0
82604,-100,4,2,1,70,0,0
83132,-66.6666666666667,4,2,1,80,0,0
83425,-66.6666666666667,4,2,1,5,0,0
83484,-66.6666666666667,4,2,1,80,0,0
83601,-66.6666666666667,4,2,1,5,0,0
83660,-66.6666666666667,4,2,1,80,0,0
84304,-66.6666666666667,4,2,1,5,0,0
84363,-66.6666666666667,4,2,1,80,0,0
85300,-66.6666666666667,4,2,1,5,0,0
85359,-66.6666666666667,4,2,1,80,0,0
85476,-66.6666666666667,4,2,1,5,0,0
85535,-66.6666666666667,4,2,1,80,0,0
87175,-66.6666666666667,4,2,1,5,0,0
87234,-66.6666666666667,4,2,1,80,0,0
87351,-66.6666666666667,4,2,1,5,0,0
87410,-66.6666666666667,4,2,1,80,0,0
88054,-66.6666666666667,4,2,1,5,0,0
88113,-66.6666666666667,4,2,1,80,0,0
89050,-66.6666666666667,4,2,1,5,0,0
89109,-66.6666666666667,4,2,1,80,0,0
89226,-66.6666666666667,4,2,1,5,0,0
89285,-66.6666666666667,4,2,1,80,0,0
90925,-66.6666666666667,4,2,1,5,0,0
90984,-66.6666666666667,4,2,1,80,0,0
91101,-66.6666666666667,4,2,1,5,0,0
91160,-66.6666666666667,4,2,1,80,0,0
91804,-66.6666666666667,4,2,1,5,0,0
91863,-66.6666666666667,4,2,1,80,0,0
92800,-66.6666666666667,4,2,1,5,0,0
92859,-66.6666666666667,4,2,1,80,0,0
92976,-66.6666666666667,4,2,1,5,0,0
93035,-66.6666666666667,4,2,1,80,0,0
94675,-66.6666666666667,4,2,1,5,0,0
94734,-66.6666666666667,4,2,1,80,0,0
94851,-66.6666666666667,4,2,1,5,0,0
94910,-66.6666666666667,4,2,1,80,0,0
95554,-66.6666666666667,4,2,1,5,0,0
95613,-66.6666666666667,4,2,1,80,0,0
96492,-66.6666666666667,4,2,1,5,0,0
96551,-66.6666666666667,4,2,1,80,0,0
96726,-66.6666666666667,4,2,1,5,0,0
96785,-66.6666666666667,4,2,1,80,0,0
96960,-66.6666666666667,4,2,1,5,0,0
97019,-66.6666666666667,4,2,1,80,0,0
97781,-66.6666666666667,4,2,1,75,0,0
97957,-66.6666666666667,4,2,1,5,0,0
98015,-66.6666666666667,4,2,1,75,0,0
98425,-66.6666666666667,4,2,1,5,0,0
98484,-100,4,2,1,75,0,0
98601,-100,4,2,1,5,0,0
98660,-100,4,2,1,75,0,0
98835,-100,4,2,1,5,0,0
98894,-100,4,2,1,75,0,0
99070,-100,4,2,1,5,0,0
99129,-100,4,2,1,75,0,0
100242,-100,4,2,1,5,0,0
100301,-100,4,2,1,75,0,0
100476,-100,4,2,1,5,0,0
100535,-100,4,2,1,75,0,0
102000,-66.6666666666667,4,2,1,75,0,0
102175,-66.6666666666667,4,2,1,5,0,0
102234,-100,4,2,1,75,0,0
102351,-100,4,2,1,5,0,0
102410,-100,4,2,1,75,0,0
102585,-100,4,2,1,5,0,0
102644,-100,4,2,1,75,0,0
102820,-100,4,2,1,5,0,0
102879,-100,4,2,1,75,0,0
103992,-100,4,2,1,5,0,0
104051,-100,4,2,1,75,0,0
104226,-100,4,2,1,5,0,0
104285,-100,4,2,1,75,0,0
105750,-66.6666666666667,4,2,1,75,0,0
105925,-66.6666666666667,4,2,1,5,0,0
105984,-100,4,2,1,75,0,0
106101,-100,4,2,1,5,0,0
106160,-100,4,2,1,75,0,0
106335,-100,4,2,1,5,0,0
106394,-100,4,2,1,75,0,0
106570,-100,4,2,1,5,0,0
106629,-100,4,2,1,75,0,0
107742,-100,4,2,1,5,0,0
107801,-100,4,2,1,75,0,0
107976,-100,4,2,1,5,0,0
108035,-100,4,2,1,75,0,0
109500,-66.6666666666667,4,2,1,75,0,0
109675,-66.6666666666667,4,2,1,5,0,0
109734,-100,4,2,1,75,0,0
109851,-100,4,2,1,5,0,0
109910,-100,4,2,1,75,0,0
110085,-100,4,2,1,5,0,0
110144,-100,4,2,1,75,0,0
110320,-100,4,2,1,5,0,0
110379,-100,4,2,1,75,0,0
111492,-100,4,2,1,5,0,0
111551,-100,4,2,1,75,0,0
111726,-100,4,2,1,5,0,0
111785,-100,4,2,1,75,0,0
113250,-100,4,2,1,60,0,0
113367,-100,4,2,1,5,0,0
113426,-100,4,2,1,60,0,0
113601,-100,4,2,1,5,0,0
113660,-100,4,2,1,60,0,0
115242,-100,4,2,1,5,0,0
115301,-100,4,2,1,60,0,0
115476,-100,4,2,1,5,0,0
115535,-100,4,2,1,60,0,0
117117,-100,4,2,1,5,0,0
117176,-100,4,2,1,60,0,0
117351,-100,4,2,1,5,0,0
117410,-100,4,2,1,60,0,0
118992,-100,4,2,1,5,0,0
119051,-100,4,2,1,60,0,0
119226,-100,4,2,1,5,0,0
119285,-100,4,2,1,60,0,0
120867,-100,4,2,1,5,0,0
120926,-100,4,2,1,60,0,0
121101,-100,4,2,1,5,0,0
121160,-100,4,2,1,60,0,0
122742,-100,4,2,1,5,0,0
122801,-100,4,2,1,60,0,0
122976,-100,4,2,1,5,0,0
123035,-100,4,2,1,60,0,0
124617,-100,4,2,1,5,0,0
124676,-100,4,2,1,60,0,0
124851,-100,4,2,1,5,0,0
124910,-100,4,2,1,60,0,0
128250,-100,4,2,1,70,0,0
128426,-100,4,2,1,5,0,0
128484,-100,4,2,1,70,0,0
128660,-100,4,2,1,5,0,0
128718,-100,4,2,1,70,0,0
128895,-100,4,2,1,5,0,0
128953,-100,4,2,1,70,0,0
129246,-100,4,2,1,5,0,0
129304,-100,4,2,1,70,0,0
129598,-100,4,2,1,5,0,0
129656,-100,4,2,1,70,0,0
129832,-100,4,2,1,5,0,0
129890,-100,4,2,1,70,0,0
130535,-100,4,2,1,5,0,0
130593,-100,4,2,1,70,0,0
130770,-100,4,2,1,5,0,0
130828,-100,4,2,1,70,0,0
131942,-100,4,2,1,5,0,0
132000,-100,4,2,1,70,0,0
132176,-100,4,2,1,5,0,0
132234,-100,4,2,1,70,0,0
132410,-100,4,2,1,5,0,0
132468,-100,4,2,1,70,0,0
132645,-100,4,2,1,5,0,0
132703,-100,4,2,1,70,0,0
132996,-100,4,2,1,5,0,0
133054,-100,4,2,1,70,0,0
133348,-100,4,2,1,5,0,0
133406,-100,4,2,1,70,0,0
133582,-100,4,2,1,5,0,0
133640,-100,4,2,1,70,0,0
134285,-100,4,2,1,5,0,0
134343,-100,4,2,1,70,0,0
134520,-100,4,2,1,5,0,0
134578,-100,4,2,1,70,0,0
135692,-100,4,2,1,5,0,0
135750,-100,4,2,1,70,0,0
135926,-100,4,2,1,5,0,0
135984,-100,4,2,1,70,0,0
136160,-100,4,2,1,5,0,0
136218,-100,4,2,1,70,0,0
136395,-100,4,2,1,5,0,0
136453,-100,4,2,1,70,0,0
136746,-100,4,2,1,5,0,0
136804,-100,4,2,1,70,0,0
137098,-100,4,2,1,5,0,0
137156,-100,4,2,1,70,0,0
137332,-100,4,2,1,5,0,0
137390,-100,4,2,1,70,0,0
138035,-100,4,2,1,5,0,0
138093,-100,4,2,1,70,0,0
138270,-100,4,2,1,5,0,0
138328,-100,4,2,1,70,0,0
139442,-100,4,2,1,5,0,0
139500,-100,4,2,1,70,0,0
139676,-100,4,2,1,5,0,0
139734,-100,4,2,1,70,0,0
142371,-100,4,2,1,5,0,0
142429,-100,4,2,1,70,0,0
143132,-100,4,2,1,80,0,0
143250,-66.6666666666667,4,2,1,80,0,0
143425,-66.6666666666667,4,2,1,5,0,0
143484,-66.6666666666667,4,2,1,80,0,0
143601,-66.6666666666667,4,2,1,5,0,0
143660,-66.6666666666667,4,2,1,80,0,0
144304,-66.6666666666667,4,2,1,5,0,0
144363,-66.6666666666667,4,2,1,80,0,0
145300,-66.6666666666667,4,2,1,5,0,0
145359,-66.6666666666667,4,2,1,80,0,0
145476,-66.6666666666667,4,2,1,5,0,0
145535,-66.6666666666667,4,2,1,80,0,0
147175,-66.6666666666667,4,2,1,5,0,0
147234,-66.6666666666667,4,2,1,80,0,0
147351,-66.6666666666667,4,2,1,5,0,0
147410,-66.6666666666667,4,2,1,80,0,0
148054,-66.6666666666667,4,2,1,5,0,0
148113,-66.6666666666667,4,2,1,80,0,0
149050,-66.6666666666667,4,2,1,5,0,0
149109,-66.6666666666667,4,2,1,80,0,0
149226,-66.6666666666667,4,2,1,5,0,0
149285,-66.6666666666667,4,2,1,80,0,0
150925,-66.6666666666667,4,2,1,5,0,0
150984,-66.6666666666667,4,2,1,80,0,0
151101,-66.6666666666667,4,2,1,5,0,0
151160,-66.6666666666667,4,2,1,80,0,0
151804,-66.6666666666667,4,2,1,5,0,0
151863,-66.6666666666667,4,2,1,80,0,0
152800,-66.6666666666667,4,2,1,5,0,0
152859,-66.6666666666667,4,2,1,80,0,0
152976,-66.6666666666667,4,2,1,5,0,0
153035,-66.6666666666667,4,2,1,80,0,0
154675,-66.6666666666667,4,2,1,5,0,0
154734,-66.6666666666667,4,2,1,80,0,0
154851,-66.6666666666667,4,2,1,5,0,0
154910,-66.6666666666667,4,2,1,80,0,0
155554,-66.6666666666667,4,2,1,5,0,0
155613,-66.6666666666667,4,2,1,80,0,0
156492,-66.6666666666667,4,2,1,5,0,0
156551,-66.6666666666667,4,2,1,80,0,0
156726,-66.6666666666667,4,2,1,5,0,0
156785,-66.6666666666667,4,2,1,80,0,0
156960,-66.6666666666667,4,2,1,5,0,0
157019,-66.6666666666667,4,2,1,50,0,0
165750,-100,4,2,1,50,0,0
169148,-100,4,2,1,5,0,0
169207,-100,4,2,1,50,0,0
171375,-200,4,2,1,50,0,0
175125,-66.6666666666667,4,2,1,80,0,0
175300,-66.6666666666667,4,2,1,5,0,0
175359,-66.6666666666667,4,2,1,80,0,0
175476,-66.6666666666667,4,2,1,5,0,0
175535,-66.6666666666667,4,2,1,80,0,0
176179,-66.6666666666667,4,2,1,5,0,0
176238,-66.6666666666667,4,2,1,80,0,0
176414,-66.6666666666667,4,2,1,5,0,0
176473,-66.6666666666667,4,2,1,80,0,0
177175,-66.6666666666667,4,2,1,5,0,0
177234,-66.6666666666667,4,2,1,80,0,0
177351,-66.6666666666667,4,2,1,5,0,0
177410,-66.6666666666667,4,2,1,80,0,0
177585,-66.6666666666667,4,2,1,5,0,0
177644,-66.6666666666667,4,2,1,80,0,0
179050,-66.6666666666667,4,2,1,5,0,0
179109,-66.6666666666667,4,2,1,80,0,0
179226,-66.6666666666667,4,2,1,5,0,0
179285,-66.6666666666667,4,2,1,80,0,0
179929,-66.6666666666667,4,2,1,5,0,0
179988,-66.6666666666667,4,2,1,80,0,0
180164,-66.6666666666667,4,2,1,5,0,0
180223,-66.6666666666667,4,2,1,80,0,0
180925,-66.6666666666667,4,2,1,5,0,0
180984,-66.6666666666667,4,2,1,80,0,0
181101,-66.6666666666667,4,2,1,5,0,0
181160,-66.6666666666667,4,2,1,80,0,0
181335,-66.6666666666667,4,2,1,5,0,0
181394,-66.6666666666667,4,2,1,80,0,0
182800,-66.6666666666667,4,2,1,5,0,0
182859,-66.6666666666667,4,2,1,80,0,0
182976,-66.6666666666667,4,2,1,5,0,0
183035,-66.6666666666667,4,2,1,80,0,0
183679,-66.6666666666667,4,2,1,5,0,0
183738,-66.6666666666667,4,2,1,80,0,0
183914,-66.6666666666667,4,2,1,5,0,0
183973,-66.6666666666667,4,2,1,80,0,0
184675,-66.6666666666667,4,2,1,5,0,0
184734,-66.6666666666667,4,2,1,80,0,0
184851,-66.6666666666667,4,2,1,5,0,0
184910,-66.6666666666667,4,2,1,80,0,0
185085,-66.6666666666667,4,2,1,5,0,0
185144,-66.6666666666667,4,2,1,80,0,0
186550,-66.6666666666667,4,2,1,5,0,0
186609,-66.6666666666667,4,2,1,80,0,0
186726,-66.6666666666667,4,2,1,5,0,0
186785,-66.6666666666667,4,2,1,80,0,0
187429,-66.6666666666667,4,2,1,5,0,0
187488,-66.6666666666667,4,2,1,80,0,0
187664,-66.6666666666667,4,2,1,5,0,0
187723,-66.6666666666667,4,2,1,80,0,0
188425,-66.6666666666667,4,2,1,5,0,0
188484,-66.6666666666667,4,2,1,80,0,0
188601,-66.6666666666667,4,2,1,5,0,0
188660,-66.6666666666667,4,2,1,80,0,0
188835,-66.6666666666667,4,2,1,5,0,0
188894,-66.6666666666667,4,2,1,80,0,0
190242,-66.6666666666667,4,2,1,5,0,0
190301,-66.6666666666667,4,2,1,80,0,0
190769,-66.6666666666667,4,2,1,5,0,0
190828,-66.6666666666667,4,2,1,80,0,0
191003,-66.6666666666667,4,2,1,5,0,0
191062,-66.6666666666667,4,2,1,80,0,0
191707,-66.6666666666667,4,2,1,5,0,0
191766,-66.6666666666667,4,2,1,80,0,0
191941,-66.6666666666667,4,2,1,5,0,0
192000,-66.6666666666667,4,2,1,80,0,0
192117,-66.6666666666667,4,2,1,5,0,0
192176,-66.6666666666667,4,2,1,80,0,0
192644,-66.6666666666667,4,2,1,5,0,0
192703,-66.6666666666667,4,2,1,80,0,0
192878,-66.6666666666667,4,2,1,5,0,0
192937,-66.6666666666667,4,2,1,80,0,0
193582,-66.6666666666667,4,2,1,5,0,0
193641,-66.6666666666667,4,2,1,80,0,0
193816,-66.6666666666667,4,2,1,5,0,0
193875,-66.6666666666667,4,2,1,80,0,0
193992,-66.6666666666667,4,2,1,5,0,0
194051,-66.6666666666667,4,2,1,80,0,0
194519,-66.6666666666667,4,2,1,5,0,0
194578,-66.6666666666667,4,2,1,80,0,0
194753,-66.6666666666667,4,2,1,5,0,0
194812,-66.6666666666667,4,2,1,80,0,0
195457,-66.6666666666667,4,2,1,5,0,0
195516,-66.6666666666667,4,2,1,80,0,0
195691,-66.6666666666667,4,2,1,5,0,0
195750,-66.6666666666667,4,2,1,80,0,0
195867,-66.6666666666667,4,2,1,5,0,0
195926,-66.6666666666667,4,2,1,80,0,0
196394,-66.6666666666667,4,2,1,5,0,0
196453,-66.6666666666667,4,2,1,80,0,0
196628,-66.6666666666667,4,2,1,5,0,0
196687,-66.6666666666667,4,2,1,80,0,0
197332,-66.6666666666667,4,2,1,5,0,0
197391,-66.6666666666667,4,2,1,80,0,0
197566,-66.6666666666667,4,2,1,5,0,0
197625,-66.6666666666667,4,2,1,80,0,0
197742,-66.6666666666667,4,2,1,5,0,0
197801,-66.6666666666667,4,2,1,80,0,0
198269,-66.6666666666667,4,2,1,5,0,0
198328,-66.6666666666667,4,2,1,80,0,0
198503,-66.6666666666667,4,2,1,5,0,0
198562,-66.6666666666667,4,2,1,80,0,0
199207,-66.6666666666667,4,2,1,5,0,0
199266,-66.6666666666667,4,2,1,80,0,0
199441,-66.6666666666667,4,2,1,5,0,0
199500,-66.6666666666667,4,2,1,80,0,0
199617,-66.6666666666667,4,2,1,5,0,0
199676,-66.6666666666667,4,2,1,80,0,0
200144,-66.6666666666667,4,2,1,5,0,0
200203,-66.6666666666667,4,2,1,80,0,0
200378,-66.6666666666667,4,2,1,5,0,0
200437,-66.6666666666667,4,2,1,80,0,0
201082,-66.6666666666667,4,2,1,5,0,0
201141,-66.6666666666667,4,2,1,80,0,0
201316,-66.6666666666667,4,2,1,5,0,0
201375,-66.6666666666667,4,2,1,80,0,0
201492,-66.6666666666667,4,2,1,5,0,0
201551,-66.6666666666667,4,2,1,80,0,0
202019,-66.6666666666667,4,2,1,5,0,0
202078,-66.6666666666667,4,2,1,80,0,0
202253,-66.6666666666667,4,2,1,5,0,0
202312,-66.6666666666667,4,2,1,80,0,0
202957,-66.6666666666667,4,2,1,5,0,0
203016,-66.6666666666667,4,2,1,80,0,0
203132,-66.6666666666667,4,2,1,5,0,0
203191,-66.6666666666667,4,2,1,80,0,0
203250,-66.6666666666667,4,2,1,80,0,0
203953,-66.6666666666667,4,2,1,80,0,0
204188,-66.6666666666667,4,2,1,80,0,0
204832,-66.6666666666667,4,2,1,5,0,0
204891,-66.6666666666667,4,2,1,80,0,0
204949,-66.6666666666667,4,2,1,80,0,0
205125,-66.6666666666667,4,2,1,80,0,0
205359,-100,4,2,1,80,0,0
205476,-100,4,2,1,5,0,0
205535,-100,4,2,1,75,0,0
205710,-100,4,2,1,5,0,0
205769,-100,4,2,1,75,0,0
205945,-100,4,2,1,5,0,0
206004,-100,4,2,1,75,0,0
207117,-100,4,2,1,5,0,0
207176,-100,4,2,1,75,0,0
207351,-100,4,2,1,5,0,0
207410,-100,4,2,1,75,0,0
208875,-66.6666666666667,4,2,1,75,0,0
209050,-66.6666666666667,4,2,1,5,0,0
209109,-100,4,2,1,75,0,0
209226,-100,4,2,1,5,0,0
209285,-100,4,2,1,75,0,0
209460,-100,4,2,1,5,0,0
209519,-100,4,2,1,75,0,0
209695,-100,4,2,1,5,0,0
209754,-100,4,2,1,75,0,0
210867,-100,4,2,1,5,0,0
210926,-100,4,2,1,75,0,0
211101,-100,4,2,1,5,0,0
211160,-100,4,2,1,75,0,0
212625,-66.6666666666667,4,2,1,75,0,0
212800,-66.6666666666667,4,2,1,5,0,0
212859,-100,4,2,1,75,0,0
212976,-100,4,2,1,5,0,0
213035,-100,4,2,1,75,0,0
213210,-100,4,2,1,5,0,0
213269,-100,4,2,1,75,0,0
213445,-100,4,2,1,5,0,0
213504,-100,4,2,1,75,0,0
214617,-100,4,2,1,5,0,0
214676,-100,4,2,1,75,0,0
214851,-100,4,2,1,5,0,0
214910,-100,4,2,1,75,0,0
216375,-66.6666666666667,4,2,1,75,0,0
216550,-66.6666666666667,4,2,1,5,0,0
216609,-100,4,2,1,75,0,0
216726,-100,4,2,1,5,0,0
216785,-100,4,2,1,75,0,0
216960,-100,4,2,1,5,0,0
217019,-100,4,2,1,75,0,0
217195,-100,4,2,1,5,0,0
217254,-100,4,2,1,75,0,0
218367,-100,4,2,1,5,0,0
218426,-100,4,2,1,75,0,0
218601,-100,4,2,1,5,0,0
218660,-100,4,2,1,75,0,0
220125,-66.6666666666667,4,2,1,75,0,0
220359,-100,4,2,1,75,0,0

[Colours]
Combo1 : 255,151,47
Combo2 : 128,128,255
Combo3 : 128,128,192
Combo4 : 255,168,81

[HitObjects]
170,71,8250,37,2,3:2:0:0:
159,144,8484,1,2,0:0:0:0:
170,71,8718,1,2,0:0:0:0:
159,144,8952,1,2,0:0:0:0:
170,71,9187,1,2,0:0:0:0:
159,144,9421,1,2,0:0:0:0:
148,217,9656,1,2,0:0:0:0:
353,144,10125,21,2,0:0:0:0:
342,71,10359,1,2,0:0:0:0:
353,144,10593,1,2,0:0:0:0:
342,71,10827,1,2,0:0:0:0:
364,217,11062,1,2,0:0:0:0:
353,144,11297,1,2,0:0:0:0:
342,71,11531,1,2,0:0:0:0:
86,133,12000,37,2,0:0:0:0:
159,144,12234,1,2,0:0:0:0:
86,133,12468,1,2,0:0:0:0:
159,144,12702,1,2,0:0:0:0:
86,133,12937,1,2,0:0:0:0:
159,144,13171,1,2,0:0:0:0:
148,217,13406,1,2,0:0:0:0:
353,144,13875,21,2,0:0:0:0:
426,133,14109,1,2,0:0:0:0:
353,144,14343,1,2,0:0:0:0:
426,133,14577,1,2,0:0:0:0:
364,217,14812,1,2,0:0:0:0:
353,144,15047,1,2,0:0:0:0:
426,133,15281,1,2,0:0:0:0:
353,144,15750,6,0,L|308:136,1,45,2|0,3:2|0:0,0:0:0:0:
288,150,15984,2,0,L|224:138,1,45,2|0,0:0|0:0,0:0:0:0:
251,64,16218,2,0,L|206:71,1,45,2|0,3:2|0:0,0:0:0:0:
186,58,16452,2,0,L|122:69,1,45,2|0,0:0|0:0,0:0:0:0:
73,100,16687,2,0,L|65:55,2,45,2|0|2,3:2|0:0|0:0,0:0:0:0:
65,55,17156,2,0,L|80:143,1,90,2|0,3:2|0:0,0:0:0:0:
196,203,17625,22,0,P|187:224|184:246,1,45,2|0,3:2|0:0,0:0:0:0:
209,268,17859,2,0,P|212:290|220:311,1,45,2|0,0:0|0:0,0:0:0:0:
316,356,18093,2,0,P|324:334|327:312,1,45,2|0,3:2|0:0,0:0:0:0:
302,291,18327,2,0,P|298:268|290:247,1,45,2|0,0:0|0:0,0:0:0:0:
365,160,18562,2,0,P|357:180|353:203,2,45,2|0|2,3:2|0:0|0:0,0:0:0:0:
353,203,19031,2,0,P|364:159|390:123,1,90,2|0,3:2|0:0,0:0:0:0:
390,123,19382,1,0,3:2:0:0:
337,35,19500,22,0,B|327:56|327:56|328:77,1,45,2|0,3:2|0:0,0:0:0:0:
310,105,19734,2,0,B|320:84|320:84|318:62,1,45,2|0,0:0|0:0,0:0:0:0:
252,24,19968,2,0,B|242:45|242:45|243:66,1,45,2|0,3:2|0:0,0:0:0:0:
220,123,20202,2,0,B|230:102|230:102|228:80,1,45,2|0,0:0|0:0,0:0:0:0:
149,6,20437,6,0,L|156:50,1,45,2|0,3:2|0:0,0:0:0:0:
87,141,20671,2,0,L|94:96,1,45,2|0,0:0|0:0,0:0:0:0:
70,28,20906,1,2,3:2:0:0:
72,42,21023,1,2,0:0:0:0:
75,57,21140,1,2,0:0:0:0:
77,72,21257,1,2,0:0:0:0:
15,116,21375,5,2,3:2:0:0:
15,116,22781,6,0,P|93:127|110:181,1,135,10|0,0:0|0:0,0:0:0:0:
118,199,23015,2,0,P|141:235|184:233,1,90,2|0,3:2|0:0,0:0:0:0:
277,126,23250,6,0,L|259:225,1,101.250003862381,6|0,3:2|0:0,0:0:0:0:
290,247,23484,6,0,L|280:193,1,45,2|0,0:0|0:0,0:0:0:0:
301,322,23718,2,0,L|260:357,1,45,10|0,0:0|0:0,0:0:0:0:
362,274,23953,2,0,L|413:293,1,45,2|0,0:0|0:0,0:0:0:0:
282,202,24187,37,2,3:2:0:0:
290,247,24304,1,2,0:0:0:0:
266,351,24539,5,2,0:0:0:0:
300,322,24656,1,10,0:0:0:0:
405,289,24890,37,2,0:0:0:0:
362,274,25007,1,2,0:0:0:0:
362,274,25125,2,0,B|360:252|360:252|370:231,1,45,2|0,3:2|0:0,0:0:0:0:
453,187,25359,2,0,B|454:208|454:208|444:229,1,45,2|0,0:0|0:0,0:0:0:0:
388,120,25593,6,0,L|476:104,1,90,8|2,0:0|0:0,0:0:0:0:
476,104,25945,1,2,0:0:0:0:
476,104,26062,1,2,3:2:0:0:
476,104,26179,1,2,0:0:0:0:
337,27,26414,37,2,0:0:0:0:
329,71,26531,1,10,0:0:0:0:
266,111,26765,5,2,0:0:0:0:
266,111,26882,1,2,0:0:0:0:
272,154,27000,6,0,B|214:147|237:182|175:176,1,101.250003862381,2|0,3:2|0:0,0:0:0:0:
154,160,27234,6,0,P|152:137|162:117,1,45,2|0,0:0|0:0,0:0:0:0:
49,158,27468,2,0,P|68:168|81:186,1,45,10|0,0:0|0:0,0:0:0:0:
103,68,27703,2,0,P|84:80|62:82,1,45,2|0,0:0|0:0,0:0:0:0:
162,117,27937,37,2,3:2:0:0:
154,160,28054,1,2,0:0:0:0:
81,186,28289,5,2,0:0:0:0:
49,158,28406,1,10,0:0:0:0:
62,82,28640,37,2,0:0:0:0:
103,68,28757,1,2,0:0:0:0:
103,68,28875,2,0,P|115:49|117:27,1,45,2|0,3:2|0:0,0:0:0:0:
49,158,29109,2,0,P|50:180|63:198,1,45,2|0,0:0|0:0,0:0:0:0:
182,248,29343,2,0,P|138:242|102:274,1,90,8|2,0:0|0:0,0:0:0:0:
104,269,29695,1,2,0:0:0:0:
104,269,29812,1,2,3:2:0:0:
104,269,29929,1,2,0:0:0:0:
250,284,30164,5,2,0:0:0:0:
258,240,30281,1,10,0:0:0:0:
305,141,30515,5,2,0:0:0:0:
305,141,30632,1,2,0:0:0:0:
313,185,30750,2,0,B|343:195|343:195|411:167,1,101.250003862381,2|0,3:2|0:0,0:0:0:0:
433,158,30984,6,0,L|423:104,1,45,2|0,0:0|0:0,0:0:0:0:
512,34,31218,2,0,L|471:69,1,45,10|0,0:0|0:0,0:0:0:0:
366,28,31453,2,0,L|417:46,1,45,2|0,0:0|0:0,0:0:0:0:
424,113,31687,37,2,3:2:0:0:
433,158,31804,1,2,0:0:0:0:
477,63,32039,5,2,0:0:0:0:
512,34,32156,1,10,0:0:0:0:
408,43,32390,37,2,0:0:0:0:
366,28,32507,1,2,0:0:0:0:
366,28,32625,2,0,L|312:38,1,45,2|0,3:2|0:0,0:0:0:0:
258,74,32859,2,0,L|213:65,1,45,2|0,0:0|0:0,0:0:0:0:
111,45,33093,6,0,B|142:79|142:79|124:128,1,90,8|2,0:0|0:0,0:0:0:0:
126,120,33445,1,2,0:0:0:0:
126,120,33562,1,2,3:2:0:0:
126,120,33679,1,2,0:0:0:0:
12,105,33914,37,2,0:0:0:0:
56,96,34031,1,10,0:0:0:0:
148,205,34265,21,2,0:0:0:0:
148,205,34382,1,2,0:0:0:0:
103,196,34500,2,0,P|59:230|68:291,1,101.250003862381,2|0,3:2|0:0,0:0:0:0:
74,294,34734,6,0,P|99:299|114:311,1,45,2|0,0:0|0:0,0:0:0:0:
156,380,34968,2,0,P|174:360|191:354,1,45,10|0,0:0|0:0,0:0:0:0:
271,351,35203,2,0,P|263:325|266:307,1,45,2|0,0:0|0:0,0:0:0:0:
113,311,35437,37,2,3:2:0:0:
74,294,35554,1,2,0:0:0:0:
191,354,35788,5,2,0:0:0:0:
156,379,35905,1,10,0:0:0:0:
266,307,36140,37,2,0:0:0:0:
270,350,36257,1,2,0:0:0:0:
326,268,36375,1,2,3:2:0:0:
326,268,36843,1,2,3:2:0:0:
326,268,37312,1,2,3:2:0:0:
156,380,37781,5,8,0:0:0:0:
99,330,38015,1,0,3:2:0:0:
99,330,38132,1,0,3:2:0:0:
134,263,38250,6,0,L|142:218,1,45,4|0,3:2|0:0,0:0:0:0:
125,197,38484,2,0,L|133:152,1,45,2|0,0:0|0:0,0:0:0:0:
182,95,38718,1,10,0:0:0:0:
182,95,38835,1,2,0:0:0:0:
52,197,39070,5,2,0:0:0:0:
207,163,39304,1,2,0:0:0:0:
255,218,39539,1,2,0:0:0:0:
299,223,39656,1,10,0:0:0:0:
373,232,39890,1,2,0:0:0:0:
417,237,40007,1,2,0:0:0:0:
417,237,40125,38,0,L|408:192,1,45,2|0,0:0|0:0,0:0:0:0:
426,171,40359,2,0,L|417:126,1,45,2|0,0:0|0:0,0:0:0:0:
503,115,40593,2,0,L|414:99,1,90,10|2,0:0|0:0,0:0:0:0:
343,87,40945,1,2,0:0:0:0:
476,34,41179,1,2,0:0:0:0:
343,87,41414,1,2,0:0:0:0:
329,89,41531,1,10,0:0:0:0:
314,92,41648,1,2,0:0:0:0:
299,94,41765,1,2,0:0:0:0:
226,12,42000,6,0,L|234:57,1,45,2|0,0:3|0:0,0:0:0:0:
217,78,42234,2,0,L|225:123,1,45,2|0,0:0|0:0,0:0:0:0:
291,170,42468,1,10,0:0:0:0:
291,170,42585,1,2,0:0:0:0:
148,116,42820,37,2,0:0:0:0:
94,259,43054,1,2,0:0:0:0:
163,229,43289,1,2,0:0:0:0:
207,234,43406,1,10,0:0:0:0:
264,283,43640,1,2,0:0:0:0:
308,288,43757,1,2,0:0:0:0:
308,288,43875,6,0,L|299:243,1,45,2|0,0:0|0:0,0:0:0:0:
317,222,44109,2,0,L|308:177,1,45,2|0,0:0|0:0,0:0:0:0:
213,136,44343,2,0,L|302:152,1,90,10|2,0:0|0:0,0:0:0:0:
383,168,44695,1,2,0:0:0:0:
271,70,44929,1,2,0:0:0:0:
383,168,45164,1,2,0:0:0:0:
385,182,45281,1,10,0:0:0:0:
388,197,45398,1,2,0:0:0:0:
390,212,45515,1,2,0:0:0:0:
478,286,45750,38,0,L|433:278,1,45,2|0,0:3|0:0,0:0:0:0:
412,295,45984,2,0,L|367:287,1,45,2|0,0:0|0:0,0:0:0:0:
303,320,46218,1,10,0:0:0:0:
303,320,46335,1,2,0:0:0:0:
261,204,46570,5,2,0:0:0:0:
238,352,46804,1,2,0:0:0:0:
169,320,47039,1,2,0:0:0:0:
174,276,47156,1,10,0:0:0:0:
134,213,47390,1,2,0:0:0:0:
139,169,47507,1,2,0:0:0:0:
139,169,47625,38,0,L|94:161,1,45,2|0,0:0|0:0,0:0:0:0:
73,178,47859,2,0,L|28:170,1,45,2|0,0:0|0:0,0:0:0:0:
123,80,48093,2,0,L|139:169,1,90,10|2,0:0|0:0,0:0:0:0:
206,113,48445,1,2,0:0:0:0:
52,54,48679,1,2,0:0:0:0:
206,113,48914,1,2,0:0:0:0:
220,111,49031,1,10,0:0:0:0:
235,108,49148,1,2,0:0:0:0:
250,106,49265,1,2,0:0:0:0:
422,71,49500,6,0,L|377:79,1,45,2|0,0:3|0:0,0:0:0:0:
356,62,49734,2,0,L|311:70,1,45,2|0,0:0|0:0,0:0:0:0:
250,106,49968,1,10,0:0:0:0:
250,106,50085,1,2,0:0:0:0:
364,153,50320,37,2,0:0:0:0:
317,267,50554,1,2,0:0:0:0:
255,223,50789,1,2,0:0:0:0:
211,228,50906,1,10,0:0:0:0:
139,238,51140,1,2,0:0:0:0:
95,243,51257,1,2,0:0:0:0:
95,243,51375,5,2,0:0:0:0:
255,223,51609,1,2,0:0:0:0:
123,310,51843,2,0,L|212:326,1,90,10|2,0:0|0:0,0:0:0:0:
215,329,52195,1,2,0:0:0:0:
292,344,52429,1,2,0:0:0:0:
292,344,52546,1,2,0:0:0:0:
292,344,52664,1,2,0:0:0:0:
380,359,52898,2,0,L|291:343,1,90,2|0,0:0|0:0,0:0:0:0:
350,277,53250,6,0,P|359:256|357:234,1,45,2|0,3:2|0:0,0:0:0:0:
365,197,53484,2,0,P|348:181|327:176,1,45,2|0,0:0|0:0,0:0:0:0:
244,124,53718,2,0,B|296:130|275:98|331:104,1,90,10|2,3:2|0:0,0:0:0:0:
328,103,54187,5,2,3:2:0:0:
328,103,54304,1,2,0:0:0:0:
184,169,54539,1,2,0:0:0:0:
184,169,54656,2,0,P|144:148|99:150,1,90,10|2,3:2|0:2,0:2:0:0:
100,151,55125,38,0,P|109:171|107:193,1,45,2|0,3:2|0:0,0:0:0:0:
122,342,55359,2,0,P|112:321|114:299,1,45,2|0,0:0|0:0,0:0:0:0:
50,255,55593,2,0,P|89:275|134:273,1,90,10|2,3:2|0:0,0:0:0:0:
134,273,55945,5,2,0:0:0:0:
134,273,56062,1,2,3:2:0:0:
134,273,56179,1,2,0:0:0:0:
243,346,56414,1,2,0:0:0:0:
229,344,56531,1,10,3:2:0:0:
214,341,56648,1,2,0:0:0:0:
199,339,56765,1,2,0:0:0:0:
226,227,57000,38,0,P|223:249|233:269,1,45,2|0,3:2|0:0,0:0:0:0:
304,256,57234,2,0,P|306:233|296:213,1,45,2|0,0:0|0:0,0:0:0:0:
241,120,57468,2,0,B|294:114|273:146|325:140,1,90,10|2,3:2|0:0,0:0:0:0:
325,140,57937,5,2,3:2:0:0:
325,140,58054,1,2,0:0:0:0:
395,55,58289,1,2,0:0:0:0:
395,55,58406,1,10,3:2:0:0:
395,55,58640,2,0,P|385:75|387:97,1,45,2|0,0:0|0:0,0:0:0:0:
472,181,58875,38,0,P|459:162|439:153,1,45,2|0,3:2|0:0,0:0:0:0:
325,140,59109,2,0,P|347:138|365:125,1,45,2|0,0:0|0:0,0:0:0:0:
408,223,59343,2,0,P|387:262|389:307,1,90,10|2,3:2|0:0,0:0:0:0:
389,307,59695,5,2,0:0:0:0:
389,307,59812,1,2,3:2:0:0:
389,307,59929,1,2,0:0:0:0:
321,216,60164,1,2,0:0:0:0:
266,262,60281,1,10,3:2:0:0:
251,259,60398,1,2,0:0:0:0:
236,257,60515,1,2,0:0:0:0:
181,303,60750,38,0,P|171:323|173:345,1,45,2|0,3:2|3:2,3:2:0:0:
91,330,60984,2,0,P|100:309|98:287,1,45,2|0,0:0|0:0,0:0:0:0:
0,228,61218,2,0,P|44:229|84:209,1,90,10|2,3:2|0:0,0:0:0:0:
84,209,61687,5,2,3:2:0:0:
84,209,61804,1,2,0:0:0:0:
49,65,62039,1,2,0:0:0:0:
49,65,62156,2,0,B|55:117|23:96|29:152,1,90,10|2,3:2|0:0,0:0:0:0:
156,174,62625,38,0,P|176:164|198:166,1,45,2|0,3:2|3:2,3:2:0:0:
266,145,62859,2,0,P|245:154|223:152,1,45,2|0,0:0|0:0,0:0:0:0:
315,203,63093,2,0,P|294:242|296:287,1,90,10|2,3:2|0:0,0:0:0:0:
296,287,63445,5,2,0:0:0:0:
296,287,63562,1,2,3:2:0:0:
296,287,63679,1,2,0:0:0:0:
198,330,63914,1,2,0:0:0:0:
213,332,64031,1,10,3:2:0:0:
228,335,64148,1,2,0:0:0:0:
242,337,64265,1,2,0:0:0:0:
381,298,64500,38,0,P|390:318|388:340,1,45,2|0,3:2|0:0,0:0:0:0:
471,325,64734,2,0,P|461:304|463:282,1,45,2|0,0:0|0:0,0:0:0:0:
363,216,64968,2,0,P|407:219|447:200,1,90,10|2,3:2|0:0,0:0:0:0:
447,200,65437,5,2,3:2:0:0:
447,200,65554,1,2,0:0:0:0:
385,56,65789,1,2,0:0:0:0:
380,100,65906,1,10,3:2:0:0:
369,172,66140,1,2,0:0:0:0:
366,194,66257,1,2,0:0:0:0:
363,216,66375,37,2,3:2:0:0:
363,216,66843,1,2,3:2:0:0:
374,226,67312,1,2,3:2:0:0:
374,226,67546,1,0,0:0:0:0:
374,226,67781,1,8,0:0:0:0:
374,225,68015,1,2,3:2:0:0:
416,283,68250,22,0,L|407:327,1,45,6|0,3:2|0:0,0:0:0:0:
335,331,68484,2,0,L|326:375,1,45,2|0,0:0|0:0,0:0:0:0:
299,184,68718,2,0,L|290:228,1,45,10|0,3:2|0:0,0:0:0:0:
209,276,68953,2,0,L|218:232,1,45,2|0,0:0|0:0,0:0:0:0:
244,94,69187,5,2,3:2:0:0:
176,133,69304,2,0,B|166:154|166:154|168:176,1,45,2|0,0:0|0:0,0:0:0:0:
238,87,69539,1,2,0:0:0:0:
170,126,69656,2,0,B|160:147|160:147|162:169,1,45,10|0,3:2|0:0,0:0:0:0:
129,65,69890,2,0,B|139:44|139:44|137:22,1,45,2|0,0:0|0:0,0:0:0:0:
40,80,70125,38,0,L|129:64,1,90,2|2,3:2|0:0,0:0:0:0:
128,64,70476,1,2,0:0:0:0:
87,148,70593,2,0,L|78:192,1,45,10|0,3:2|0:0,0:0:0:0:
55,207,70827,2,0,L|46:251,1,45,2|0,0:0|0:0,0:0:0:0:
132,302,71062,1,2,3:2:0:0:
127,279,71179,1,2,0:0:0:0:
123,257,71296,1,2,0:0:0:0:
80,356,71531,1,8,3:2:0:0:
259,311,71765,1,2,0:0:0:0:
304,378,72000,6,0,L|348:369,1,45,2|0,3:2|0:0,0:0:0:0:
402,317,72234,2,0,L|446:308,1,45,2|0,0:0|0:0,0:0:0:0:
318,259,72468,2,0,L|362:250,1,45,10|0,3:2|0:0,0:0:0:0:
460,189,72702,2,0,L|416:198,1,45,2|0,0:0|0:0,0:0:0:0:
264,156,72937,37,2,3:2:0:0:
331,116,73054,2,0,B|353:114|353:114|374:124,1,45,2|0,0:0|0:0,0:0:0:0:
268,164,73289,1,2,0:0:0:0:
335,124,73406,2,0,B|357:122|357:122|378:132,1,45,10|0,3:2|0:0,0:0:0:0:
475,85,73640,2,0,B|453:87|453:87|432:77,1,45,2|0,0:0|0:0,0:0:0:0:
315,27,73875,6,0,L|331:116,1,90,2|2,3:2|0:0,0:0:0:0:
330,115,74226,1,2,0:0:0:0:
247,88,74343,2,0,L|202:79,1,45,10|0,3:2|0:0,0:0:0:0:
188,56,74577,2,0,L|143:47,1,45,2|0,0:0|0:0,0:0:0:0:
71,48,74812,1,2,3:2:0:0:
48,43,74929,1,2,0:0:0:0:
26,39,75046,1,2,0:0:0:0:
144,123,75281,1,8,3:2:0:0:
245,5,75515,1,2,0:0:0:0:
315,27,75750,6,0,P|337:29|357:19,1,45,2|0,3:2|0:0,0:0:0:0:
421,60,75984,2,0,P|443:58|464:68,1,45,2|0,0:0|0:0,0:0:0:0:
311,106,76218,2,0,P|333:108|353:98,1,45,10|0,3:2|0:0,0:0:0:0:
460,147,76452,2,0,P|439:137|417:139,1,45,2|0,0:0|0:0,0:0:0:0:
302,271,76687,5,2,3:2:0:0:
361,227,76804,2,0,P|362:204|352:184,1,45,2|0,0:0|0:0,0:0:0:0:
313,278,77039,1,2,0:0:0:0:
372,234,77156,2,0,P|373:211|363:191,1,45,10|0,3:2|0:0,0:0:0:0:
419,294,77390,2,0,P|417:316|427:336,1,45,2|0,0:0|0:0,0:0:0:0:
336,369,77625,38,0,P|297:348|252:350,1,90,2|2,3:2|0:0,0:0:0:0:
252,349,77976,1,2,0:0:0:0:
137,312,78093,2,0,P|158:321|180:319,1,45,10|0,3:2|0:0,0:0:0:0:
198,294,78328,2,0,P|216:280|225:260,1,45,2|0,0:0|0:0,0:0:0:0:
149,188,78562,1,2,3:2:0:0:
147,210,78679,1,2,0:0:0:0:
157,230,78796,1,2,0:0:0:0:
76,190,79031,1,10,3:2:0:0:
237,142,79265,1,2,0:0:0:0:
163,68,79500,6,0,P|154:89|156:111,1,45,2|0,3:2|0:0,0:0:0:0:
170,114,79734,2,0,P|179:93|177:71,1,45,2|0,0:0|0:0,0:0:0:0:
302,106,79968,2,0,B|354:100|333:132|389:126,1,90,10|2,3:2|0:0,0:0:0:0:
466,113,80320,1,2,0:0:0:0:
466,113,80437,1,2,3:2:0:0:
423,100,80671,1,2,0:0:0:0:
386,126,80906,1,10,3:2:0:0:
401,203,81140,37,2,0:0:0:0:
444,216,81257,1,2,0:0:0:0:
481,190,81375,2,0,P|482:212|473:232,3,45,2|2|2|2,3:2|0:0|0:0|0:0,0:0:0:0:
377,274,81843,2,0,P|358:286|336:289,3,45,10|2|2|2,0:0|0:0|3:2|3:2,0:0:0:0:
252,225,82312,1,2,3:2:0:0:
252,225,82429,2,0,P|231:215|218:197,1,45,0|0,3:2|0:3,0:3:0:0:
268,91,82664,5,0,3:2:0:0:
266,105,82781,1,2,3:2:0:0:
263,120,82898,1,0,3:2:0:0:
261,135,83015,1,0,3:2:0:0:
124,262,83250,6,0,B|141:214|141:214|107:177,1,101.250003862381,6|0,3:2|0:0,0:0:0:0:
107,96,83484,2,0,L|95:162,1,67.5000025749208,2|0,0:0|0:0,0:0:0:0:
95,162,83718,1,10,0:0:0:0:
56,38,83953,1,2,0:0:0:0:
56,38,84070,1,2,0:0:0:0:
107,96,84187,6,0,L|173:84,1,67.5000025749208,2|0,3:2|0:0,0:0:0:0:
182,60,84421,2,0,L|248:48,1,67.5000025749208,2|0,0:0|0:0,0:0:0:0:
248,48,84656,1,10,0:0:0:0:
248,48,84890,5,2,0:0:0:0:
248,48,85007,1,2,0:0:0:0:
314,103,85125,2,0,P|319:151|286:187,1,101.250003862381,2|0,3:2|0:0,0:0:0:0:
214,195,85359,2,0,P|243:176|278:182,1,67.5000025749208,2|0,0:0|0:0,0:0:0:0:
260,262,85593,2,0,P|208:220|143:228,1,135.000005149842,10|2,0:0|0:0,0:0:0:0:
143,228,85945,1,2,0:0:0:0:
143,228,86062,1,2,3:2:0:0:
143,228,86179,1,2,0:0:0:0:
143,228,86414,5,2,0:0:0:0:
114,305,86531,1,10,0:0:0:0:
116,319,86648,1,2,0:0:0:0:
119,334,86765,1,2,0:0:0:0:
121,349,86882,1,2,0:0:0:0:
98,369,87000,6,0,L|80:270,1,101.250003862381,2|0,3:2|0:0,0:0:0:0:
68,198,87234,2,0,B|56:229|56:229|76:256,1,67.5000025749208,2|0,0:0|0:0,0:0:0:0:
76,256,87468,1,10,0:0:0:0:
134,154,87703,1,2,0:0:0:0:
134,154,87820,1,2,0:0:0:0:
216,166,87937,6,0,L|204:100,1,67.5000025749208,2|0,3:2|0:0,0:0:0:0:
180,91,88171,2,0,L|168:25,1,67.5000025749208,2|0,0:0|0:0,0:0:0:0:
167,24,88406,1,10,0:0:0:0:
167,24,88640,5,2,0:0:0:0:
167,24,88757,1,2,0:0:0:0:
249,10,88875,2,0,P|284:43|333:39,1,101.250003862381,2|0,3:2|0:0,0:0:0:0:
410,65,89109,2,0,P|381:46|346:52,1,67.5000025749208,2|0,0:0|0:0,0:0:0:0:
351,192,89343,2,0,P|396:144|462:140,1,135.000005149842,10|2,0:0|0:0,0:0:0:0:
462,140,89694,1,2,0:0:0:0:
462,140,89812,1,2,3:2:0:0:
462,140,89929,1,2,0:0:0:0:
386,266,90164,5,2,0:0:0:0:
386,266,90281,1,10,0:0:0:0:
272,181,90515,5,2,0:0:0:0:
229,168,90632,1,2,0:0:0:0:
192,194,90750,2,0,B|155:228|155:228|107:211,1,101.250003862381,2|0,3:2|0:0,0:0:0:0:
80,272,90984,2,0,L|92:206,1,67.5000025749208,2|0,0:0|0:0,0:0:0:0:
92,205,91218,1,10,0:0:0:0:
18,318,91453,1,2,0:0:0:0:
18,318,91570,1,2,0:0:0:0:
62,373,91687,6,0,B|89:352|89:352|120:364,1,67.5000025749208,2|0,3:2|0:0,0:0:0:0:
147,361,91921,2,0,B|178:373|178:373|205:352,1,67.5000025749208,2|0,0:0|0:0,0:0:0:0:
205,352,92156,1,10,0:0:0:0:
205,352,92390,5,2,0:0:0:0:
205,352,92507,1,2,0:0:0:0:
274,315,92625,2,0,P|279:267|246:231,1,101.250003862381,2|0,3:2|0:0,0:0:0:0:
174,208,92859,2,0,P|203:227|238:221,1,67.5000025749208,2|0,0:0|0:0,0:0:0:0:
315,99,93093,2,0,P|275:85|218:156,1,135.000005149842,10|2,0:0|0:0,0:0:0:0:
217,144,93445,1,2,0:0:0:0:
217,144,93562,1,2,3:2:0:0:
217,144,93679,1,2,0:0:0:0:
217,144,93914,5,2,0:0:0:0:
140,136,94031,1,10,0:0:0:0:
126,138,94148,1,2,0:0:0:0:
111,141,94265,1,2,0:0:0:0:
96,143,94382,1,2,0:0:0:0:
77,122,94500,6,0,L|59:221,1,101.250003862381,2|0,3:2|0:0,0:0:0:0:
53,298,94734,2,0,L|65:232,1,67.5000025749208,2|0,0:0|0:0,0:0:0:0:
65,231,94968,1,10,0:0:0:0:
109,356,95203,1,2,0:0:0:0:
109,356,95320,1,2,0:0:0:0:
177,323,95437,6,0,L|243:335,1,67.5000025749208,2|0,3:2|0:0,0:0:0:0:
252,359,95671,2,0,L|318:371,1,67.5000025749208,2|0,0:0|0:0,0:0:0:0:
318,371,95906,1,10,0:0:0:0:
318,371,96140,5,2,0:0:0:0:
318,371,96257,1,2,0:0:0:0:
394,345,96375,2,0,P|413:316|407:281,1,67.5000025749208,2|0,3:2|0:0,0:0:0:0:
347,194,96609,2,0,P|344:161|363:134,1,67.5000025749208,2|0,0:0|0:0,0:0:0:0:
483,223,96843,2,0,P|456:205|423:208,1,67.5000025749208,10|0,0:0|0:0,0:0:0:0:
333,270,97078,5,2,0:0:0:0:
300,273,97195,1,2,0:0:0:0:
273,255,97312,1,2,3:2:0:0:
223,197,97546,1,0,0:0:0:0:
146,191,97781,1,10,0:0:0:0:
87,241,98015,1,2,3:2:0:0:
82,317,98250,6,0,L|64:218,1,101.250003862381,6|0,3:2|0:0,0:0:0:0:
95,196,98484,6,0,L|85:250,1,45,2|0,0:0|0:0,0:0:0:0:
36,143,98718,2,0,L|-5:108,1,45,10|0,0:0|0:0,0:0:0:0:
112,119,98953,2,0,L|163:100,1,45,2|0,0:0|0:0,0:0:0:0:
87,241,99187,37,2,3:2:0:0:
95,196,99304,1,2,0:0:0:0:
1,114,99539,5,2,0:0:0:0:
35,143,99656,1,10,0:0:0:0:
154,103,99890,37,2,0:0:0:0:
112,119,100007,1,2,0:0:0:0:
112,119,100125,6,0,L|103:74,1,45,2|0,3:2|0:0,0:0:0:0:
219,8,100359,2,0,L|210:52,1,45,2|0,0:0|0:0,0:0:0:0:
214,155,100593,2,0,B|248:124|248:124|297:142,1,90,8|2,0:0|0:0,0:0:0:0:
289,140,100945,1,2,0:0:0:0:
289,140,101062,1,2,3:2:0:0:
289,140,101179,1,2,0:0:0:0:
389,81,101414,37,2,0:0:0:0:
345,89,101531,1,10,0:0:0:0:
267,214,101765,1,2,0:0:0:0:
267,214,101882,1,2,0:0:0:0:
311,222,102000,22,0,P|355:256|346:317,1,101.250003862381,2|0,3:2|0:0,0:0:0:0:
340,320,102234,2,0,P|315:325|300:337,1,45,2|0,0:0|0:0,0:0:0:0:
226,277,102468,2,0,P|217:301|220:320,1,45,10|0,0:0|0:0,0:0:0:0:
131,354,102703,2,0,P|147:373|165:380,1,45,2|0,0:0|0:0,0:0:0:0:
300,336,102937,5,2,3:2:0:0:
339,320,103054,1,2,0:0:0:0:
220,320,103289,37,2,0:0:0:0:
226,277,103406,1,10,0:0:0:0:
165,380,103640,5,2,0:0:0:0:
131,354,103757,1,2,0:0:0:0:
131,354,103875,38,0,P|122:329|125:310,1,45,2|0,3:2|0:0,0:0:0:0:
38,257,104109,2,0,P|46:281|43:300,1,45,2|0,0:0|0:0,0:0:0:0:
129,238,104343,2,0,P|101:203|107:160,1,90,8|2,0:0|0:0,0:0:0:0:
107,160,104695,1,2,0:0:0:0:
107,160,104813,1,2,3:2:0:0:
107,160,104930,1,2,0:0:0:0:
15,137,105164,5,2,0:0:0:0:
23,181,105281,1,10,0:0:0:0:
89,45,105515,1,2,0:0:0:0:
81,89,105632,1,2,0:0:0:0:
81,89,105750,6,0,B|111:79|111:79|179:107,1,101.250003862381,2|0,3:2|0:0,0:0:0:0:
197,115,105984,6,0,L|188:70,1,45,2|0,0:0|0:0,0:0:0:0:
268,78,106218,2,0,L|302:48,1,45,10|0,0:0|0:0,0:0:0:0:
335,120,106453,2,0,L|377:135,1,45,2|0,0:0|0:0,0:0:0:0:
188,70,106687,37,2,3:2:0:0:
197,115,106804,1,2,0:0:0:0:
302,48,107039,5,2,0:0:0:0:
268,78,107156,1,10,0:0:0:0:
377,135,107390,37,2,0:0:0:0:
334,119,107507,1,2,0:0:0:0:
334,119,107625,6,0,B|324:140|324:140|326:162,1,45,2|0,3:2|0:0,0:0:0:0:
380,251,107859,2,0,B|390:230|390:230|388:208,1,45,2|0,0:0|0:0,0:0:0:0:
269,209,108093,2,0,L|181:193,1,90,8|2,0:0|0:0,0:0:0:0:
181,193,108445,1,2,0:0:0:0:
181,193,108562,1,2,3:2:0:0:
181,193,108679,1,2,0:0:0:0:
96,137,108914,37,2,0:0:0:0:
104,181,109031,1,10,0:0:0:0:
35,299,109265,5,2,0:0:0:0:
35,299,109382,1,2,0:0:0:0:
43,255,109500,6,0,B|103:249|80:284|138:277,1,101.250003862381,2|0,3:2|0:0,0:0:0:0:
148,285,109734,2,0,P|161:302|164:324,1,45,2|0,0:0|0:0,0:0:0:0:
231,280,109968,2,0,P|253:277|274:285,1,45,10|0,0:0|0:0,0:0:0:0:
268,205,110203,2,0,P|276:184|294:170,1,45,2|0,0:0|0:0,0:0:0:0:
164,324,110437,5,2,3:2:0:0:
148,285,110554,1,2,0:0:0:0:
274,285,110789,37,2,0:0:0:0:
231,280,110906,1,10,0:0:0:0:
294,170,111140,5,2,0:0:0:0:
268,205,111257,1,2,0:0:0:0:
258,106,111375,1,2,3:2:0:0:
258,106,111609,1,0,0:0:0:0:
258,106,111843,1,2,3:2:0:0:
258,106,112312,1,2,3:2:0:0:
258,106,112781,1,8,0:0:0:0:
148,285,113250,38,0,P|139:306|141:328,1,45,4|0,3:2|0:0,0:0:0:0:
212,339,113484,2,0,P|221:318|219:296,1,45,2|0,0:0|0:0,0:0:0:0:
263,202,113718,2,0,P|243:241|245:286,1,90,10|2,3:2|0:0,0:0:0:0:
291,344,114070,5,2,0:0:0:0:
148,285,114304,1,2,0:0:0:0:
172,212,114539,1,2,0:0:0:0:
167,168,114656,1,10,3:2:0:0:
97,149,114890,1,2,0:0:0:0:
92,105,115007,1,2,0:0:0:0:
92,105,115125,38,0,P|113:96|135:98,1,45,2|0,3:2|0:0,0:0:0:0:
155,78,115359,2,0,P|177:79|197:70,1,45,2|0,0:0|0:0,0:0:0:0:
299,50,115593,2,0,P|255:52|221:81,1,90,10|2,3:2|0:0,0:0:0:0:
283,122,115945,1,2,0:0:0:0:
165,5,116179,1,2,0:0:0:0:
283,122,116414,1,2,0:0:0:0:
285,136,116531,1,10,3:2:0:0:
288,151,116648,1,2,0:0:0:0:
290,166,116765,1,2,0:0:0:0:
322,190,116882,5,2,0:0:0:0:
322,190,117000,2,0,P|331:211|329:233,1,45,2|0,3:3|0:0,0:0:0:0:
264,262,117234,2,0,P|250:280|230:289,1,45,2|0,0:0|0:0,0:0:0:0:
195,358,117468,2,0,P|156:338|111:340,1,90,10|2,3:2|0:0,0:0:0:0:
40,358,117820,37,2,0:0:0:0:
159,261,118054,1,2,0:0:0:0:
109,204,118289,1,2,0:0:0:0:
117,160,118406,1,10,3:2:0:0:
168,105,118640,1,2,0:0:0:0:
176,61,118757,1,2,0:0:0:0:
176,61,118875,6,0,P|196:52|218:53,1,45,2|0,3:2|0:0,0:0:0:0:
243,66,119109,2,0,P|263:74|285:73,1,45,2|0,0:0|0:0,0:0:0:0:
328,2,119343,2,0,B|334:54|302:33|308:89,1,90,10|2,3:2|0:0,0:0:0:0:
354,145,119695,1,2,0:0:0:0:
480,97,119929,1,2,0:0:0:0:
354,145,120164,1,2,0:0:0:0:
352,159,120281,1,10,3:2:0:0:
349,174,120398,1,2,0:0:0:0:
347,189,120515,1,2,0:0:0:0:
315,213,120632,5,2,0:0:0:0:
315,213,120750,2,0,L|323:257,1,45,2|0,3:3|0:0,0:0:0:0:
340,324,120984,2,0,L|348:279,1,45,2|0,0:0|0:0,0:0:0:0:
246,249,121218,2,0,L|157:233,1,90,10|2,3:2|0:0,0:0:0:0:
86,221,121570,5,2,0:0:0:0:
245,168,121804,1,2,0:0:0:0:
190,118,122039,1,2,0:0:0:0:
198,74,122156,1,10,3:2:0:0:
267,52,122390,1,2,0:0:0:0:
275,8,122507,1,2,0:0:0:0:
275,8,122625,38,0,B|296:-2|296:-2|318:0,1,45,2|0,3:2|0:0,0:0:0:0:
340,16,122859,2,0,B|362:18|362:18|383:8,1,45,2|0,0:0|0:0,0:0:0:0:
471,103,123093,2,0,L|383:87,1,90,10|2,3:2|0:0,0:0:0:0:
325,134,123445,1,2,0:0:0:0:
454,27,123679,1,2,0:0:0:0:
325,134,123914,1,2,0:0:0:0:
311,136,124031,1,10,3:2:0:0:
296,139,124148,1,2,0:0:0:0:
281,141,124265,1,2,0:0:0:0:
247,126,124382,5,2,0:0:0:0:
247,126,124500,2,0,L|203:134,1,45,2|0,3:3|0:0,0:0:0:0:
136,151,124734,2,0,L|181:159,1,45,2|0,0:0|0:0,0:0:0:0:
282,226,124968,2,0,B|240:209|240:209|206:240,1,90,10|2,3:2|0:0,0:0:0:0:
134,225,125320,37,2,0:0:0:0:
255,294,125554,1,2,0:0:0:0:
328,285,125789,1,2,0:0:0:0:
372,290,125906,1,10,3:2:0:0:
446,299,126140,1,2,0:0:0:0:
490,304,126257,1,2,0:0:0:0:
490,304,126375,5,2,3:2:0:0:
446,299,126609,1,2,0:0:0:0:
372,290,126843,1,10,3:2:0:0:
328,285,127078,37,2,3:2:0:0:
333,241,127195,1,2,3:2:0:0:
338,197,127312,1,0,3:2:0:0:
339,189,127429,5,0,3:2:0:0:
328,285,127664,1,0,3:2:0:0:
339,189,127898,1,0,3:2:0:0:
328,285,128132,1,0,3:2:0:0:
262,252,128250,6,0,P|240:250|220:260,1,45,6|0,3:2|0:0,0:0:0:0:
153,219,128484,2,0,P|133:229|111:228,1,45,2|0,0:0|0:0,0:0:0:0:
266,173,128718,2,0,P|243:171|223:181,1,45,10|0,3:2|0:0,0:0:0:0:
114,148,128952,2,0,P|137:150|157:140,1,45,2|0,0:0|0:0,0:0:0:0:
273,10,129187,5,2,3:2:0:0:
216,57,129304,2,0,P|214:79|224:99,1,45,2|0,0:0|0:0,0:0:0:0:
267,6,129539,1,2,0:0:0:0:
210,53,129656,2,0,P|208:75|218:95,1,45,10|0,3:2|0:0,0:0:0:0:
353,66,129890,2,0,P|354:43|344:23,1,45,2|0,0:0|0:0,0:0:0:0:
430,3,130125,38,0,B|378:-3|399:29|343:23,1,90,2|2,3:2|0:0,0:0:0:0:
345,23,130476,1,2,0:0:0:0:
428,82,130593,2,0,P|426:104|436:124,1,45,10|0,3:2|0:0,0:0:0:0:
430,149,130828,2,0,P|409:158|397:176,1,45,2|0,0:0|0:0,0:0:0:0:
288,147,131062,1,2,3:2:0:0:
311,142,131179,1,2,0:0:0:0:
333,138,131296,1,2,0:0:0:0:
246,208,131531,1,8,3:2:0:0:
415,248,131765,1,2,0:0:0:0:
342,264,132000,6,0,P|320:266|300:256,1,45,2|0,3:2|0:0,0:0:0:0:
236,297,132234,2,0,P|214:295|193:305,1,45,2|0,0:0|0:0,0:0:0:0:
346,343,132468,2,0,P|324:345|304:335,1,45,10|0,3:2|0:0,0:0:0:0:
197,384,132702,2,0,P|218:374|240:376,1,45,2|0,0:0|0:0,0:0:0:0:
144,215,132937,37,2,3:2:0:0:
201,262,133054,2,0,P|203:284|193:304,1,45,2|0,0:0|0:0,0:0:0:0:
150,211,133289,1,2,0:0:0:0:
207,258,133406,2,0,P|209:280|199:300,1,45,10|0,3:2|0:0,0:0:0:0:
64,273,133640,2,0,P|62:251|72:231,1,45,2|0,0:0|0:0,0:0:0:0:
132,136,133875,6,0,P|93:157|48:155,1,90,2|2,3:2|0:0,0:0:0:0:
48,156,134226,1,2,0:0:0:0:
109,55,134343,2,0,P|130:46|152:48,1,45,10|0,3:2|0:0,0:0:0:0:
170,73,134578,2,0,P|188:87|197:107,1,45,2|0,0:0|0:0,0:0:0:0:
274,141,134812,1,2,3:2:0:0:
272,119,134929,1,2,0:0:0:0:
282,99,135046,1,2,0:0:0:0:
209,181,135281,1,8,3:2:0:0:
348,63,135515,1,2,0:0:0:0:
375,133,135750,6,0,B|373:155|373:155|383:176,1,45,2|0,3:2|0:0,0:0:0:0:
360,244,135984,2,0,B|370:265|370:265|368:287,1,45,2|0,0:0|0:0,0:0:0:0:
274,141,136218,2,0,B|272:163|272:163|282:184,1,45,10|0,3:2|0:0,0:0:0:0:
267,295,136452,2,0,B|269:273|269:273|259:252,1,45,2|0,0:0|0:0,0:0:0:0:
131,336,136687,5,2,3:2:0:0:
185,280,136804,2,0,L|176:235,1,45,2|0,0:0|0:0,0:0:0:0:
137,343,137039,1,2,0:0:0:0:
191,287,137156,2,0,L|182:242,1,45,10|0,3:2|0:0,0:0:0:0:
119,156,137390,2,0,L|110:201,1,45,2|0,0:0|0:0,0:0:0:0:
193,118,137625,38,0,L|104:134,1,90,2|2,3:2|0:0,0:0:0:0:
104,133,137976,1,2,0:0:0:0:
66,31,138093,2,0,L|57:76,1,45,10|0,3:2|0:0,0:0:0:0:
34,90,138327,2,0,L|25:135,1,45,2|0,0:0|0:0,0:0:0:0:
138,55,138562,1,2,3:2:0:0:
161,50,138679,1,2,0:0:0:0:
183,46,138796,1,2,0:0:0:0:
66,31,139031,1,10,3:2:0:0:
255,70,139265,1,2,0:0:0:0:
316,5,139500,6,0,B|314:27|314:27|324:48,1,45,2|0,3:2|0:0,0:0:0:0:
348,45,139734,2,0,B|350:23|350:23|340:2,1,45,2|0,0:0|0:0,0:0:0:0:
414,91,139968,2,0,L|398:180,1,90,10|2,3:2|0:0,0:0:0:0:
386,260,140320,1,2,0:0:0:0:
386,260,140437,1,2,3:2:0:0:
412,223,140672,1,2,0:0:0:0:
399,180,140906,1,10,3:2:0:0:
312,163,141140,37,2,0:0:0:0:
286,200,141257,1,2,0:0:0:0:
299,243,141375,2,0,L|254:234,3,45,2|2|2|2,3:2|0:0|0:0|0:0,0:0:0:0:
214,170,141843,2,0,L|169:179,3,45,10|2|2|2,0:0|0:0|3:2|3:2,0:0:0:0:
169,178,142312,1,2,3:2:0:0:
169,178,142429,5,0,3:2:0:0:
299,243,142664,1,0,3:2:0:0:
177,185,142898,1,0,3:2:0:0:
299,243,143132,1,0,3:2:0:0:
256,305,143250,38,0,B|208:288|208:288|171:322,1,101.250003862381,6|0,3:2|0:0,0:0:0:0:
92,322,143484,2,0,L|158:334,1,67.5000025749208,2|0,0:0|0:0,0:0:0:0:
158,334,143718,1,10,0:0:0:0:
51,262,143953,5,2,0:0:0:0:
51,262,144070,1,2,0:0:0:0:
112,214,144187,2,0,L|124:148,1,67.5000025749208,2|0,3:2|0:0,0:0:0:0:
106,129,144421,2,0,L|118:63,1,67.5000025749208,2|0,0:0|0:0,0:0:0:0:
118,62,144656,1,10,0:0:0:0:
118,62,144890,5,2,0:0:0:0:
118,62,145007,1,2,0:0:0:0:
190,119,145125,2,0,P|238:124|274:91,1,101.250003862381,2|0,3:2|0:0,0:0:0:0:
282,19,145359,2,0,P|263:48|269:83,1,67.5000025749208,2|0,0:0|0:0,0:0:0:0:
333,145,145593,2,0,P|340:210|302:265,1,135.000005149842,10|2,0:0|0:0,0:0:0:0:
303,265,145945,1,2,0:0:0:0:
303,265,146062,1,2,3:2:0:0:
303,265,146179,1,2,0:0:0:0:
303,265,146414,5,2,0:0:0:0:
417,258,146531,1,10,0:0:0:0:
419,272,146648,1,2,0:0:0:0:
422,287,146765,1,2,0:0:0:0:
424,302,146882,1,2,0:0:0:0:
430,341,147000,6,0,L|331:359,1,101.250003862381,2|0,3:2|0:0,0:0:0:0:
259,371,147234,2,0,B|290:383|290:383|317:363,1,67.5000025749208,2|0,0:0|0:0,0:0:0:0:
317,363,147468,1,10,0:0:0:0:
228,300,147703,5,2,0:0:0:0:
228,300,147820,1,2,0:0:0:0:
152,332,147937,2,0,L|140:266,1,67.5000025749208,2|0,3:2|0:0,0:0:0:0:
158,247,148171,2,0,L|146:181,1,67.5000025749208,2|0,0:0|0:0,0:0:0:0:
146,180,148406,1,10,0:0:0:0:
146,180,148640,5,2,0:0:0:0:
146,180,148757,1,2,0:0:0:0:
229,218,148875,2,0,P|264:185|313:189,1,101.250003862381,2|0,3:2|0:0,0:0:0:0:
390,163,149109,2,0,P|361:182|326:176,1,67.5000025749208,2|0,0:0|0:0,0:0:0:0:
280,108,149343,2,0,P|334:70|399:77,1,135.000005149842,10|2,0:0|0:0,0:0:0:0:
399,77,149695,1,2,0:0:0:0:
399,77,149812,1,2,3:2:0:0:
399,77,149929,1,2,0:0:0:0:
314,189,150164,5,2,0:0:0:0:
314,189,150281,1,10,0:0:0:0:
200,113,150515,5,2,0:0:0:0:
157,100,150632,1,2,0:0:0:0:
120,126,150750,2,0,B|83:160|83:160|35:143,1,101.250003862381,2|0,3:2|0:0,0:0:0:0:
35,72,150984,2,0,L|23:138,1,67.5000025749208,2|0,0:0|0:0,0:0:0:0:
22,138,151218,1,10,0:0:0:0:
97,240,151453,5,2,0:0:0:0:
97,240,151570,1,2,0:0:0:0:
158,197,151687,2,0,B|185:176|185:176|216:188,1,67.5000025749208,2|0,3:2|0:0,0:0:0:0:
243,185,151921,2,0,B|274:197|274:197|301:176,1,67.5000025749208,2|0,0:0|0:0,0:0:0:0:
301,176,152156,1,10,0:0:0:0:
301,176,152390,5,2,0:0:0:0:
301,176,152507,1,2,0:0:0:0:
368,238,152625,2,0,P|373:286|340:322,1,101.250003862381,2|0,3:2|0:0,0:0:0:0:
268,345,152859,2,0,P|297:326|332:332,1,67.5000025749208,2|0,0:0|0:0,0:0:0:0:
438,367,153093,6,0,B|428:289|475:320|467:240,1,135.000005149842,10|2,0:0|0:0,0:0:0:0:
467,239,153445,1,2,0:0:0:0:
467,239,153562,1,2,3:2:0:0:
467,239,153679,1,2,0:0:0:0:
467,239,153914,37,2,0:0:0:0:
427,166,154031,1,10,0:0:0:0:
429,152,154148,1,2,0:0:0:0:
432,137,154265,1,2,0:0:0:0:
434,122,154382,1,2,0:0:0:0:
440,79,154500,22,0,L|341:97,1,101.250003862381,2|0,3:2|0:0,0:0:0:0:
264,103,154734,2,0,L|330:91,1,67.5000025749208,2|0,0:0|0:0,0:0:0:0:
331,91,154968,1,10,0:0:0:0:
224,42,155203,5,2,0:0:0:0:
224,42,155320,1,2,0:0:0:0:
155,80,155437,2,0,L|143:146,1,67.5000025749208,2|0,3:2|0:0,0:0:0:0:
161,165,155671,2,0,L|149:231,1,67.5000025749208,2|0,0:0|0:0,0:0:0:0:
149,232,155906,1,10,0:0:0:0:
149,232,156140,5,2,0:0:0:0:
149,232,156257,1,2,0:0:0:0:
198,304,156375,2,0,P|227:323|262:317,1,67.5000025749208,2|0,3:2|0:0,0:0:0:0:
324,283,156609,2,0,P|353:264|388:270,1,67.5000025749208,2|0,0:0|0:0,0:0:0:0:
388,282,156843,2,0,P|355:278|327:297,1,67.5000025749208,10|0,0:0|0:0,0:0:0:0:
262,333,157077,2,0,P|229:336|201:317,1,67.5000025749208,2|2,0:0|0:0,0:0:0:0:
149,232,157312,5,2,3:2:0:0:
149,232,157429,1,0,3:2:0:0:
93,287,157664,1,0,3:2:0:0:
95,301,157781,1,10,0:0:0:0:
98,316,157898,1,0,3:2:0:0:
100,331,158015,1,2,3:2:0:0:
102,346,158132,1,0,3:2:0:0:
25,330,158250,37,2,3:2:0:0:
25,330,158484,1,2,0:2:0:0:
25,330,158718,1,2,0:2:0:0:
25,330,158953,1,2,0:2:0:0:
102,346,159187,1,2,0:2:0:0:
102,346,159539,1,2,0:2:0:0:
102,346,159656,1,2,0:2:0:0:
102,346,159890,1,2,0:2:0:0:
70,265,160125,5,2,0:2:0:0:
70,265,160359,1,2,0:2:0:0:
70,265,160593,1,2,0:2:0:0:
70,265,160828,1,2,0:2:0:0:
147,281,161062,1,2,0:2:0:0:
147,281,161414,1,2,0:2:0:0:
147,281,161531,1,2,0:2:0:0:
147,281,161765,1,2,0:2:0:0:
115,200,162000,37,2,0:2:0:0:
115,200,162234,1,2,0:2:0:0:
115,200,162468,1,2,0:2:0:0:
115,200,162703,1,2,0:2:0:0:
192,216,162937,1,2,0:2:0:0:
192,216,163289,1,2,0:2:0:0:
192,216,163406,1,2,0:2:0:0:
192,216,163640,1,2,0:2:0:0:
115,200,163875,5,2,0:2:0:0:
192,216,164109,1,2,0:2:0:0:
115,200,164343,1,2,0:2:0:0:
192,216,164578,1,2,0:2:0:0:
115,200,164812,1,2,0:2:0:0:
38,184,165164,1,2,0:2:0:0:
38,184,165281,1,2,0:2:0:0:
115,200,165515,1,2,0:2:0:0:
103,62,165750,5,2,3:2:0:0:
103,62,165984,1,2,0:0:0:0:
158,119,166218,1,10,0:0:0:0:
158,119,166452,1,2,0:0:0:0:
225,82,166687,6,0,L|357:105,1,135,2|2,3:2|0:0,0:0:0:0:
379,89,167156,2,0,L|397:191,1,90,10|2,0:0|0:0,0:0:0:0:
449,234,167625,37,2,3:2:0:0:
449,234,167859,1,2,0:0:0:0:
394,177,168093,1,10,0:0:0:0:
394,177,168327,1,2,0:0:0:0:
327,214,168562,6,0,L|194:190,1,135,2|2,3:2|0:0,0:0:0:0:
158,140,169031,2,0,L|167:184,1,45,8|0,0:0|0:0,0:0:0:0:
167,184,169265,1,2,0:0:0:0:
60,264,169500,6,0,P|138:266|159:354,1,180,2|10,3:2|0:0,0:0:0:0:
159,352,170203,1,2,0:0:0:0:
60,264,170437,6,0,P|138:266|159:354,1,180,2|8,3:2|0:0,0:0:0:0:
159,352,171140,1,2,0:0:0:0:
238,245,171375,38,0,P|277:278|321:267,1,90,2|10,3:2|0:0,0:0:0:0:
312,272,172078,1,2,0:0:0:0:
238,245,172312,6,0,P|277:278|321:267,1,90,2|10,3:2|0:0,0:0:0:0:
312,272,173015,1,2,0:0:0:0:
159,352,173718,37,8,0:0:0:0:
226,349,173953,5,0,3:2:0:0:
212,347,174031,1,0,3:2:0:0:
198,345,174109,1,0,3:2:0:0:
183,342,174187,1,0,3:2:0:0:
159,352,174304,37,0,3:2:0:0:
135,244,174539,1,0,3:2:0:0:
111,136,174773,1,0,3:2:0:0:
172,180,174890,1,0,3:2:0:0:
186,182,175007,1,0,3:2:0:0:
201,184,175125,22,0,B|238:150|238:150|286:167,1,101.250003862381,6|0,3:2|0:0,0:0:0:0:
369,152,175359,2,0,L|303:164,1,67.5000025749208
303,164,175593,1,10,3:2:0:0:
408,88,175828,1,2,0:0:0:0:
408,88,175945,1,2,0:0:0:0:
435,198,176062,2,0,L|423:264,1,67.5000025749208,2|0,3:2|0:0,0:0:0:0:
441,283,176296,2,0,L|429:349,1,67.5000025749208,2|0,0:0|0:0,0:0:0:0:
429,350,176531,1,10,3:2:0:0:
429,350,176765,21,2,0:0:0:0:
429,350,176882,1,2,0:0:0:0:
358,315,177000,2,0,P|310:310|274:343,1,101.250003862381,2|0,3:2|0:0,0:0:0:0:
242,259,177234,2,0,P|261:288|255:323,1,67.5000025749208,2|0,0:0|0:0,0:0:0:0:
177,337,177468,2,0,P|158:308|164:273,1,67.5000025749208,10|0,3:2|0:0,0:0:0:0:
196,175,177703,1,2,0:0:0:0:
194,189,177820,1,2,0:0:0:0:
191,204,177937,1,2,3:2:0:0:
81,274,178171,1,2,0:0:0:0:
191,204,178406,1,10,3:2:0:0:
94,115,178640,37,2,0:0:0:0:
137,128,178757,1,2,0:0:0:0:
174,102,178875,2,0,L|273:120,1,101.250003862381,2|0,3:2|0:0,0:0:0:0:
350,126,179109,2,0,L|284:114,1,67.5000025749208,2|0,0:0|0:0,0:0:0:0:
283,114,179343,1,10,3:2:0:0:
392,62,179578,1,2,0:0:0:0:
392,62,179695,1,2,0:0:0:0:
457,104,179812,2,0,B|469:135|469:135|449:162,1,67.5000025749208,2|0,3:2|0:2,0:2:0:0:
446,189,180046,2,0,B|426:216|426:216|438:247,1,67.5000025749208,2|0,0:0|0:0,0:0:0:0:
438,247,180281,1,10,3:2:0:0:
438,247,180515,21,2,0:0:0:0:
438,247,180632,1,2,0:0:0:0:
385,304,180750,2,0,P|337:309|301:276,1,101.250003862381,2|0,3:2|0:0,0:0:0:0:
278,204,180984,2,0,P|297:233|291:268,1,67.5000025749208,2|0,0:0|0:0,0:0:0:0:
245,366,181218,2,0,P|226:337|232:302,1,67.5000025749208,10|0,3:2|0:0,0:0:0:0:
278,204,181453,1,2,0:0:0:0:
264,202,181570,1,2,0:0:0:0:
249,199,181687,1,2,3:2:0:0:
185,243,181921,1,2,0:0:0:0:
346,165,182156,1,10,3:2:0:0:
200,88,182390,5,2,0:0:0:0:
243,75,182507,1,2,0:0:0:0:
280,101,182625,2,0,L|379:83,1,101.250003862381,2|0,3:2|0:0,0:0:0:0:
421,24,182859,2,0,L|409:90,1,67.5000025749208,2|0,0:0|0:0,0:0:0:0:
409,91,183093,1,10,3:2:0:0:
511,227,183328,1,2,0:0:0:0:
511,227,183445,1,2,0:0:0:0:
455,167,183562,2,0,L|389:179,1,67.5000025749208,2|0,3:2|0:0,0:0:0:0:
370,161,183796,2,0,L|304:173,1,67.5000025749208,2|0,0:0|0:0,0:0:0:0:
303,173,184031,1,10,3:2:0:0:
303,173,184265,21,2,0:0:0:0:
303,173,184382,1,2,0:0:0:0:
288,254,184500,2,0,P|253:287|204:283,1,101.250003862381,2|0,3:2|0:0,0:0:0:0:
127,309,184734,2,0,P|156:290|191:296,1,67.5000025749208,2|0,0:0|0:0,0:0:0:0:
295,376,184968,2,0,P|262:379|234:360,1,67.5000025749208,10|0,3:2|0:0,0:0:0:0:
174,215,185203,1,2,0:0:0:0:
176,201,185320,1,2,0:0:0:0:
179,186,185437,1,2,3:2:0:0:
202,282,185671,1,2,0:0:0:0:
179,186,185906,1,10,3:2:0:0:
69,330,186140,37,2,0:0:0:0:
112,317,186257,1,2,0:0:0:0:
149,343,186375,2,0,B|186:377|186:377|234:360,1,101.250003862381,2|0,3:2|0:0,0:0:0:0:
315,363,186609,2,0,L|249:351,1,67.5000025749208,2|0,0:0|0:0,0:0:0:0:
248,351,186843,1,10,3:2:0:0:
356,297,187078,1,2,0:0:0:0:
356,297,187195,1,2,0:0:0:0:
295,249,187312,2,0,L|283:183,1,67.5000025749208,2|0,3:2|0:0,0:0:0:0:
301,164,187546,2,0,L|289:98,1,67.5000025749208,2|0,0:0|0:0,0:0:0:0:
289,97,187781,1,10,3:2:0:0:
289,97,188015,21,2,0:0:0:0:
289,97,188132,1,2,0:0:0:0:
235,46,188250,2,0,P|186:41|149:74,1,101.250003862381,2|0,3:2|0:0,0:0:0:0:
61,61,188484,2,0,P|79:88|76:121,1,67.5000025749208,2|0,0:0|0:0,0:0:0:0:
91,181,188718,2,0,P|72:153|75:120,1,67.5000025749208,10|0,3:2|0:0,0:0:0:0:
216,117,188953,37,0,3:2:0:0:
214,131,189031,1,0,3:2:0:0:
212,145,189109,1,0,3:2:0:0:
210,160,189187,1,0,3:2:0:0:
196,229,189304,1,0,3:2:0:0:
196,229,189539,1,0,3:2:0:0:
190,271,189773,21,0,3:2:0:0:
192,257,189890,1,2,3:2:0:0:
194,243,190007,1,0,3:2:0:0:
196,229,190125,2,0,L|262:241,1,67.5000025749208,6|0,3:2|0:0,0:0:0:0:
262,241,190359,1,2,0:0:0:0:
352,311,190593,6,0,L|334:212,1,101.250003862381,8|0,3:2|0:0,0:0:0:0:
361,205,190828,2,0,L|379:106,1,101.250003862381,2|0,0:0|0:0,0:0:0:0:
361,205,191062,1,2,3:2:0:0:
407,33,191296,37,2,0:0:0:0:
364,20,191413,1,2,0:0:0:0:
327,46,191531,2,0,L|228:28,1,101.250003862381,10|0,3:2|0:0,0:0:0:0:
217,35,191765,2,0,B|169:52|169:52|132:18,1,101.250003862381,2|0,0:0|0:0,0:0:0:0:
64,43,192000,6,0,L|52:109,1,67.5000025749208,2|0,3:2|0:0,0:0:0:0:
52,110,192234,1,2,0:0:0:0:
178,170,192468,2,0,B|130:153|130:153|93:187,1,101.250003862381,10|0,3:2|0:0,0:0:0:0:
83,203,192703,2,0,L|101:302,1,101.250003862381,2|0,0:0|0:0,0:0:0:0:
83,203,192937,1,2,3:2:0:0:
68,367,193171,37,2,0:0:0:0:
111,380,193288,1,2,0:0:0:0:
148,354,193406,2,0,L|247:372,1,101.250003862381,10|0,3:2|0:0,0:0:0:0:
263,354,193640,2,0,L|362:336,1,101.250003862381,2|0,0:0|0:0,0:0:0:0:
410,276,193875,22,0,P|413:243|394:215,1,67.5000025749208,2|0,3:2|0:0,0:0:0:0:
394,215,194109,1,2,0:0:0:0:
473,135,194343,2,0,P|425:140|389:107,1,101.250003862381,10|0,3:2|0:0,0:0:0:0:
372,114,194578,2,0,P|324:109|288:142,1,101.250003862381,2|0,0:0|0:0,0:0:0:0:
372,114,194812,1,2,3:2:0:0:
254,53,195046,5,2,0:0:0:0:
211,66,195163,1,2,0:0:0:0:
174,40,195281,2,0,P|126:35|90:68,1,101.250003862381,10|0,3:2|0:0,0:0:0:0:
85,84,195515,2,0,P|100:131|104:182,1,101.250003862381,2|0,0:0|0:0,0:0:0:0:
59,243,195750,38,0,P|48:274|44:308,1,67.5000025749208,2|0,3:2|0:0,0:0:0:0:
44,308,195984,1,2,0:0:0:0:
166,229,196218,2,0,P|214:234|250:201,1,101.250003862381,10|0,3:2|0:0,0:0:0:0:
261,184,196453,2,0,P|297:150|346:155,1,101.250003862381,2|0,0:0|0:0,0:0:0:0:
261,184,196687,1,2,3:2:0:0:
417,122,196921,5,2,0:0:0:0:
430,165,197038,1,2,0:0:0:0:
404,202,197156,2,0,P|389:249|385:300,1,101.250003862381,10|0,3:2|0:0,0:0:0:0:
361,322,197390,2,0,P|314:307|263:303,1,101.250003862381,2|0,0:0|0:0,0:0:0:0:
199,340,197625,6,0,B|172:360|172:360|141:348,1,67.5000025749208,2|0,3:2|0:0,0:0:0:0:
140,347,197859,1,2,0:0:0:0:
55,368,198093,2,0,L|73:269,1,101.250003862381,10|0,3:2|0:0,0:0:0:0:
46,262,198328,2,0,L|28:163,1,101.250003862381,2|0,0:0|0:0,0:0:0:0:
46,262,198562,1,2,3:2:0:0:
83,104,198796,5,2,0:0:0:0:
126,117,198913,1,2,0:0:0:0:
163,91,199031,2,0,L|262:109,1,101.250003862381,10|0,3:2|0:0,0:0:0:0:
273,102,199265,2,0,B|321:85|321:85|358:119,1,101.250003862381,2|0,0:0|0:0,0:0:0:0:
439,99,199500,38,0,L|427:165,1,67.5000025749208,2|0,3:2|0:0,0:0:0:0:
427,166,199734,1,2,0:0:0:0:
457,239,199968,2,0,B|409:256|409:256|372:222,1,101.250003862381,10|0,3:2|0:0,0:0:0:0:
351,229,200203,2,0,L|252:247,1,101.250003862381,2|0,0:0|0:0,0:0:0:0:
351,229,200437,1,2,3:2:0:0:
177,276,200672,5,2,0:0:0:0:
164,233,200789,1,2,0:0:0:0:
190,196,200906,2,0,L|172:97,1,101.250003862381,10|0,3:2|0:0,0:0:0:0:
156,88,201140,2,0,L|57:106,1,101.250003862381,2|0,0:0|0:0,0:0:0:0:
17,170,201375,6,0,P|14:203|33:231,1,67.5000025749208,2|0,3:2|0:0,0:0:0:0:
33,231,201609,1,2,0:0:0:0:
0,315,201843,2,0,P|48:310|84:343,1,101.250003862381,8|0,3:2|0:0,0:0:0:0:
101,336,202078,2,0,P|149:341|185:308,1,101.250003862381,2|0,0:0|0:0,0:0:0:0:
101,336,202312,1,2,3:2:0:0:
257,332,202546,5,2,0:0:0:0:
270,289,202663,1,2,0:0:0:0:
244,252,202781,2,0,P|239:204|272:168,1,101.250003862381,10|0,3:2|0:0,0:0:0:0:
288,163,203015,2,0,P|335:178|381:181,1,67.5000025749208,2|0,0:0|0:0,0:0:0:0:
471,74,203250,38,0,P|406:94|339:101,1,135.000005149842,2|0,3:2|0:0,0:0:0:0:
471,74,203718,2,0,P|406:94|339:101,1,135.000005149842,2|0,3:2|0:0,0:0:0:0:
471,74,204187,2,0,P|406:94|339:101,1,135.000005149842,2|0,3:2|0:0,0:0:0:0:
285,47,204656,6,0,P|236:42|200:76,1,101.250003862381,10|0,3:2|0:0,0:0:0:0:
189,92,204891,2,0,P|153:125|104:121,1,101.250003862381,2|0,0:0|0:0,0:0:0:0:
38,150,205125,6,0,L|20:249,1,101.250003862381,6|0,3:2|0:0,0:0:0:0:
51,271,205359,6,0,L|41:217,1,45,2|0,0:0|0:0,0:0:0:0:
62,346,205593,2,0,L|21:381,1,45,10|0,0:0|0:0,0:0:0:0:
123,298,205828,2,0,L|174:317,1,45,2|0,0:0|0:0,0:0:0:0:
43,226,206062,37,2,3:2:0:0:
51,271,206179,1,2,0:0:0:0:
27,375,206414,5,2,0:0:0:0:
61,346,206531,1,10,0:0:0:0:
166,313,206765,37,2,0:0:0:0:
123,298,206882,1,2,0:0:0:0:
123,298,207000,2,0,B|121:276|121:276|131:255,1,45,2|0,3:2|0:0,0:0:0:0:
195,215,207234,2,0,B|217:213|217:213|238:223,1,45,2|0,0:0|0:0,0:0:0:0:
367,272,207468,6,0,L|279:288,1,90,8|2,0:0|0:0,0:0:0:0:
279,288,207820,1,2,0:0:0:0:
279,288,207937,1,2,3:2:0:0:
279,288,208054,1,2,0:0:0:0:
439,281,208289,37,2,0:0:0:0:
431,237,208406,1,10,0:0:0:0:
477,85,208640,1,2,0:0:0:0:
477,85,208757,1,2,0:0:0:0:
485,129,208875,22,0,B|425:123|448:158|390:151,1,101.250003862381,2|0,3:2|0:0,0:0:0:0:
380,159,209109,2,0,P|367:176|364:198,1,45,2|0,0:0|0:0,0:0:0:0:
271,106,209343,2,0,P|279:125|296:139,1,45,10|0,0:0|0:0,0:0:0:0:
170,173,209578,2,0,P|191:175|211:167,1,45,2|0,0:0|0:0,0:0:0:0:
364,198,209812,5,2,3:2:0:0:
380,158,209929,1,2,0:0:0:0:
297,140,210164,37,2,0:0:0:0:
271,106,210281,1,10,0:0:0:0:
212,166,210515,5,2,0:0:0:0:
169,172,210632,1,2,0:0:0:0:
169,172,210750,2,0,P|147:169|127:177,1,45,2|0,3:2|0:0,0:0:0:0:
84,241,210984,2,0,P|81:262|89:282,1,45,2|0,0:0|0:0,0:0:0:0:
244,314,211218,38,0,P|209:286|166:292,1,90,8|2,0:0|0:0,0:0:0:0:
166,291,211570,1,2,0:0:0:0:
166,291,211687,1,2,3:2:0:0:
166,291,211804,1,2,0:0:0:0:
288,216,212039,5,2,0:0:0:0:
296,260,212156,1,10,0:0:0:0:
350,353,212390,1,2,0:0:0:0:
350,353,212507,1,2,0:0:0:0:
358,309,212625,6,0,B|388:299|388:299|456:327,1,101.250003862381,2|0,3:2|0:0,0:0:0:0:
474,335,212859,6,0,L|465:290,1,45,2|0,0:0|0:0,0:0:0:0:
417,230,213093,2,0,L|408:185,1,45,10|0,0:0|0:0,0:0:0:0:
360,125,213328,2,0,L|351:80,1,45,2|0,0:0|0:0,0:0:0:0:
465,290,213562,37,2,3:2:0:0:
474,335,213679,1,2,0:0:0:0:
408,185,213914,5,2,0:0:0:0:
417,230,214031,1,10,0:0:0:0:
351,80,214265,37,2,0:0:0:0:
360,125,214382,1,2,0:0:0:0:
360,125,214500,2,0,B|339:135|339:135|317:133,1,45,2|0,3:2|0:0,0:0:0:0:
250,104,214734,2,0,B|228:102|228:102|207:112,1,45,2|0,0:0|0:0,0:0:0:0:
144,49,214968,6,0,L|128:137,1,90,8|2,0:0|0:0,0:0:0:0:
128,137,215320,1,2,0:0:0:0:
128,137,215437,1,2,3:2:0:0:
128,137,215554,1,2,0:0:0:0:
247,180,215789,37,2,0:0:0:0:
255,224,215906,1,10,0:0:0:0:
149,222,216140,1,2,0:0:0:0:
149,222,216257,1,2,0:0:0:0:
141,266,216375,22,0,B|135:326|170:303|163:361,1,101.250003862381,2|0,3:2|0:0,0:0:0:0:
188,348,216609,2,0,P|209:345|229:353,1,45,2|0,0:0|0:0,0:0:0:0:
255,224,216843,2,0,P|246:243|229:257,1,45,10|0,0:0|0:0,0:0:0:0:
328,344,217078,2,0,P|315:327|312:305,1,45,2|0,0:0|0:0,0:0:0:0:
230,354,217312,5,2,3:2:0:0:
187,348,217429,1,2,0:0:0:0:
228,257,217664,37,2,0:0:0:0:
255,223,217781,1,10,0:0:0:0:
312,304,218015,5,2,0:0:0:0:
328,344,218132,1,2,0:0:0:0:
328,344,218250,2,0,P|348:352|370:350,1,45,2|0,3:2|0:0,0:0:0:0:
460,285,218484,2,0,P|437:282|417:291,1,45,2|0,0:0|0:0,0:0:0:0:
347,183,218718,38,0,P|382:211|425:205,1,90,2|0,3:2|0:0,0:0:0:0:
445,131,219187,2,0,P|410:103|367:109,1,90,2|0,3:2|0:0,0:0:0:0:
347,183,219656,1,10,0:0:0:0:
165,183,219890,1,2,0:0:0:0:
347,183,220125,1,6,3:2:0:0:
