osu file format v14

[General]
AudioFilename: audio.mp3
AudioLeadIn: 0
PreviewTime: 65367
Countdown: 0
SampleSet: Soft
StackLeniency: 0.7
Mode: 3
LetterboxInBreaks: 0
SpecialStyle: 0
WidescreenStoryboard: 1

[Editor]
DistanceSpacing: 0.8
BeatDivisor: 6
GridSize: 4
TimelineZoom: 1.8

[Metadata]
Title:Thank You Merry Christmas
TitleUnicode:Thank You Merry Christmas
Artist:VENUS
ArtistUnicode:VENUS
Creator:Julie
Version:Hard
Source:REFLEC BEAT groovin'!! Upper
Tags:DanceDanceRevolution (2014) jubeat saucer fulfill pop'n music éclale Konami Bemani DJ YOSHITAKA Sota Fujimori いそにん Merry prop VOLZZA Pastel-kun Kotaro Smith-shi BABY-LON EMI AFRO YUNI JOMANDA VALLIS-NERIA Yoshitaka Nishimura DEUS
BeatmapID:1140820
BeatmapSetID:538304

[Difficulty]
HPDrainRate:7.9
CircleSize:4
OverallDifficulty:7.7
ApproachRate:5
SliderMultiplier:1.6
SliderTickRate:1

[Events]
//Background and Video events
0,0,"Thank You Merry Christmas BG.png",0,0
//Break Periods
//Storyboard Layer 0 (Background)
//Storyboard Layer 1 (Fail)
//Storyboard Layer 2 (Pass)
//Storyboard Layer 3 (Foreground)
//Storyboard Sound Samples

[TimingPoints]
1004.31868131868,272.727272727273,4,2,1,55,1,0
14095,-100,4,2,1,55,0,1
14186,-100,4,2,1,55,0,0
18458,-100,4,2,1,55,0,1
18549,-100,4,2,1,55,0,0
22822,-100,4,2,1,55,0,1
22913,-100,4,2,1,55,0,0
31549,-100,4,2,1,55,0,1
31640,-100,4,2,1,55,0,0
40277,-100,4,2,1,55,0,1
40367,-100,4,2,1,55,0,0
66458,-100,4,2,1,55,0,1
74913,-100,4,2,1,55,0,0
75186,-100,4,2,1,55,0,1
83913,-100,4,2,1,55,0,0
86095,-100,4,2,1,55,0,1
86186,-100,4,2,1,55,0,0
104640,-100,4,2,1,55,0,1
104731,-100,4,2,1,55,0,0
113367,-100,4,2,1,55,0,1
121822,-100,4,2,1,55,0,0
122095,-100,4,2,1,55,0,1
122186,-100,4,2,1,55,0,0

[HitObjects]
192,192,1004,5,0,0:0:0:0:
64,192,1004,1,0,0:0:0:0:
320,192,1549,1,0,0:0:0:0:
448,192,2095,1,0,0:0:0:0:
192,192,2095,1,0,0:0:0:0:
320,192,2640,1,0,0:0:0:0:
192,192,2913,1,0,0:0:0:0:
64,192,3186,1,0,0:0:0:0:
320,192,3186,1,0,0:0:0:0:
448,192,3458,1,0,0:0:0:0:
192,192,3731,1,0,0:0:0:0:
320,192,4004,1,0,0:0:0:0:
448,192,4004,1,0,0:0:0:0:
64,192,4277,1,0,0:0:0:55:bell.wav
320,192,4822,1,0,0:0:0:0:
192,192,5095,1,0,0:0:0:0:
64,192,5367,1,0,0:0:0:0:
448,192,5367,128,0,6458:0:0:0:0:
448,192,7549,1,0,0:0:0:0:
192,192,7549,1,0,0:0:0:0:
192,192,8640,1,0,0:0:0:0:
64,192,8640,1,0,0:0:0:55:bell.wav
448,192,9186,1,0,0:0:0:0:
448,192,9458,1,0,0:0:0:0:
64,192,9731,128,0,13004:0:0:0:0:
320,192,13004,1,0,0:0:0:55:bell.wav
448,192,14095,1,0,0:0:0:0:
64,192,14095,1,4,0:0:0:0:
192,192,14095,128,0,14367:0:0:0:0:
320,192,14367,1,8,0:0:0:0:
192,192,14640,128,0,14913:0:0:0:0:
320,192,14913,1,8,0:0:0:0:
192,192,15095,128,0,15367:0:0:0:0:
320,192,15367,1,0,0:0:0:0:
192,192,15640,1,0,0:0:0:0:
320,192,15731,128,0,16004:0:0:0:0:
64,192,16004,128,0,16277:0:0:0:0:
192,192,16277,128,0,16549:0:0:0:0:
448,192,16549,1,8,0:0:0:0:
192,192,16822,1,0,0:0:0:0:
192,192,17004,1,0,0:0:0:0:
448,192,17095,1,8,0:0:0:0:
192,192,17277,128,0,17549:0:0:0:0:
320,192,17549,1,0,0:0:0:0:
192,192,17822,1,0,0:0:0:0:
448,192,17913,1,8,0:0:0:0:
64,192,17913,1,0,0:0:0:0:
320,192,18004,1,0,0:0:0:0:
192,192,18095,1,0,0:0:0:0:
64,192,18186,1,0,0:0:0:0:
320,192,18277,1,0,0:0:0:0:
192,192,18367,1,0,0:0:0:0:
64,192,18458,1,2,0:0:0:0:
448,192,18458,1,4,0:0:0:0:
320,192,18458,1,0,0:0:0:0:
192,192,18731,1,0,0:0:0:0:
64,192,18731,1,8,0:0:0:0:
320,192,19004,1,0,0:0:0:0:
448,192,19277,1,8,0:0:0:0:
192,192,19277,1,0,0:0:0:0:
64,192,19549,1,0,0:0:0:0:
320,192,19822,1,0,0:0:0:0:
448,192,19822,1,8,0:0:0:0:
192,192,20095,1,0,0:0:0:0:
320,192,20367,1,0,0:0:0:0:
64,192,20367,1,8,0:0:0:0:
448,192,20640,1,8,0:0:0:0:
192,192,20640,1,0,0:0:0:0:
320,192,20913,1,0,0:0:0:0:
192,192,21186,1,0,0:0:0:0:
64,192,21186,1,8,0:0:0:0:
448,192,21458,1,0,0:0:0:0:
320,192,21731,1,0,0:0:0:0:
192,192,21731,1,8,0:0:0:0:
192,192,22004,1,0,0:0:0:0:
64,192,22004,1,8,0:0:0:0:
320,192,22277,1,0,0:0:0:0:
448,192,22277,1,8,0:0:0:0:
64,192,22549,1,4,0:0:0:0:
192,192,22549,1,0,0:0:0:0:
448,192,22549,1,2,0:0:0:0:
320,192,22822,1,0,0:0:0:0:
448,192,22822,1,4,0:0:0:0:
64,192,22822,1,2,0:0:0:0:
192,192,23095,1,0,0:0:0:0:
448,192,23095,1,8,0:0:0:0:
192,192,23367,128,2,23640:0:0:0:0:
448,192,23640,1,8,0:0:0:0:
192,192,23822,1,2,0:0:0:0:
192,192,24095,1,0,0:0:0:0:
448,192,24186,1,8,0:0:0:0:
192,192,24458,1,2,0:0:0:0:
64,192,24731,1,8,0:0:0:0:
320,192,24731,1,0,0:0:0:0:
448,192,25004,1,2,0:0:0:0:
192,192,25004,1,0,0:0:0:0:
320,192,25277,1,0,0:0:0:0:
64,192,25277,1,8,0:0:0:0:
320,192,25549,128,2,25822:0:0:0:0:
64,192,25822,1,0,0:0:0:0:
320,192,26004,1,2,0:0:0:0:
320,192,26277,1,2,0:0:0:0:
64,192,26367,1,8,0:0:0:0:
192,192,26640,1,2,0:0:0:0:
448,192,26913,1,8,0:0:0:0:
320,192,26913,1,0,0:0:0:0:
64,192,27186,1,4,0:0:0:0:
192,192,27186,1,0,0:0:0:0:
448,192,27186,1,2,0:0:0:0:
320,192,27458,1,8,0:0:0:0:
192,192,27458,1,0,0:0:0:0:
192,192,27731,128,2,28004:0:0:0:0:
448,192,28004,1,8,0:0:0:0:
192,192,28186,1,2,0:0:0:0:
192,192,28458,1,0,0:0:0:0:
448,192,28549,1,8,0:0:0:0:
192,192,28822,1,2,0:0:0:0:
64,192,29095,1,8,0:0:0:0:
320,192,29095,1,0,0:0:0:0:
448,192,29367,1,2,0:0:0:0:
192,192,29367,1,0,0:0:0:0:
320,192,29640,1,0,0:0:0:0:
64,192,29640,1,8,0:0:0:0:
320,192,29913,128,2,30186:0:0:0:0:
64,192,30186,1,8,0:0:0:0:
192,192,30367,1,2,0:0:0:0:
448,192,30458,1,2,0:0:0:0:
320,192,30731,1,0,0:0:0:0:
64,192,30731,1,8,0:0:0:0:
192,192,31004,1,0,0:0:0:0:
64,192,31095,1,0,0:0:0:0:
192,192,31186,1,0,0:0:0:0:
320,192,31277,1,0,0:0:0:0:
448,192,31277,1,8,0:0:0:0:
64,192,31549,1,2,0:0:0:0:
192,192,31549,1,0,0:0:0:0:
448,192,31549,1,4,0:0:0:0:
320,192,31822,1,8,0:0:0:0:
192,192,31822,1,0,0:0:0:0:
192,192,32095,128,2,32367:0:0:0:0:
448,192,32367,1,8,0:0:0:0:
64,192,32549,1,2,0:0:0:0:
192,192,32640,1,2,0:0:0:0:
448,192,32822,1,2,0:0:0:0:
320,192,32913,1,8,0:0:0:0:
64,192,33095,1,2,0:0:0:0:
192,192,33186,1,2,0:0:0:0:
448,192,33458,1,8,0:0:0:0:
64,192,33731,1,2,0:0:0:0:
320,192,33731,1,0,0:0:0:0:
192,192,34004,1,0,0:0:0:0:
448,192,34004,1,8,0:0:0:0:
64,192,34186,1,2,0:0:0:0:
192,192,34277,1,2,0:0:0:0:
448,192,34458,1,0,0:0:0:0:
192,192,34549,1,0,0:0:0:0:
64,192,34549,1,8,0:0:0:0:
320,192,34731,1,2,0:0:0:0:
448,192,34822,1,0,0:0:0:0:
192,192,35004,1,2,0:0:0:0:
64,192,35095,1,8,0:0:0:0:
320,192,35277,1,2,0:0:0:0:
448,192,35367,1,2,0:0:0:0:
192,192,35549,1,2,0:0:0:0:
64,192,35640,1,8,0:0:0:0:
64,192,35913,1,4,0:0:0:0:
448,192,35913,1,2,0:0:0:0:
320,192,35913,128,0,36186:0:0:0:0:
192,192,36186,1,0,0:0:0:0:
64,192,36186,1,8,0:0:0:0:
448,192,36458,128,2,36731:0:0:0:0:
320,192,36731,1,0,0:0:0:0:
64,192,36731,1,8,0:0:0:0:
192,192,37004,128,2,37277:0:0:0:0:
320,192,37277,1,0,0:0:0:0:
448,192,37277,1,8,0:0:0:0:
64,192,37549,128,2,37822:0:0:0:0:
192,192,37822,1,0,0:0:0:0:
448,192,37822,1,8,0:0:0:0:
320,192,38004,1,0,0:0:0:0:
192,192,38095,1,0,0:0:0:0:
64,192,38095,1,8,0:0:0:0:
448,192,38095,1,0,0:0:0:0:
320,192,38277,1,0,0:0:0:0:
64,192,38367,1,2,0:0:0:0:
192,192,38640,1,0,0:0:0:0:
448,192,38640,1,8,0:0:0:0:
64,192,39186,1,2,0:0:0:0:
448,192,39186,1,0,0:0:0:0:
320,192,39277,1,0,0:0:0:0:
192,192,39367,1,0,0:0:0:0:
64,192,39458,1,2,0:0:0:0:
192,192,39549,1,0,0:0:0:0:
320,192,39640,1,0,0:0:0:0:
64,192,39731,1,8,0:0:0:0:
448,192,39731,1,0,0:0:0:0:
448,192,40277,1,2,0:0:0:0:
64,192,40277,1,4,0:0:0:0:
192,192,40277,128,0,40549:0:0:0:0:
320,192,40549,1,0,0:0:0:0:
448,192,40549,1,8,0:0:0:0:
192,192,40822,128,2,41095:0:0:0:0:
320,192,41095,1,0,0:0:0:0:
448,192,41095,1,8,0:0:0:0:
192,192,41277,1,2,0:0:0:0:
64,192,41367,1,2,0:0:0:0:
192,192,41549,1,2,0:0:0:0:
320,192,41640,1,0,0:0:0:0:
448,192,41640,1,8,0:0:0:0:
192,192,41822,1,2,0:0:0:0:
64,192,41913,128,2,42186:0:0:0:0:
320,192,42186,1,0,0:0:0:0:
448,192,42186,1,8,0:0:0:0:
64,192,42458,1,0,0:0:0:0:
320,192,42458,128,2,42731:0:0:0:0:
192,192,42731,1,0,0:0:0:0:
64,192,42731,1,8,0:0:0:0:
320,192,43004,128,2,43277:0:0:0:0:
192,192,43277,1,0,0:0:0:0:
64,192,43277,1,8,0:0:0:0:
320,192,43458,1,2,0:0:0:0:
448,192,43549,1,2,0:0:0:0:
320,192,43731,1,2,0:0:0:0:
192,192,43822,1,0,0:0:0:0:
64,192,43822,1,8,0:0:0:0:
320,192,44004,1,2,0:0:0:0:
64,192,44095,1,2,0:0:0:0:
448,192,44095,1,0,0:0:0:0:
192,192,44277,1,0,0:0:0:0:
320,192,44367,1,0,0:0:0:0:
448,192,44367,1,8,0:0:0:0:
64,192,44549,1,0,0:0:0:0:
448,192,44640,1,0,0:0:0:0:
192,192,44640,128,2,44913:0:0:0:0:
320,192,44913,1,0,0:0:0:0:
448,192,44913,1,8,0:0:0:0:
192,192,45186,128,2,45458:0:0:0:0:
320,192,45458,1,0,0:0:0:0:
448,192,45458,1,8,0:0:0:0:
192,192,45640,1,2,0:0:0:0:
64,192,45731,1,2,0:0:0:0:
192,192,45913,1,2,0:0:0:0:
320,192,46004,1,0,0:0:0:0:
448,192,46004,1,8,0:0:0:0:
64,192,46186,1,0,0:0:0:0:
320,192,46277,1,0,0:0:0:0:
192,192,46367,1,0,0:0:0:0:
64,192,46458,1,0,0:0:0:0:
320,192,46549,1,0,0:0:0:0:
448,192,46549,1,8,0:0:0:0:
64,192,46822,1,2,0:0:0:0:
320,192,46822,128,0,47095:0:0:0:0:
192,192,47095,1,0,0:0:0:0:
64,192,47095,1,8,0:0:0:0:
448,192,47367,128,2,47640:0:0:0:0:
320,192,47640,1,0,0:0:0:0:
64,192,47640,1,8,0:0:0:0:
192,192,47913,128,2,48186:0:0:0:0:
320,192,48186,1,0,0:0:0:0:
64,192,48186,1,8,0:0:0:0:
448,192,48458,1,0,0:0:0:0:
64,192,48458,1,2,0:0:0:0:
320,192,48549,1,0,0:0:0:0:
192,192,48640,1,0,0:0:0:0:
448,192,48731,1,2,0:0:0:0:
320,192,48822,1,0,0:0:0:0:
192,192,48913,1,0,0:0:0:0:
64,192,49004,1,2,0:0:0:0:
448,192,49004,1,0,0:0:0:0:
192,192,49277,1,0,0:0:0:0:
320,192,49458,1,0,0:0:0:0:
448,192,49549,1,0,0:0:0:0:
192,192,49731,1,0,0:0:0:0:
64,192,49822,1,0,0:0:0:0:
320,192,50004,1,0,0:0:0:0:
192,192,50095,1,0,0:0:0:0:
448,192,50095,1,8,0:0:0:0:
64,192,50549,1,0,0:0:0:0:
448,192,50640,1,0,0:0:0:55:bell.wav
320,192,50913,1,8,0:0:0:0:
192,192,50913,1,0,0:0:0:0:
64,192,50913,1,4,0:0:0:0:
320,192,51186,1,0,0:0:0:0:
448,192,51186,1,2,0:0:0:0:
64,192,51186,1,4,0:0:0:0:
192,192,51458,1,0,0:0:0:0:
320,192,51640,1,0,0:0:0:0:
448,192,51731,1,0,0:0:0:0:
192,192,51913,1,0,0:0:0:0:
64,192,52004,1,0,0:0:0:0:
320,192,52186,1,0,0:0:0:0:
448,192,52186,1,8,0:0:0:0:
64,192,52277,1,0,0:0:0:0:
192,192,52822,1,8,0:0:0:0:
448,192,52822,1,4,0:0:0:0:
320,192,53095,1,8,0:0:0:0:
64,192,53095,1,4,0:0:0:0:
448,192,53367,1,2,0:0:0:0:
64,192,53367,1,4,0:0:0:0:
192,192,53367,1,0,0:0:0:0:
320,192,53640,1,0,0:0:0:0:
64,192,53822,1,2,0:0:0:0:
320,192,53913,1,0,0:0:0:0:
448,192,53913,1,8,0:0:0:0:
192,192,54186,1,0,0:0:0:0:
64,192,54458,1,2,0:0:0:0:
320,192,54458,1,0,0:0:0:0:
448,192,54913,1,2,0:0:0:0:
192,192,55004,1,0,0:0:0:0:
64,192,55004,1,8,0:0:0:0:
320,192,55277,1,0,0:0:0:0:
192,192,55549,1,0,0:0:0:0:
448,192,55549,1,2,0:0:0:0:
320,192,55822,1,2,0:0:0:0:
448,192,55822,1,8,0:0:0:0:
192,192,56095,1,2,0:0:0:0:
64,192,56095,1,8,0:0:0:0:
448,192,56367,1,2,0:0:0:0:
192,192,56549,1,2,0:0:0:0:
448,192,56640,1,8,0:0:0:0:
320,192,56640,1,0,0:0:0:0:
320,192,57186,1,0,0:0:0:0:
448,192,57186,1,8,0:0:0:0:
64,192,57367,1,0,0:0:0:0:
320,192,57458,1,0,0:0:0:0:
192,192,57731,1,0,0:0:0:0:
64,192,57731,1,8,0:0:0:0:
448,192,57731,1,2,0:0:0:0:
320,192,58004,1,2,0:0:0:0:
448,192,58004,1,8,0:0:0:0:
192,192,58186,1,0,0:0:0:0:
448,192,58277,1,2,0:0:0:0:
320,192,58458,1,0,0:0:0:0:
64,192,58458,1,8,0:0:0:0:
192,192,58549,1,0,0:0:0:0:
320,192,58731,1,2,0:0:0:0:
64,192,58822,1,8,0:0:0:0:
448,192,58822,1,0,0:0:0:0:
192,192,59004,1,0,0:0:0:0:
64,192,59095,1,2,0:0:0:0:
320,192,59277,1,0,0:0:0:0:
448,192,59277,1,8,0:0:0:0:
192,192,59367,1,0,0:0:0:55:bell.wav
192,192,59640,1,0,0:0:0:0:
64,192,59640,1,4,0:0:0:0:
448,192,59640,1,0,0:0:0:0:
320,192,59913,1,0,0:0:0:0:
448,192,59913,1,4,0:0:0:0:
64,192,59913,1,0,0:0:0:0:
192,192,60186,1,2,0:0:0:0:
320,192,60367,1,0,0:0:0:0:
448,192,60458,1,0,0:0:0:0:
192,192,60640,1,0,0:0:0:0:
64,192,60731,1,0,0:0:0:0:
320,192,60731,1,0,0:0:0:0:
448,192,60731,1,4,0:0:0:0:
192,192,60913,1,0,0:0:0:0:
448,192,61004,1,0,0:0:0:0:
64,192,61004,1,0,0:0:0:0:
320,192,61186,1,2,0:0:0:0:
320,192,61458,1,2,0:0:0:0:
192,192,61549,1,0,0:0:0:0:
64,192,61549,1,0,0:0:0:55:bell.wav
448,192,61549,1,8,0:0:0:0:
320,192,61822,1,0,0:0:0:0:
448,192,61822,1,4,0:0:0:0:
64,192,61822,1,0,0:0:0:0:
192,192,62095,1,0,0:0:0:0:
64,192,62095,1,4,0:0:0:0:
320,192,62095,1,2,0:0:0:0:
448,192,62367,1,0,0:0:0:0:
192,192,62549,1,2,0:0:0:0:
320,192,62640,1,0,0:0:0:0:
448,192,62640,1,8,0:0:0:0:
192,192,62913,1,0,0:0:0:0:
64,192,63186,1,2,0:0:0:0:
320,192,63186,1,0,0:0:0:0:
448,192,63458,1,0,0:0:0:0:
320,192,63640,1,2,0:0:0:0:
192,192,63731,1,0,0:0:0:0:
64,192,63731,1,8,0:0:0:0:
448,192,64004,1,0,0:0:0:0:
320,192,64277,1,0,0:0:0:0:
192,192,64277,1,2,0:0:0:0:
320,192,64549,1,0,0:0:0:0:
448,192,64549,1,8,0:0:0:0:
64,192,64822,1,2,0:0:0:0:
192,192,64822,1,0,0:0:0:0:
448,192,64822,1,4,0:0:0:0:
320,192,65095,1,0,0:0:0:0:
192,192,65095,1,2,0:0:0:0:
64,192,65367,1,8,0:0:0:0:
320,192,65367,1,0,0:0:0:0:
448,192,65367,1,4,0:0:0:0:
192,192,65640,1,0,0:0:0:0:
64,192,65913,1,0,0:0:0:0:
320,192,66004,1,0,0:0:0:0:
64,192,66095,1,0,0:0:0:0:
448,192,66186,1,0,0:0:0:0:
192,192,66277,1,0,0:0:0:0:
448,192,66367,1,0,0:0:0:0:
320,192,66458,1,2,0:0:0:0:
64,192,66458,1,4,0:0:0:0:
192,192,66458,128,0,66731:0:0:0:0:
320,192,66731,1,0,0:0:0:0:
448,192,66731,1,8,0:0:0:0:
192,192,67004,128,2,67277:0:0:0:0:
64,192,67277,1,8,0:0:0:0:
320,192,67277,1,0,0:0:0:0:
192,192,67458,1,2,0:0:0:0:
448,192,67549,1,0,0:0:0:0:
320,192,67731,1,2,0:0:0:0:
192,192,67822,1,0,0:0:0:0:
64,192,67822,1,8,0:0:0:0:
320,192,68004,1,2,0:0:0:0:
448,192,68095,1,2,0:0:0:0:
320,192,68277,1,2,0:0:0:0:
192,192,68367,1,0,0:0:0:0:
64,192,68367,1,8,0:0:0:0:
320,192,68640,128,2,68913:0:0:0:0:
64,192,68640,1,0,0:0:0:0:
192,192,68913,1,0,0:0:0:0:
448,192,68913,1,8,0:0:0:0:
320,192,69186,128,2,69458:0:0:0:0:
192,192,69458,1,0,0:0:0:0:
64,192,69458,1,8,0:0:0:0:
320,192,69640,1,2,0:0:0:0:
64,192,69731,1,0,0:0:0:0:
192,192,69913,1,2,0:0:0:0:
320,192,70004,1,0,0:0:0:0:
448,192,70004,1,8,0:0:0:0:
192,192,70186,1,2,0:0:0:0:
64,192,70277,1,2,0:0:0:0:
192,192,70458,1,0,0:0:0:0:
320,192,70549,1,0,0:0:0:0:
448,192,70549,1,8,0:0:0:0:
64,192,70822,1,4,0:0:0:0:
448,192,70822,1,2,0:0:0:0:
192,192,70822,128,0,71095:0:0:0:0:
320,192,71095,1,0,0:0:0:0:
448,192,71095,1,8,0:0:0:0:
192,192,71367,128,2,71640:0:0:0:0:
320,192,71640,1,0,0:0:0:0:
64,192,71640,1,8,0:0:0:0:
192,192,71822,1,2,0:0:0:0:
448,192,71913,1,2,0:0:0:0:
320,192,72095,1,2,0:0:0:0:
192,192,72186,1,0,0:0:0:0:
64,192,72186,1,8,0:0:0:0:
320,192,72367,1,2,0:0:0:0:
448,192,72458,1,2,0:0:0:0:
192,192,72640,1,0,0:0:0:0:
64,192,72731,1,8,0:0:0:0:
320,192,72731,1,0,0:0:0:0:
448,192,73004,128,2,73277:0:0:0:0:
192,192,73004,1,0,0:0:0:0:
64,192,73277,1,8,0:0:0:0:
320,192,73277,1,0,0:0:0:0:
192,192,73549,1,0,0:0:0:0:
64,192,73549,1,4,0:0:0:0:
448,192,73549,1,2,0:0:0:0:
192,192,73822,1,2,0:0:0:0:
320,192,73822,1,0,0:0:0:0:
448,192,74004,1,4,0:0:0:0:
320,192,74004,1,0,0:0:0:0:
64,192,74095,1,0,0:0:0:0:
320,192,74277,1,2,0:0:0:0:
64,192,74367,1,8,0:0:0:0:
192,192,74367,1,0,0:0:0:0:
448,192,74549,1,2,0:0:0:0:
192,192,74640,1,8,0:0:0:0:
320,192,74640,1,0,0:0:0:0:
64,192,74822,1,0,0:0:0:0:
448,192,74913,1,0,0:0:0:0:
192,192,75186,1,0,0:0:0:0:
64,192,75186,1,4,0:0:0:0:
320,192,75186,128,2,75458:0:0:0:0:
448,192,75458,1,8,0:0:0:0:
192,192,75458,1,0,0:0:0:0:
320,192,75731,128,2,76004:0:0:0:0:
64,192,76004,1,8,0:0:0:0:
192,192,76004,1,0,0:0:0:0:
320,192,76186,1,2,0:0:0:0:
64,192,76277,1,2,0:0:0:0:
192,192,76458,1,2,0:0:0:0:
320,192,76549,1,0,0:0:0:0:
448,192,76549,1,8,0:0:0:0:
64,192,76731,1,2,0:0:0:0:
320,192,76822,1,2,0:0:0:0:
192,192,77004,1,0,0:0:0:0:
320,192,77095,1,0,0:0:0:0:
64,192,77095,1,8,0:0:0:0:
320,192,77367,1,0,0:0:0:0:
448,192,77367,1,2,0:0:0:0:
64,192,77367,1,4,0:0:0:0:
192,192,77640,1,0,0:0:0:0:
448,192,77640,1,8,0:0:0:0:
320,192,77822,1,2,0:0:0:0:
64,192,77913,1,0,0:0:0:0:
192,192,78186,1,0,0:0:0:0:
448,192,78186,1,4,0:0:0:0:
320,192,78186,1,8,0:0:0:0:
64,192,78458,1,0,0:0:0:0:
320,192,78640,1,2,0:0:0:0:
192,192,78731,1,0,0:0:0:0:
448,192,78731,1,8,0:0:0:0:
64,192,78913,1,2,0:0:0:0:
320,192,79004,1,2,0:0:0:0:
192,192,79186,1,2,0:0:0:0:
320,192,79277,1,0,0:0:0:0:
448,192,79277,1,8,0:0:0:0:
192,192,79549,1,0,0:0:0:0:
64,192,79549,1,4,0:0:0:0:
448,192,79549,1,2,0:0:0:0:
64,192,79822,1,8,0:0:0:0:
320,192,79822,1,0,0:0:0:0:
448,192,80095,1,2,0:0:0:0:
320,192,80095,1,0,0:0:0:0:
64,192,80367,1,8,0:0:0:0:
320,192,80367,1,0,0:0:0:0:
192,192,80549,1,2,0:0:0:0:
448,192,80640,1,2,0:0:0:0:
320,192,80822,1,2,0:0:0:0:
192,192,80913,1,0,0:0:0:0:
64,192,80913,1,8,0:0:0:0:
320,192,81095,1,2,0:0:0:0:
448,192,81186,1,2,0:0:0:0:
320,192,81367,1,0,0:0:0:0:
192,192,81458,1,0,0:0:0:0:
64,192,81458,1,8,0:0:0:0:
320,192,81640,1,0,0:0:0:0:
448,192,81731,1,2,0:0:0:0:
192,192,81731,1,0,0:0:0:0:
64,192,81731,1,4,0:0:0:0:
320,192,81913,1,0,0:0:0:0:
192,192,82004,1,2,0:0:0:0:
64,192,82277,1,0,0:0:0:0:
448,192,82277,1,8,0:0:0:0:
192,192,82458,1,0,0:0:0:0:
448,192,82549,1,0,0:0:0:0:
64,192,82822,1,8,0:0:0:0:
320,192,82822,1,0,0:0:0:0:
448,192,82822,1,0,0:0:0:0:
192,192,82913,1,0,0:0:0:0:
64,192,83004,1,0,0:0:0:0:
320,192,83095,1,2,0:0:0:0:
192,192,83186,1,0,0:0:0:0:
448,192,83277,1,0,0:0:0:0:
320,192,83367,1,0,0:0:0:0:
64,192,83367,1,8,0:0:0:0:
192,192,83367,1,0,0:0:0:0:
192,192,83640,1,0,0:0:0:0:
320,192,83640,1,8,0:0:0:0:
448,192,83640,1,4,0:0:0:0:
64,192,83913,1,0,0:0:0:0:
64,192,85004,1,8,0:0:0:0:
320,192,85004,1,0,0:0:0:0:
448,192,85004,1,4,0:0:0:0:
192,192,85277,1,0,0:0:0:0:
448,192,85458,1,0,0:0:0:0:
192,192,85549,1,0,0:0:0:0:
448,192,85640,1,0,0:0:0:0:
192,192,85731,1,0,0:0:0:0:
320,192,85822,1,0,0:0:0:0:
64,192,85913,1,0,0:0:0:0:
320,192,86004,1,0,0:0:0:0:
64,192,86095,1,4,0:0:0:0:
192,192,86095,1,0,0:0:0:0:
448,192,86095,1,2,0:0:0:0:
320,192,86367,1,8,0:0:0:0:
192,192,86640,1,0,0:0:0:0:
192,192,86822,1,0,0:0:0:0:
64,192,86913,1,0,0:0:0:0:
448,192,87186,1,8,0:0:0:0:
64,192,87458,1,0,0:0:0:0:
320,192,87640,1,0,0:0:0:0:
64,192,87731,1,0,0:0:0:0:
192,192,87913,1,8,0:0:0:0:
192,192,88004,1,8,0:0:0:0:
320,192,88277,1,0,0:0:0:0:
448,192,88277,1,4,0:0:0:0:
64,192,88277,1,2,0:0:0:0:
320,192,88549,1,8,0:0:0:0:
192,192,88822,1,0,0:0:0:0:
192,192,89004,1,0,0:0:0:0:
64,192,89095,1,0,0:0:0:0:
448,192,89367,1,8,0:0:0:0:
64,192,89640,1,0,0:0:0:0:
320,192,89822,1,8,0:0:0:0:
192,192,89913,1,8,0:0:0:0:
448,192,90095,1,8,0:0:0:0:
320,192,90186,1,8,0:0:0:0:
64,192,90277,1,0,0:0:0:0:
192,192,90367,1,8,0:0:0:0:
448,192,90458,1,4,0:0:0:0:
320,192,90458,1,0,0:0:0:0:
64,192,90458,1,2,0:0:0:0:
192,192,90731,1,8,0:0:0:0:
320,192,91004,1,0,0:0:0:0:
320,192,91186,1,0,0:0:0:0:
64,192,91277,1,0,0:0:0:0:
448,192,91549,1,8,0:0:0:0:
192,192,91822,1,0,0:0:0:0:
320,192,92004,1,0,0:0:0:0:
192,192,92095,1,0,0:0:0:0:
448,192,92277,1,8,0:0:0:0:
448,192,92367,1,8,0:0:0:0:
192,192,92640,1,0,0:0:0:0:
64,192,92640,1,4,0:0:0:0:
320,192,92640,1,2,0:0:0:0:
448,192,92913,1,8,0:0:0:0:
320,192,93186,1,0,0:0:0:0:
320,192,93367,1,0,0:0:0:0:
192,192,93458,1,0,0:0:0:0:
64,192,93731,1,0,0:0:0:0:
448,192,93731,1,8,0:0:0:0:
192,192,94004,1,0,0:0:0:0:
448,192,94186,1,8,0:0:0:0:
192,192,94277,1,0,0:0:0:0:
448,192,94458,1,8,0:0:0:0:
320,192,94549,1,8,0:0:0:0:
448,192,94731,1,8,0:0:0:0:
320,192,94822,1,2,0:0:0:0:
192,192,94822,1,0,0:0:0:0:
64,192,94822,1,4,0:0:0:0:
448,192,95095,1,0,0:0:0:0:
192,192,95367,1,0,0:0:0:0:
64,192,95367,1,2,0:0:0:0:
320,192,95549,1,0,0:0:0:0:
192,192,95640,1,0,0:0:0:0:
320,192,95913,1,0,0:0:0:0:
448,192,95913,1,2,0:0:0:0:
64,192,96186,1,0,0:0:0:0:
192,192,96458,1,2,0:0:0:0:
320,192,96458,1,0,0:0:0:0:
448,192,96640,1,8,0:0:0:0:
448,192,96731,1,8,0:0:0:0:
192,192,97004,1,0,0:0:0:0:
320,192,97004,1,2,0:0:0:0:
64,192,97004,1,4,0:0:0:0:
320,192,97277,1,8,0:0:0:0:
192,192,97549,1,0,0:0:0:0:
64,192,97549,1,2,0:0:0:0:
320,192,97731,1,0,0:0:0:0:
192,192,97822,1,0,0:0:0:0:
320,192,98095,1,2,0:0:0:0:
64,192,98095,1,8,0:0:0:0:
192,192,98367,1,0,0:0:0:0:
64,192,98549,1,8,0:0:0:0:
320,192,98640,1,0,0:0:0:55:bell.wav
448,192,98640,1,2,0:0:0:0:
192,192,98822,1,8,0:0:0:0:
320,192,98913,1,8,0:0:0:0:
64,192,99004,1,0,0:0:0:0:
320,192,99095,1,8,0:0:0:0:
448,192,99186,1,2,0:0:0:0:
192,192,99186,1,0,0:0:0:0:
64,192,99186,1,4,0:0:0:0:
320,192,99458,1,8,0:0:0:0:
192,192,99731,1,0,0:0:0:0:
64,192,99731,1,2,0:0:0:0:
320,192,99913,1,0,0:0:0:0:
192,192,100004,1,0,0:0:0:0:
320,192,100277,1,2,0:0:0:0:
448,192,100277,1,8,0:0:0:0:
192,192,100549,1,0,0:0:0:0:
448,192,100731,1,0,0:0:0:0:
192,192,100822,1,0,0:0:0:0:
64,192,100822,1,2,0:0:0:0:
320,192,101004,1,8,0:0:0:0:
320,192,101095,1,8,0:0:0:0:
64,192,101367,1,8,0:0:0:0:
192,192,101367,1,0,0:0:0:0:
448,192,101367,1,4,0:0:0:0:
192,192,101640,1,8,0:0:0:0:
320,192,101913,1,0,0:0:0:0:
448,192,101913,1,2,0:0:0:0:
192,192,102095,1,0,0:0:0:0:
64,192,102186,1,0,0:0:0:0:
192,192,102458,1,8,0:0:0:0:
320,192,102458,1,0,0:0:0:0:
448,192,102458,1,4,0:0:0:0:
64,192,102913,1,0,0:0:0:0:
192,192,103004,1,0,0:0:0:0:
448,192,103095,1,0,0:0:0:0:
320,192,103186,1,0,0:0:0:0:
64,192,103277,1,0,0:0:0:0:
192,192,103367,1,0,0:0:0:0:
448,192,103458,1,0,0:0:0:0:
320,192,103549,1,0,0:0:0:0:
64,192,103640,1,0,0:0:0:0:
192,192,103731,1,0,0:0:0:0:
320,192,103822,1,0,0:0:0:0:
448,192,103913,1,0,0:0:0:0:
64,192,104004,1,0,0:0:0:0:
192,192,104095,1,0,0:0:0:0:
320,192,104186,1,0,0:0:0:0:
448,192,104277,1,0,0:0:0:0:
320,192,104367,1,0,0:0:0:0:
192,192,104458,1,0,0:0:0:0:
64,192,104549,1,0,0:0:0:0:
192,192,104640,1,2,0:0:0:0:
448,192,104640,1,4,0:0:0:0:
320,192,104640,128,0,104913:0:0:0:0:
64,192,104913,1,0,0:0:0:0:
448,192,104913,1,0,0:0:0:55:clap.wav
320,192,105186,128,0,105458:0:0:0:0:
64,192,105458,1,0,0:0:0:0:
448,192,105458,1,0,0:0:0:55:clap.wav
192,192,105731,128,0,106004:0:0:0:0:
64,192,106004,1,0,0:0:0:0:
448,192,106004,1,0,0:0:0:55:clap.wav
192,192,106277,128,0,106549:0:0:0:0:
448,192,106549,1,0,0:0:0:55:clap.wav
64,192,106549,128,0,106822:0:0:0:0:
320,192,106822,128,0,107095:0:0:0:0:
448,192,107095,1,0,0:0:0:55:clap.wav
192,192,107095,1,0,0:0:0:0:
320,192,107367,128,0,107640:0:0:0:0:
192,192,107640,1,0,0:0:0:0:
448,192,107640,1,0,0:0:0:55:clap.wav
64,192,107913,128,0,108186:0:0:0:0:
320,192,108186,1,0,0:0:0:0:
448,192,108186,1,0,0:0:0:55:clap.wav
192,192,108458,128,0,108731:0:0:0:0:
320,192,108731,128,0,109004:0:0:0:0:
64,192,108731,1,0,0:0:0:55:clap.wav
64,192,109004,128,0,109277:0:0:0:0:
448,192,109004,1,0,0:0:0:0:
192,192,109277,1,0,0:0:0:0:
448,192,109277,1,0,0:0:0:55:clap.wav
64,192,109549,128,0,109822:0:0:0:0:
192,192,109822,1,0,0:0:0:0:
448,192,109822,1,0,0:0:0:55:clap.wav
320,192,110095,128,0,110367:0:0:0:0:
64,192,110367,1,0,0:0:0:55:clap.wav
192,192,110367,1,0,0:0:0:0:
448,192,110640,128,0,110913:0:0:0:0:
320,192,110913,1,0,0:0:0:55:clap.wav
192,192,110913,128,0,111186:0:0:0:0:
64,192,111186,128,0,111458:0:0:0:0:
448,192,111186,1,8,0:0:0:0:
320,192,111458,1,0,0:0:0:0:
192,192,111731,1,0,0:0:0:0:
448,192,111731,1,8,0:0:0:0:
320,192,112004,1,0,0:0:0:55:clap.wav
64,192,112277,1,0,0:0:0:0:
448,192,112277,1,8,0:0:0:0:
64,192,112549,1,8,0:0:0:0:
192,192,112549,1,0,0:0:0:0:
320,192,112822,1,8,0:0:0:0:
192,192,112822,1,0,0:0:0:0:
320,192,113095,1,0,0:0:0:0:
448,192,113095,1,8,0:0:0:0:
64,192,113367,1,0,0:0:0:0:
448,192,113367,1,4,0:0:0:0:
192,192,113367,128,2,113640:0:0:0:0:
64,192,113640,1,8,0:0:0:0:
320,192,113640,1,0,0:0:0:0:
192,192,113913,128,2,114186:0:0:0:0:
320,192,114186,1,0,0:0:0:0:
448,192,114186,1,8,0:0:0:0:
64,192,114367,1,2,0:0:0:0:
320,192,114458,1,2,0:0:0:0:
192,192,114640,1,2,0:0:0:0:
320,192,114731,1,0,0:0:0:0:
448,192,114731,1,8,0:0:0:0:
192,192,114913,1,2,0:0:0:0:
64,192,115004,1,2,0:0:0:0:
320,192,115186,1,0,0:0:0:0:
192,192,115277,1,0,0:0:0:0:
448,192,115277,1,8,0:0:0:0:
64,192,115549,1,0,0:0:0:0:
448,192,115549,1,4,0:0:0:0:
320,192,115549,128,2,115822:0:0:0:0:
192,192,115822,1,0,0:0:0:0:
64,192,115822,1,8,0:0:0:0:
448,192,116004,1,2,0:0:0:0:
320,192,116004,1,0,0:0:0:0:
192,192,116277,1,0,0:0:0:0:
320,192,116367,1,0,0:0:0:0:
64,192,116367,1,8,0:0:0:0:
448,192,116367,128,4,116640:0:0:0:0:
320,192,116822,1,2,0:0:0:0:
192,192,116913,1,0,0:0:0:0:
64,192,116913,1,8,0:0:0:0:
320,192,117095,1,2,0:0:0:0:
448,192,117186,1,0,0:0:0:0:
320,192,117277,1,0,0:0:0:0:
192,192,117367,1,0,0:0:0:0:
64,192,117458,1,8,0:0:0:0:
64,192,117731,1,4,0:0:0:0:
192,192,117731,1,0,0:0:0:0:
448,192,117731,1,2,0:0:0:0:
320,192,117913,1,0,0:0:0:0:
448,192,118004,1,8,0:0:0:0:
192,192,118004,1,0,0:0:0:0:
448,192,118277,1,2,0:0:0:0:
64,192,118277,1,0,0:0:0:0:
192,192,118458,1,0,0:0:0:0:
320,192,118549,1,0,0:0:0:0:
64,192,118549,1,8,0:0:0:0:
448,192,118731,1,2,0:0:0:0:
64,192,118822,1,0,0:0:0:0:
192,192,118822,1,0,0:0:0:0:
320,192,119004,1,2,0:0:0:0:
192,192,119095,1,0,0:0:0:0:
448,192,119095,1,8,0:0:0:0:
64,192,119277,1,2,0:0:0:0:
320,192,119367,1,0,0:0:0:0:
448,192,119367,1,2,0:0:0:0:
192,192,119549,1,0,0:0:0:0:
64,192,119640,1,8,0:0:0:0:
320,192,119640,1,0,0:0:0:0:
192,192,119822,1,0,0:0:0:0:
320,192,119913,1,0,0:0:0:0:
448,192,119913,1,4,0:0:0:0:
64,192,119913,1,2,0:0:0:0:
192,192,120095,1,0,0:0:0:0:
320,192,120186,1,2,0:0:0:0:
64,192,120458,1,2,0:0:0:0:
448,192,120458,1,8,0:0:0:0:
320,192,120640,1,0,0:0:0:0:
192,192,120731,1,0,0:0:0:0:
320,192,121004,1,0,0:0:0:0:
448,192,121004,1,8,0:0:0:0:
64,192,121186,1,0,0:0:0:0:
320,192,121277,1,2,0:0:0:0:
64,192,121549,1,8,0:0:0:0:
192,192,121549,1,0,0:0:0:0:
192,192,121822,1,0,0:0:0:0:
448,192,121822,1,4,0:0:0:0:
64,192,121822,1,8,0:0:0:0:
320,192,122095,128,0,123186:0:0:0:55:end.wav
64,192,123186,128,0,124504:0:0:0:55:end.wav
