osu file format v14

[General]
AudioFilename: audio.mp3
AudioLeadIn: 0
PreviewTime: 49547
Countdown: 0
SampleSet: Normal
StackLeniency: 0.7
Mode: 1
LetterboxInBreaks: 0
WidescreenStoryboard: 1

[Editor]
DistanceSpacing: 0.1
BeatDivisor: 4
GridSize: 32
TimelineZoom: 2.1

[Metadata]
Title:FUJIMORI -Matsuri- FESTIVAL
TitleUnicode:FUJIMORI -чен- FESTIVAL
Artist:VENUS
ArtistUnicode:VENUS
Creator:Nyan
Version:Muzukashii
Source:REFLEC BEAT groovin'!!
Tags:DJ YOSHITAKA Sota Fujimori
BeatmapID:1015548
BeatmapSetID:475311

[Difficulty]
HPDrainRate:5
CircleSize:2
OverallDifficulty:5
ApproachRate:10
SliderMultiplier:1.4
SliderTickRate:1

[Events]
//Background and Video events
0,0,"fujimori.jpg",0,100
//Break Periods
//Storyboard Layer 0 (Background)
//Storyboard Layer 1 (Fail)
//Storyboard Layer 2 (Pass)
//Storyboard Layer 3 (Foreground)
//Storyboard Sound Samples

[TimingPoints]
560,379.746835443038,4,1,0,100,1,0
50686,-100,4,1,0,100,0,1
74990,-100,4,1,0,100,0,0

[HitObjects]
256,192,560,5,0,0:0:0:0:
256,192,749,1,8,0:0:0:0:
256,192,1129,1,8,0:0:0:0:
256,192,1319,1,0,0:0:0:0:
256,192,1699,1,8,0:0:0:0:
256,192,2078,1,0,0:0:0:0:
256,192,2268,1,8,0:0:0:0:
256,192,2648,1,8,0:0:0:0:
256,192,2838,1,0,0:0:0:0:
256,192,3028,1,8,0:0:0:0:
256,192,3218,1,8,0:0:0:0:
256,192,3408,1,8,0:0:0:0:
256,192,3597,1,0,0:0:0:0:
256,192,3787,1,8,0:0:0:0:
256,192,4167,1,8,0:0:0:0:
256,192,4357,1,0,0:0:0:0:
256,192,4737,1,8,0:0:0:0:
256,192,5116,1,4,0:0:0:0:
256,192,5306,1,8,0:0:0:0:
256,192,5686,1,8,0:0:0:0:
256,192,6066,1,8,0:0:0:0:
256,192,6256,1,8,0:0:0:0:
256,192,6446,1,8,0:0:0:0:
256,192,6635,1,0,0:0:0:0:
256,192,6920,1,0,0:0:0:0:
256,192,7015,1,0,0:0:0:0:
256,192,7205,1,8,0:0:0:0:
256,192,7395,1,0,0:0:0:0:
256,192,7775,1,8,0:0:0:0:
256,192,8154,1,0,0:0:0:0:
256,192,8439,1,0,0:0:0:0:
256,192,8534,1,0,0:0:0:0:
256,192,8724,1,8,0:0:0:0:
256,192,8914,1,0,0:0:0:0:
256,192,9294,1,8,0:0:0:0:
256,192,9484,1,8,0:0:0:0:
256,192,9673,1,0,0:0:0:0:
256,192,9958,1,0,0:0:0:0:
256,192,10053,1,0,0:0:0:0:
256,192,10243,1,8,0:0:0:0:
256,192,10433,1,0,0:0:0:0:
256,192,10813,1,8,0:0:0:0:
256,192,11192,1,0,0:0:0:0:
256,192,11382,1,0,0:0:0:0:
256,192,11572,1,8,0:0:0:0:
256,192,11762,1,8,0:0:0:0:
256,192,11952,1,0,0:0:0:0:
256,192,12142,1,8,0:0:0:0:
256,192,12332,1,0,0:0:0:0:
256,192,12711,1,0,0:0:0:0:
256,192,12996,1,0,0:0:0:0:
256,192,13091,1,0,0:0:0:0:
256,192,13281,1,8,0:0:0:0:
256,192,13471,1,0,0:0:0:0:
256,192,13851,1,8,0:0:0:0:
256,192,14230,1,0,0:0:0:0:
256,192,14515,1,0,0:0:0:0:
256,192,14610,1,0,0:0:0:0:
256,192,14800,1,8,0:0:0:0:
256,192,14990,1,0,0:0:0:0:
256,192,15370,1,8,0:0:0:0:
256,192,15560,1,8,0:0:0:0:
256,192,15749,1,0,0:0:0:0:
256,192,16034,1,8,0:0:0:0:
256,192,16129,1,8,0:0:0:0:
256,192,16319,1,8,0:0:0:0:
256,192,16509,1,0,0:0:0:0:
256,192,16889,1,8,0:0:0:0:
256,192,17268,1,0,0:0:0:0:
256,192,17553,1,0,0:0:0:0:
256,192,17648,1,0,0:0:0:0:
256,192,17838,1,0,0:0:0:0:
256,192,18028,1,8,0:0:0:0:
256,192,18408,1,8,0:0:0:0:
256,192,18787,1,4,0:0:0:0:
256,192,19167,1,8,0:0:0:0:
256,192,19357,1,0,0:0:0:0:
256,192,19737,1,0,0:0:0:0:
256,192,19927,1,8,0:0:0:0:
256,192,20116,1,0,0:0:0:0:
256,192,20306,1,0,0:0:0:0:
256,192,20591,1,8,0:0:0:0:
256,192,20686,1,8,0:0:0:0:
256,192,20876,1,0,0:0:0:0:
256,192,21066,1,8,0:0:0:0:
256,192,21446,1,8,0:0:0:0:
256,192,21635,1,0,0:0:0:0:
256,192,21825,1,0,0:0:0:0:
256,192,22205,1,8,0:0:0:0:
256,192,22395,1,0,0:0:0:0:
256,192,22775,1,0,0:0:0:0:
256,192,22965,1,8,0:0:0:0:
256,192,23154,1,0,0:0:0:0:
256,192,23344,1,0,0:0:0:0:
256,192,23629,1,0,0:0:0:0:
256,192,23724,1,0,0:0:0:0:
256,192,23914,1,0,0:0:0:0:
256,192,24104,1,0,0:0:0:0:
256,192,24484,1,8,0:0:0:0:
256,192,24863,1,0,0:0:0:0:
256,192,25148,1,0,0:0:0:0:
256,192,25243,1,0,0:0:0:0:
256,192,25433,1,0,0:0:0:0:
256,192,25623,1,0,0:0:0:0:
256,192,26003,1,8,0:0:0:0:
256,192,26382,1,0,0:0:0:0:
256,192,26667,1,0,0:0:0:0:
256,192,26762,1,0,0:0:0:0:
256,192,26952,1,0,0:0:0:0:
256,192,27142,1,0,0:0:0:0:
256,192,27522,1,8,0:0:0:0:
256,192,27901,1,0,0:0:0:0:
256,192,28186,1,0,0:0:0:0:
256,192,28281,1,0,0:0:0:0:
256,192,28471,1,8,0:0:0:0:
256,192,28661,1,0,0:0:0:0:
256,192,29041,1,8,0:0:0:0:
256,192,29420,1,0,0:0:0:0:
256,192,29705,1,0,0:0:0:0:
256,192,29800,1,0,0:0:0:0:
256,192,29990,1,8,0:0:0:0:
256,192,30180,1,0,0:0:0:0:
256,192,30560,1,8,0:0:0:0:
256,192,30939,1,4,0:0:0:0:
256,192,31129,1,0,0:0:0:0:
256,192,31319,1,8,0:0:0:0:
256,192,31509,1,0,0:0:0:0:
256,192,31699,1,8,0:0:0:0:
256,192,32078,1,8,0:0:0:0:
256,192,32268,1,8,0:0:0:0:
256,192,32458,1,0,0:0:0:0:
256,192,32743,1,0,0:0:0:0:
256,192,32838,1,0,0:0:0:0:
256,192,33028,1,0,0:0:0:0:
256,192,33218,1,8,0:0:0:0:
256,192,33597,1,8,0:0:0:0:
256,192,33787,1,8,0:0:0:0:
256,192,33977,1,0,0:0:0:0:
256,192,34167,1,0,0:0:0:0:
256,192,34357,1,8,0:0:0:0:
256,192,34547,1,0,0:0:0:0:
256,192,34737,1,8,0:0:0:0:
256,192,35022,1,8,0:0:0:0:
256,192,35116,1,8,0:0:0:0:
256,192,35306,1,0,0:0:0:0:
256,192,35496,1,0,0:0:0:0:
256,192,35781,1,0,0:0:0:0:
256,192,35876,1,0,0:0:0:0:
256,192,36066,1,8,0:0:0:0:
256,192,36256,1,0,0:0:0:0:
256,192,36635,1,8,0:0:0:0:
256,192,37015,1,0,0:0:0:0:
256,192,37205,1,0,0:0:0:0:
256,192,37395,1,8,0:0:0:0:
256,192,37585,1,0,0:0:0:0:
256,192,37775,1,8,0:0:0:0:
256,192,38060,1,8,0:0:0:0:
256,192,38154,1,8,0:0:0:0:
256,192,38344,1,8,0:0:0:0:
256,192,38534,1,0,0:0:0:0:
256,192,38819,1,8,0:0:0:0:
256,192,38914,1,8,0:0:0:0:
256,192,39104,1,0,0:0:0:0:
256,192,39294,1,8,0:0:0:0:
256,192,39673,1,8,0:0:0:0:
256,192,39863,1,8,0:0:0:0:
256,192,40053,1,0,0:0:0:0:
256,192,40243,1,8,0:0:0:0:
256,192,40433,1,8,0:0:0:0:
256,192,40623,1,0,0:0:0:0:
256,192,40813,1,8,0:0:0:0:
256,192,41097,1,8,0:0:0:0:
256,192,41192,1,8,0:0:0:0:
256,192,41382,1,8,0:0:0:0:
256,192,41572,1,0,0:0:0:0:
256,192,41762,1,0,0:0:0:0:
256,192,41857,1,0,0:0:0:0:
256,192,41952,1,0,0:0:0:0:
256,192,42142,1,8,0:0:0:0:
256,192,42332,1,0,0:0:0:0:
256,192,42711,1,8,0:0:0:0:
256,192,43091,1,4,0:0:0:0:
256,192,43281,1,0,0:0:0:0:
256,192,43471,1,8,0:0:0:0:
256,192,43851,1,0,0:0:0:0:
256,192,44041,1,8,0:0:0:0:
256,192,44230,1,8,0:0:0:0:
256,192,44610,1,4,0:0:0:0:
256,192,44800,1,0,0:0:0:0:
256,192,44990,1,8,0:0:0:0:
256,192,45370,1,0,0:0:0:0:
256,192,45560,1,8,0:0:0:0:
256,192,45749,1,8,0:0:0:0:
256,192,46129,1,4,0:0:0:0:
256,192,46319,1,8,0:0:0:0:
256,192,46509,1,0,0:0:0:0:
256,192,46699,1,8,0:0:0:0:
256,192,46889,1,0,0:0:0:0:
256,192,47078,1,8,0:0:0:0:
256,192,47268,1,0,0:0:0:0:
256,192,47458,1,8,0:0:0:0:
256,192,47648,1,0,0:0:0:0:
256,192,47933,1,0,0:0:0:0:
256,192,48028,1,0,0:0:0:0:
256,192,48218,1,0,0:0:0:0:
256,192,48408,1,0,0:0:0:0:
256,192,48503,1,0,0:0:0:0:
256,192,48597,1,0,0:0:0:0:
256,192,48787,1,8,0:0:0:0:
256,192,48882,1,8,0:0:0:0:
256,192,48977,1,8,0:0:0:0:
256,192,49167,12,0,50306,0:0:0:0:
256,192,50686,5,4,0:0:0:0:
256,192,50876,1,8,0:0:0:0:
256,192,50971,1,8,0:0:0:0:
256,192,51256,1,8,0:0:0:0:
256,192,51446,1,8,0:0:0:0:
256,192,51635,1,0,0:0:0:0:
256,192,51825,1,8,0:0:0:0:
256,192,52015,1,8,0:0:0:0:
256,192,52205,1,0,0:0:0:0:
256,192,52395,1,8,0:0:0:0:
256,192,52490,1,8,0:0:0:0:
256,192,52775,1,8,0:0:0:0:
256,192,52965,1,8,0:0:0:0:
256,192,53154,1,0,0:0:0:0:
256,192,53344,1,0,0:0:0:0:
256,192,53534,1,8,0:0:0:0:
256,192,53724,1,0,0:0:0:0:
256,192,54104,1,8,0:0:0:0:
256,192,54294,1,0,0:0:0:0:
256,192,54673,1,0,0:0:0:0:
256,192,54863,1,8,0:0:0:0:
256,192,55053,1,4,0:0:0:0:
256,192,55623,1,0,0:0:0:0:
256,192,55813,1,8,0:0:0:0:
256,192,56003,1,8,0:0:0:0:
256,192,56192,1,8,0:0:0:0:
256,192,56382,1,0,0:0:0:0:
256,192,56572,1,0,0:0:0:0:
256,192,56762,1,0,0:0:0:0:
256,192,57142,1,8,0:0:0:0:
256,192,57332,1,0,0:0:0:0:
256,192,57427,1,0,0:0:0:0:
256,192,57522,1,0,0:0:0:0:
256,192,57711,1,0,0:0:0:0:
256,192,57901,1,8,0:0:0:0:
256,192,58091,1,0,0:0:0:0:
256,192,58471,1,8,0:0:0:0:
256,192,58851,1,0,0:0:0:0:
256,192,58946,1,0,0:0:0:0:
256,192,59041,1,0,0:0:0:0:
256,192,59230,1,8,0:0:0:0:
256,192,59420,1,8,0:0:0:0:
256,192,59610,1,8,0:0:0:0:
256,192,59800,1,0,0:0:0:0:
256,192,60180,1,8,0:0:0:0:
256,192,60370,1,0,0:0:0:0:
256,192,60749,1,8,0:0:0:0:
256,192,61129,1,8,0:0:0:0:
256,192,61319,1,0,0:0:0:0:
256,192,61414,1,0,0:0:0:0:
256,192,61509,1,0,0:0:0:0:
256,192,61699,1,8,0:0:0:0:
256,192,61889,1,8,0:0:0:0:
256,192,62078,1,0,0:0:0:0:
256,192,62268,1,0,0:0:0:0:
256,192,62458,1,8,0:0:0:0:
256,192,62838,1,4,0:0:0:0:
256,192,63028,1,8,0:0:0:0:
256,192,63123,1,8,0:0:0:0:
256,192,63408,1,8,0:0:0:0:
256,192,63597,1,8,0:0:0:0:
256,192,63787,1,0,0:0:0:0:
256,192,63977,1,8,0:0:0:0:
256,192,64167,1,8,0:0:0:0:
256,192,64357,1,0,0:0:0:0:
256,192,64547,1,8,0:0:0:0:
256,192,64642,1,8,0:0:0:0:
256,192,64927,1,8,0:0:0:0:
256,192,65116,1,8,0:0:0:0:
256,192,65306,1,0,0:0:0:0:
256,192,65496,1,0,0:0:0:0:
256,192,65686,1,8,0:0:0:0:
256,192,65876,1,0,0:0:0:0:
256,192,66256,1,8,0:0:0:0:
256,192,66446,1,0,0:0:0:0:
256,192,66825,1,0,0:0:0:0:
256,192,67015,1,8,0:0:0:0:
256,192,67205,1,4,0:0:0:0:
256,192,67775,1,0,0:0:0:0:
256,192,67965,1,8,0:0:0:0:
256,192,68154,1,8,0:0:0:0:
256,192,68344,1,8,0:0:0:0:
256,192,68534,1,0,0:0:0:0:
256,192,68724,1,0,0:0:0:0:
256,192,68914,1,0,0:0:0:0:
256,192,69294,1,8,0:0:0:0:
256,192,69484,1,0,0:0:0:0:
256,192,69578,1,0,0:0:0:0:
256,192,69673,1,0,0:0:0:0:
256,192,69863,1,0,0:0:0:0:
256,192,70053,1,8,0:0:0:0:
256,192,70243,1,0,0:0:0:0:
256,192,70623,1,8,0:0:0:0:
256,192,71003,1,0,0:0:0:0:
256,192,71097,1,0,0:0:0:0:
256,192,71192,1,0,0:0:0:0:
256,192,71382,1,0,0:0:0:0:
256,192,71572,1,8,0:0:0:0:
256,192,71762,1,8,0:0:0:0:
256,192,71952,1,0,0:0:0:0:
256,192,72332,1,8,0:0:0:0:
256,192,72522,1,0,0:0:0:0:
256,192,72616,1,0,0:0:0:0:
256,192,72711,1,0,0:0:0:0:
256,192,72901,1,8,0:0:0:0:
256,192,73091,1,0,0:0:0:0:
256,192,73281,1,0,0:0:0:0:
256,192,73471,1,12,0:0:0:0:
256,192,73851,1,12,0:0:0:0:
256,192,74230,1,4,0:0:0:0:
256,192,74420,1,0,0:0:0:0:
256,192,74515,1,0,0:0:0:0:
256,192,74610,1,0,0:0:0:0:
256,192,74990,1,0,0:0:0:0:
256,192,75275,1,0,0:0:0:0:
256,192,75370,1,0,0:0:0:0:
256,192,75560,1,8,0:0:0:0:
256,192,75750,1,0,0:0:0:0:
256,192,76130,1,8,0:0:0:0:
256,192,76509,1,0,0:0:0:0:
256,192,76794,1,0,0:0:0:0:
256,192,76889,1,0,0:0:0:0:
256,192,77079,1,0,0:0:0:0:
256,192,77269,1,0,0:0:0:0:
256,192,77458,1,8,0:0:0:0:
256,192,77649,1,8,0:0:0:0:
256,192,77839,1,8,0:0:0:0:
256,192,78028,1,0,0:0:0:0:
256,192,78313,1,0,0:0:0:0:
256,192,78408,1,0,0:0:0:0:
256,192,78598,1,8,0:0:0:0:
256,192,78788,1,0,0:0:0:0:
256,192,79168,1,8,0:0:0:0:
256,192,79547,1,0,0:0:0:0:
256,192,79737,1,0,0:0:0:0:
256,192,79927,1,0,0:0:0:0:
256,192,80117,1,8,0:0:0:0:
256,192,80307,1,0,0:0:0:0:
256,192,80497,1,0,0:0:0:0:
256,192,80591,1,0,0:0:0:0:
256,192,80687,1,0,0:0:0:0:
256,192,80876,1,0,0:0:0:0:
256,192,81066,1,0,0:0:0:0:
256,192,81351,1,0,0:0:0:0:
256,192,81446,1,0,0:0:0:0:
256,192,81636,1,8,0:0:0:0:
256,192,81826,1,0,0:0:0:0:
256,192,82206,1,8,0:0:0:0:
256,192,82585,1,0,0:0:0:0:
256,192,82870,1,0,0:0:0:0:
256,192,82965,1,0,0:0:0:0:
256,192,83155,1,8,0:0:0:0:
256,192,83345,1,0,0:0:0:0:
256,192,83535,1,8,0:0:0:0:
256,192,83725,1,8,0:0:0:0:
256,192,83914,1,8,0:0:0:0:
256,192,84104,1,0,0:0:0:0:
256,192,84389,1,8,0:0:0:0:
256,192,84484,1,8,0:0:0:0:
256,192,84674,1,8,0:0:0:0:
256,192,84864,1,0,0:0:0:0:
256,192,85243,1,8,0:0:0:0:
256,192,85623,1,0,0:0:0:0:
256,192,85908,1,0,0:0:0:0:
256,192,86003,1,0,0:0:0:0:
256,192,86193,1,0,0:0:0:0:
256,192,86383,1,4,0:0:0:0:
256,192,87142,1,0,0:0:0:0:
256,192,87522,1,0,0:0:0:0:
256,192,87901,1,0,0:0:0:0:
256,192,88281,1,0,0:0:0:0:
256,192,88661,1,8,0:0:0:0:
256,192,88851,1,0,0:0:0:0:
256,192,89041,1,8,0:0:0:0:
256,192,89230,1,0,0:0:0:0:
256,192,89420,1,8,0:0:0:0:
256,192,89610,1,0,0:0:0:0:
256,192,89800,1,8,0:0:0:0:
256,192,89990,1,0,0:0:0:0:
256,192,90180,1,0,0:0:0:0:
256,192,90560,1,0,0:0:0:0:
256,192,90939,1,0,0:0:0:0:
256,192,91319,1,0,0:0:0:0:
256,192,91699,1,0,0:0:0:0:
256,192,92078,1,8,0:0:0:0:
256,192,92268,1,0,0:0:0:0:
256,192,92363,1,0,0:0:0:0:
256,192,92458,1,0,0:0:0:0:
256,192,92648,1,0,0:0:0:0:
256,192,92838,1,8,0:0:0:0:
256,192,93028,1,0,0:0:0:0:
256,192,93218,1,0,0:0:0:0:
256,192,93597,1,0,0:0:0:0:
256,192,93977,1,0,0:0:0:0:
256,192,94357,1,0,0:0:0:0:
256,192,94737,1,8,0:0:0:0:
256,192,94927,1,0,0:0:0:0:
256,192,95022,1,0,0:0:0:0:
256,192,95116,1,0,0:0:0:0:
256,192,95306,1,0,0:0:0:0:
256,192,95496,1,8,0:0:0:0:
256,192,95686,1,0,0:0:0:0:
256,192,95876,1,0,0:0:0:0:
256,192,96066,1,0,0:0:0:0:
256,192,96256,1,8,0:0:0:0:
256,192,96635,1,8,0:0:0:0:
256,192,97015,1,0,0:0:0:0:
256,192,97205,1,8,0:0:0:0:
256,192,97395,1,8,0:0:0:0:
256,192,97775,1,0,0:0:0:0:
256,192,98060,1,0,0:0:0:0:
256,192,98154,1,0,0:0:0:0:
256,192,98344,1,0,0:0:0:0:
256,192,98534,1,0,0:0:0:0:
256,192,98724,1,8,0:0:0:0:
256,192,98819,1,8,0:0:0:0:
256,192,98914,1,8,0:0:0:0:
256,192,99104,1,8,0:0:0:0:
256,192,99294,1,4,0:0:0:0:
256,192,101003,1,4,0:0:0:0:
256,192,101192,1,4,0:0:0:0:
256,192,101382,1,0,0:0:0:0:
256,192,101477,1,0,0:0:0:0:
256,192,101572,1,0,0:0:0:0:
256,192,101762,1,8,0:0:0:0:
256,192,101952,1,8,0:0:0:0:
