osu file format v14

[General]
AudioFilename: Stay Alive.mp3
AudioLeadIn: 0
PreviewTime: 118855
Countdown: 1
SampleSet: Soft
StackLeniency: 0.7
Mode: 0
LetterboxInBreaks: 1
WidescreenStoryboard: 0

[Editor]
Bookmarks: 40,8398,9592,19144,28696,29890,31084,40637,50189,54965,64517,74069,83622,93174,95562,105114,114666,119442,128995,138547,143323,152801
DistanceSpacing: 0.9
BeatDivisor: 4
GridSize: 4
TimelineZoom: 2.799999

[Metadata]
Title:FUNKOT COMPILATIONS
TitleUnicode:FUNKOT COMPILATIONS
Artist:VARIOUS ARTISTS
ArtistUnicode:VARIOUS ARTISTS
Creator:Aikyuu-Chan
Version:Stay Alive EXTRA
Source:
Tags:Love Live! Sunshine!! ラブライブ!サンシャイン!! DJ Ramakun Aqours Aquors anime school idol project Inami Anju 伊波杏樹 Aida Rikako 逢田梨香子 Suwa Nanaka 諏訪ななか Komiya Arisa 小宮有紗 Saito Shuka 斉藤朱夏 Kobayashi Aika 小林愛香 Takatsuki Kanako 高槻かなこ Suzuki Aina 鈴木愛奈 Furihata Ai 降幡 愛 Takami Chika 高海千歌 Sakurauchi Riko 桜内梨子 Matsuura Kanan 松浦果南 Kurosawa Dia 黒澤ダイヤ Watanabe You 渡辺 曜 Tsushima Yoshiko 津島善子 Kunikida Hanamaru 国木田花丸 Ohara Mari 小原鞠莉 Kurosawa Ruby 黒澤ルビィ Funkot Dangdut Sedikit Dugem Drum n Bass DDB DJ™ Richiter Dangdut Dugem Goyang Joget Sawer Indonesia Loli Lolicon Moe Cafe gochuumon wa usagi desu ka is the order a rabbit gochiusa ごちうさ season two 2 op opening sakura ayane 佐倉綾音 hoto cocoa 保登心愛 ココア minase inori 水瀬いのり kafuu chino 香風智乃 チノ taneda risa 種田梨沙 tedeza rize 天々座理世 リゼ satou satomi 佐藤聡美 ujimatsu chiya 宇治松千夜 uchida maaya 内田真礼 kirima syaro 桐間紗路 シャロ Petit Rabbit's Re:ゼロから始める異世界生活 Anime Re: Zero Kara Hajimeru Isekai Seikatsu Life in a different world from zero Re:zero Tv Size Ed Ending EMILIA Rem Ram Subaru Indonesia Dangdut Dugem AKI Feat. Ramakun 熱闘!BEMANIスタジアム BEMANI Beatmania IIDX DDR pop'n jubeat reflec beat GITADORA ミライダガッキ SOUND VOLTEX II りす Risu dropout gabdro dropkick ガヴドロ opening tv size tenma gabriel white 天真・ガヴリール・ホワイト tsukinose vignette april 月乃瀬・ヴィネット・エイプリル vigne ヴィーネ kurumizawa satanichia mcdowell 胡桃沢・サタニキア・マクドウェル satania サターニャ shiraha raphiel ainsworth 白羽・ラフィエル・エインズワース Plastic Memories tv size anime attack on titan opening shingeki no kyojin 進撃の巨人 SnK Guren no Yumiya armin arlert levi erin jaeger mikasa indomie macross delta walkure マクロスΔ Sono Hanabira no Kuchizuke Wo Sonohana Yuri 学戦都市アスタリスクTHE ASTERISK WAR The Academy City on the Water Gakusen Toshi Asterisk Shiena Nishizawa Brand-new World ClariS エロマンガ先生 ヒトリゴト -TV MIX- Hitorigoto eromanga sensei ero manga eromanga-sensei eromangasensei opening tv size happy party train rokudenashi jinrui wa suitai shimashita
BeatmapID:1272950
BeatmapSetID:602628

[Difficulty]
HPDrainRate:0
CircleSize:4
OverallDifficulty:9
ApproachRate:9.5
SliderMultiplier:2.01
SliderTickRate:1

[Events]
//Background and Video events
0,0,"BG.jpg",0,0
//Break Periods
//Storyboard Layer 0 (Background)
//Storyboard Layer 1 (Fail)
//Storyboard Layer 2 (Pass)
//Storyboard Layer 3 (Foreground)
//Storyboard Layer 4 (Overlay)
//Storyboard Sound Samples

[TimingPoints]
60,298.507462686567,4,2,0,80,1,0
60,-76.9230769230769,4,2,0,80,0,0
8418,-66.6666666666667,4,2,0,80,0,0
9612,-100,4,2,0,80,0,1
9686,-125,4,2,0,80,0,0
19164,-100,4,2,0,80,0,1
19239,-117.647058823529,4,2,0,80,0,0
28716,-133.333333333333,4,2,0,80,0,0
29015,-142.857142857143,4,2,0,80,0,0
29313,-153.846153846153,4,2,0,80,0,0
29612,-166.666666666667,4,2,0,80,0,0
29910,-153.846153846154,4,2,0,80,0,0
30059,-142.857142857143,4,2,0,80,0,0
30209,-133.333333333333,4,2,0,80,0,0
30358,-125,4,2,0,80,0,0
30507,-117.647058823529,4,2,0,80,0,0
30657,-111.111111111111,4,2,0,80,0,0
30806,-105.263157894737,4,2,0,80,0,0
30955,-100,4,2,0,80,0,0
31104,-100,4,2,0,80,0,1
31179,-125,4,2,0,80,0,0
40657,-111.111111111111,4,2,0,80,0,0
50209,-181.818181818181,4,2,0,80,0,0
54985,-66.6666666666667,4,2,0,80,0,1
64239,-100,4,2,0,80,0,0
64537,-66.6666666666667,4,2,0,80,0,1
74089,-125,4,2,0,80,0,0
83642,-100,4,2,0,80,0,1
83716,-117.647058823529,4,2,0,80,0,0
93194,-133.333333333333,4,2,0,80,0,0
93492,-142.857142857143,4,2,0,80,0,0
93791,-153.846153846153,4,2,0,80,0,0
94089,-166.666666666667,4,2,0,80,0,0
94388,-100,4,2,0,80,0,0
95582,-100,4,2,0,80,0,1
95657,-117.647058823529,4,2,0,80,0,0
105134,-100,4,2,0,80,0,1
105209,-105.263157894737,4,2,0,80,0,0
114686,-153.846153846153,4,2,0,80,0,0
118865,-200,4,2,0,80,0,0
119462,-62.5,4,2,0,80,0,1
128716,-100,4,2,0,80,0,0
129015,-62.5,4,2,0,80,0,1
138567,-133.333333333333,4,2,0,80,0,0
143343,-100,4,2,0,80,0,1
143418,-117.647058823529,4,2,0,80,0,0

[HitObjects]
256,192,60,12,0,2149,0:0:0:0:
314,209,2448,6,0,P|318:133|214:109,1,195.974991028977
224,196,2746,6,0,B|160:216|160:216|100:196,2,130.649994019318
336,64,3194,1,0,0:0:0:0:
364,108,3268,1,0,0:0:0:0:
360,160,3343,2,0,P|344:224|372:292,1,130.649994019318
200,260,3642,6,0,P|136:236|76:256,2,130.649994019318
344,328,4089,1,0,0:0:0:0:
200,260,4239,2,0,L|244:192,1,65.3249970096589
252,172,4388,2,0,P|192:144|124:164,2,130.649994019318
380,260,4836,6,0,P|408:320|468:352,2,130.649994019318
336,136,5283,2,0,P|272:112|200:140,2,130.649994019318
340,188,5657,1,0,0:0:0:0:
336,240,5731,2,0,P|273:256|214:232,1,130.649994019318
148,56,6030,5,0,0:0:0:0:
68,288,6179,1,0,0:0:0:0:
188,52,6328,1,0,0:0:0:0:
56,304,6477,1,0,0:0:0:0:
56,304,6552,1,0,0:0:0:0:
56,304,6627,1,0,0:0:0:0:
204,48,6776,1,0,0:0:0:0:
232,328,6925,1,0,0:0:0:0:
104,52,7074,1,0,0:0:0:0:
180,252,7224,6,0,B|228:268|248:232|248:232|304:220,2,130.649994019318
276,144,7671,2,0,B|328:132|324:80|324:80|368:32,2,130.649994019318
224,160,8045,1,0,0:0:0:0:
176,140,8119,2,0,P|148:200|184:276,1,130.649994019318
256,176,8418,5,0,0:0:0:0:
256,192,8492,12,0,9313,0:0:0:0:
256,112,9462,5,0,0:0:0:0:
160,220,9612,6,0,P|184:268|232:288,1,100.5
320,164,9910,2,0,P|352:136|400:132,2,80.4
368,256,10358,1,0,0:0:0:0:
280,332,10507,2,0,P|232:348|192:340,2,80.4
236,220,10955,1,0,0:0:0:0:
148,128,11104,2,0,P|168:88|200:72,2,80.4
116,240,11552,1,0,0:0:0:0:
116,240,11701,2,0,P|132:288|168:320,1,80.4
336,152,12000,6,0,L|408:88,1,80.4
148,108,12298,1,0,0:0:0:0:
360,340,12448,1,0,0:0:0:0:
272,32,12597,1,0,0:0:0:0:
160,308,12746,1,0,0:0:0:0:
440,152,12895,2,0,L|432:256,1,80.4
135,219,13194,6,0,P|102:198|82:164,1,80.4
184,296,13492,2,0,P|240:304|276:288,1,80.4
376,76,13791,1,0,0:0:0:0:
288,304,13940,1,0,0:0:0:0:
380,72,14089,2,0,P|332:64|296:40,1,80.4
128,116,14388,6,0,P|108:160|108:208,1,80.4
192,336,14686,2,0,P|160:300|152:252,1,80.4
304,104,14985,5,0,0:0:0:0:
428,324,15134,1,0,0:0:0:0:
480,124,15283,1,0,0:0:0:0:
204,296,15433,1,0,0:0:0:0:
360,40,15582,1,0,0:0:0:0:
360,336,15731,1,0,0:0:0:0:
472,176,15880,1,0,0:0:0:0:
156,124,16030,1,0,0:0:0:0:
280,312,16179,6,0,P|324:320|364:312,2,80.4
232,192,16627,1,0,0:0:0:0:
280,72,16776,2,0,P|324:64|364:72,2,80.4
128,252,17224,1,0,0:0:0:0:
48,72,17373,1,0,0:0:0:0:
156,300,17522,1,0,0:0:0:0:
256,68,17671,1,0,0:0:0:0:
132,348,17821,1,0,0:0:0:0:
96,80,17970,5,0,0:0:0:0:
340,212,18119,2,0,L|344:244,4,20.1
360,312,18418,5,0,0:0:0:0:
64,72,18567,1,0,0:0:0:0:
216,332,18716,1,0,0:0:0:0:
296,80,18865,1,0,0:0:0:0:
52,244,19015,1,0,0:0:0:0:
52,244,19164,6,0,P|112:224|136:176,1,100.5
300,320,19462,1,0,0:0:0:0:
300,320,19612,1,0,0:0:0:0:
448,136,19761,6,0,P|400:160|376:208,1,85.4250016293526
212,64,20059,1,0,0:0:0:0:
108,228,20209,2,0,P|136:272|172:296,2,85.4250016293526
300,64,20657,5,0,0:0:0:0:
404,228,20806,2,0,P|376:272|340:296,2,85.4250016293526
140,64,21254,6,0,P|124:112|128:156,1,85.4250016293526
160,320,21552,1,0,0:0:0:0:
328,168,21701,1,0,0:0:0:0:
56,120,21851,2,0,P|32:76|28:32,2,85.4250016293526
384,280,22298,1,0,0:0:0:0:
212,72,22448,1,0,0:0:0:0:
52,320,22597,1,0,0:0:0:0:
292,176,22746,6,0,P|312:216|308:268,1,85.4250016293526
376,324,23045,2,0,P|412:296|432:244,2,85.4250016293526
272,356,23492,1,0,0:0:0:0:
192,276,23642,2,0,P|180:232|188:176,1,85.4250016293526
312,40,23940,6,0,L|352:80,3,42.7125008146763
280,152,24239,2,0,L|280:196,3,42.7125008146763
356,284,24537,2,0,L|400:304,3,42.7125008146763
456,204,24836,2,0,L|476:152,3,42.7125008146763
452,136,25134,5,0,0:0:0:0:
424,116,25209,1,0,0:0:0:0:
392,104,25283,1,0,0:0:0:0:
356,100,25358,1,0,0:0:0:0:
324,116,25433,1,0,0:0:0:0:
304,144,25507,1,0,0:0:0:0:
276,164,25582,1,0,0:0:0:0:
244,172,25657,1,0,0:0:0:0:
212,172,25731,1,0,0:0:0:0:
180,160,25806,1,0,0:0:0:0:
152,140,25880,1,0,0:0:0:0:
128,116,25955,1,0,0:0:0:0:
124,76,26030,2,0,L|140:28,3,42.7125008146763
176,48,26328,5,0,0:0:0:0:
208,68,26403,1,0,0:0:0:0:
244,72,26477,1,0,0:0:0:0:
280,60,26552,1,0,0:0:0:0:
312,40,26627,2,0,L|360:56,3,42.7125008146763
232,160,26925,2,0,L|208:112,3,42.7125008146763
172,120,27224,1,0,0:0:0:0:
140,140,27298,1,0,0:0:0:0:
128,176,27373,1,0,0:0:0:0:
136,212,27448,1,0,0:0:0:0:
156,244,27522,6,0,P|192:272|240:276,1,85.4250016293526
408,24,27821,1,0,0:0:0:0:
288,332,27970,1,0,0:0:0:0:
140,16,28119,1,0,0:0:0:0:
116,40,28194,1,0,0:0:0:0:
104,72,28268,1,0,0:0:0:0:
100,108,28343,1,0,0:0:0:0:
108,140,28418,1,0,0:0:0:0:
316,380,28567,1,0,0:0:0:0:
408,56,28716,6,0,L|400:132,1,75.3750028753282
104,56,29015,6,0,L|112:128,1,70.3499978530884
408,96,29313,6,0,L|400:168,1,65.3249970096589
104,96,29612,6,0,L|112:168,1,60.2999981597901
280,328,29910,5,0,0:0:0:0:
424,48,30059,1,0,0:0:0:0:
152,104,30209,1,0,0:0:0:0:
432,264,30358,1,0,0:0:0:0:
300,36,30507,1,0,0:0:0:0:
212,320,30657,1,0,0:0:0:0:
32,100,30806,1,0,0:0:0:0:
352,180,30955,1,0,0:0:0:0:
64,328,31104,6,0,P|120:336|176:328,1,100.5
220,300,31403,1,0,0:0:0:0:
248,244,31552,1,0,0:0:0:0:
308,268,31701,2,0,L|392:320,2,80.4
316,204,32149,2,0,P|340:152|372:128,1,80.4
416,160,32448,1,0,0:0:0:0:
432,224,32597,2,0,P|436:272|424:308,2,80.4
368,236,33045,1,0,0:0:0:0:
332,288,33194,1,0,0:0:0:0:
268,284,33343,1,0,0:0:0:0:
72,88,33492,6,0,P|112:72|164:76,1,80.4
188,124,33791,1,0,0:0:0:0:
244,152,33940,1,0,0:0:0:0:
308,144,34089,1,0,0:0:0:0:
360,108,34239,1,0,0:0:0:0:
424,108,34388,1,0,0:0:0:0:
476,144,34537,1,0,0:0:0:0:
288,348,34686,6,0,L|300:264,2,80.4
228,372,35134,1,0,0:0:0:0:
164,360,35283,1,0,0:0:0:0:
128,308,35433,1,0,0:0:0:0:
128,244,35582,1,0,0:0:0:0:
180,204,35731,1,0,0:0:0:0:
392,72,35880,6,0,P|400:120|384:176,1,80.4
56,276,36179,2,0,P|96:292|144:292,1,80.4
192,268,36477,1,0,0:0:0:0:
236,220,36627,1,0,0:0:0:0:
300,216,36776,1,0,0:0:0:0:
356,248,36925,1,0,0:0:0:0:
160,44,37074,6,0,P|132:80|128:120,1,80.4
152,172,37373,1,0,0:0:0:0:
208,200,37522,1,0,0:0:0:0:
272,188,37671,1,0,0:0:0:0:
328,216,37821,1,0,0:0:0:0:
364,272,37970,1,0,0:0:0:0:
384,332,38119,1,0,0:0:0:0:
456,60,38268,6,0,P|408:80|360:72,1,80.4
324,108,38567,2,0,P|296:148|280:204,2,80.4
320,44,39015,1,0,0:0:0:0:
256,52,39164,1,0,0:0:0:0:
224,108,39313,1,0,0:0:0:0:
380,276,39462,5,0,0:0:0:0:
356,324,39537,1,0,0:0:0:0:
312,352,39612,1,0,0:0:0:0:
260,348,39686,1,0,0:0:0:0:
212,324,39761,1,0,0:0:0:0:
196,276,39836,1,0,0:0:0:0:
208,224,39910,1,0,0:0:0:0:
208,172,39985,1,0,0:0:0:0:
192,124,40059,6,0,L|88:108,1,80.4
320,260,40358,2,0,L|424:276,1,80.4
100,44,40657,5,0,0:0:0:0:
52,120,40806,1,0,0:0:0:0:
76,208,40955,1,0,0:0:0:0:
152,260,41104,1,0,0:0:0:0:
236,224,41254,2,0,P|276:184|288:140,1,90.4499972396851
188,312,41552,2,0,P|240:328|288:328,2,90.4499972396851
128,244,42000,1,0,0:0:0:0:
132,152,42149,1,0,0:0:0:0:
196,88,42298,1,0,0:0:0:0:
280,120,42448,1,0,0:0:0:0:
308,208,42597,1,0,0:0:0:0:
392,244,42746,1,0,0:0:0:0:
448,176,42895,1,0,0:0:0:0:
64,336,43045,6,0,P|48:288|56:244,1,90.4499972396851
132,204,43343,1,0,0:0:0:0:
168,120,43492,1,0,0:0:0:0:
108,52,43642,1,0,0:0:0:0:
40,112,43791,1,0,0:0:0:0:
48,204,43940,1,0,0:0:0:0:
136,228,44089,1,0,0:0:0:0:
384,56,44239,6,0,P|396:108|384:156,1,90.4499972396851
308,188,44537,1,0,0:0:0:0:
360,264,44686,2,0,P|376:312|364:360,2,90.4499972396851
284,312,45134,2,0,P|232:320|184:312,1,90.4499972396851
60,52,45358,1,0,0:0:0:0:
60,52,45433,6,0,P|120:60|160:52,1,90.4499972396851
208,176,45731,1,0,0:0:0:0:
416,88,45880,1,0,0:0:0:0:
344,320,46030,1,0,0:0:0:0:
296,36,46179,1,0,0:0:0:0:
440,220,46328,1,0,0:0:0:0:
100,140,46477,1,0,0:0:0:0:
404,80,46627,6,0,L|408:188,2,90.4499972396851
148,320,47074,2,0,L|48:344,2,90.4499972396851
216,88,47522,1,0,0:0:0:0:
412,308,47671,1,0,0:0:0:0:
52,64,47821,5,0,0:0:0:0:
40,108,47895,1,0,0:0:0:0:
44,152,47970,1,0,0:0:0:0:
64,192,48045,1,0,0:0:0:0:
100,216,48119,1,0,0:0:0:0:
144,224,48194,1,0,0:0:0:0:
188,220,48268,1,0,0:0:0:0:
228,200,48343,1,0,0:0:0:0:
268,220,48418,2,0,L|308:288,3,45.2249986198426
404,84,48716,2,0,L|424:28,3,45.2249986198426
372,48,49015,6,0,P|316:56|260:36,1,90.4499972396851
80,356,49313,2,0,L|96:244,1,90.4499972396851
428,125,49612,6,0,P|375:104|337:58,1,90.4499972396851
21,246,49910,2,0,L|91:157,1,90.4499972396851
292,324,50209,6,0,B|256:228|256:228|364:296|364:296|324:180,1,331.650010121155
164,100,51403,2,0,B|280:64|280:64|224:84|224:84|280:232,1,331.650010121155
224,320,52597,2,0,B|192:188|192:188|276:172|316:212|232:248|232:248|332:288,1,386.925011808014
403,193,53791,6,0,B|388:237|388:237|364:185|374:92,1,193.462505904007
374,92,54388,6,0,B|288:108|260:56|260:56|184:48,1,193.462505904007
128,76,54985,6,0,P|112:148|148:228,1,150.750005750656
332,360,55283,6,0,P|384:296|404:220,2,150.750005750656
92,172,55731,1,0,0:0:0:0:
404,136,55880,6,0,P|372:69|293:31,2,150.750005750656
280,348,56328,1,0,0:0:0:0:
208,40,56477,6,0,P|148:84|120:176,2,150.750005750656
472,192,56925,1,0,0:0:0:0:
120,236,57074,6,0,P|148:316|232:360,2,150.750005750656
400,96,57522,1,0,0:0:0:0:
300,296,57671,1,0,0:0:0:0:
136,36,57821,6,0,P|84:92|4:104,2,150.750005750656
228,312,58268,1,0,0:0:0:0:
460,88,58418,1,0,0:0:0:0:
384,344,58567,1,0,0:0:0:0:
268,44,58716,1,0,0:0:0:0:
472,248,58865,1,0,0:0:0:0:
148,176,59015,1,0,0:0:0:0:
432,64,59164,6,0,L|416:244,1,150.750005750656
44,312,59462,2,0,P|136:320|216:312,1,150.750005750656
300,84,59761,2,0,P|372:48|456:52,2,150.750005750656
384,328,60209,1,0,0:0:0:0:
80,48,60358,6,0,P|64:132|104:220,1,150.750005750656
144,356,60657,2,0,P|187:282|180:186,1,150.750005750656
312,142,60955,6,0,P|232:170|176:248,1,150.750005750656
75,343,61254,2,0,P|150:347|217:315,2,150.750005750656
444,48,61701,1,0,0:0:0:0:
200,252,61851,1,0,0:0:0:0:
68,48,62000,1,0,0:0:0:0:
300,128,62149,6,0,P|380:120|444:72,1,150.750005750656
152,232,62448,2,0,L|116:380,2,150.750005750656
256,36,62895,1,0,0:0:0:0:
360,232,63045,2,0,L|396:380,1,150.750005750656
160,96,63343,5,0,0:0:0:0:
160,96,63418,1,0,0:0:0:0:
160,96,63492,2,0,L|100:120,4,37.6875014376641
308,312,63791,5,0,0:0:0:0:
400,48,63940,1,0,0:0:0:0:
304,368,64089,5,0,0:0:0:0:
48,28,64239,1,0,0:0:0:0:
260,384,64388,5,0,0:0:0:0:
64,120,64537,6,0,P|144:112|212:40,1,150.750005750656
440,280,64836,5,0,0:0:0:0:
336,56,64985,1,0,0:0:0:0:
248,316,65134,2,0,P|176:296|136:236,1,150.750005750656
371,360,65433,5,0,0:0:0:0:
393,114,65582,1,0,0:0:0:0:
187,295,65731,2,0,P|134:242|130:170,1,150.750005750656
272,384,66030,5,0,0:0:0:0:
413,193,66179,1,0,0:0:0:0:
144,247,66328,2,0,P|125:174|157:110,1,150.750005750656
167,376,66627,5,0,0:0:0:0:
392,272,66776,1,0,0:0:0:0:
132,184,66925,2,0,P|151:111|212:72,1,150.750005750656
368,348,67224,5,0,0:0:0:0:
448,72,67373,1,0,0:0:0:0:
368,348,67522,1,0,0:0:0:0:
192,44,67671,1,0,0:0:0:0:
380,360,67821,1,0,0:0:0:0:
472,16,67970,1,0,0:0:0:0:
32,216,68119,6,0,P|104:236|180:220,1,150.750005750656
215,141,68418,2,0,L|104:40,1,150.750005750656
296,141,68716,2,0,L|408:40,1,150.750005750656
334,221,69015,2,0,P|408:235|480:216,1,150.750005750656
48,320,69313,5,0,0:0:0:0:
96,344,69388,1,0,0:0:0:0:
148,344,69462,1,0,0:0:0:0:
196,320,69537,1,0,0:0:0:0:
220,272,69612,1,0,0:0:0:0:
232,220,69686,1,0,0:0:0:0:
260,176,69761,1,0,0:0:0:0:
308,152,69836,1,0,0:0:0:0:
356,168,69910,2,0,L|424:208,3,75.3750028753282
304,264,70209,2,0,L|328:348,3,75.3750028753282
376,336,70507,5,0,0:0:0:0:
428,324,70582,1,0,0:0:0:0:
468,288,70657,1,0,0:0:0:0:
480,236,70731,1,0,0:0:0:0:
468,184,70806,1,0,0:0:0:0:
432,144,70880,1,0,0:0:0:0:
384,120,70955,1,0,0:0:0:0:
332,128,71030,1,0,0:0:0:0:
280,132,71104,2,0,L|248:56,3,75.3750028753282
352,240,71403,2,0,L|324:320,3,75.3750028753282
276,328,71701,5,0,0:0:0:0:
228,352,71776,1,0,0:0:0:0:
176,356,71851,1,0,0:0:0:0:
124,348,71925,1,0,0:0:0:0:
76,324,72000,1,0,0:0:0:0:
56,276,72074,1,0,0:0:0:0:
60,224,72149,1,0,0:0:0:0:
92,180,72224,1,0,0:0:0:0:
144,172,72298,2,0,L|200:232,3,75.3750028753282
312,96,72597,2,0,L|344:16,3,75.3750028753282
376,48,72895,5,0,0:0:0:0:
248,360,73045,1,0,0:0:0:0:
48,24,73194,1,0,0:0:0:0:
256,380,73343,1,0,0:0:0:0:
432,28,73492,1,0,0:0:0:0:
440,80,73567,1,0,0:0:0:0:
420,128,73642,1,0,0:0:0:0:
372,148,73716,1,0,0:0:0:0:
320,156,73791,1,0,0:0:0:0:
284,192,73865,1,0,0:0:0:0:
272,244,73940,1,0,0:0:0:0:
292,292,74015,1,0,0:0:0:0:
344,324,74089,6,0,P|376:301|393:265,1,80.4
128,320,74388,2,0,P|160:348|208:352,2,80.4
92,144,74836,1,0,0:0:0:0:
232,52,74985,2,0,P|280:36|320:44,2,80.4
196,208,75433,1,0,0:0:0:0:
364,256,75582,2,0,P|344:296|312:312,2,80.4
396,144,76030,1,0,0:0:0:0:
396,144,76179,2,0,P|380:96|344:64,1,80.4
176,232,76477,6,0,L|104:296,1,80.4
364,276,76776,1,0,0:0:0:0:
152,44,76925,1,0,0:0:0:0:
240,352,77074,1,0,0:0:0:0:
352,76,77224,1,0,0:0:0:0:
72,232,77373,2,0,L|80:128,1,80.4
376,164,77671,6,0,P|409:185|430:220,1,80.4
328,88,77970,2,0,P|272:80|236:96,1,80.4
136,308,78268,1,0,0:0:0:0:
224,80,78418,1,0,0:0:0:0:
132,312,78567,2,0,P|180:320|216:344,1,80.4
384,268,78865,6,0,P|404:224|404:176,1,80.4
320,48,79163,2,0,P|352:84|360:132,1,80.4
208,280,79462,5,0,0:0:0:0:
84,60,79611,1,0,0:0:0:0:
32,260,79760,1,0,0:0:0:0:
308,88,79910,1,0,0:0:0:0:
152,344,80059,1,0,0:0:0:0:
152,48,80208,1,0,0:0:0:0:
40,208,80357,1,0,0:0:0:0:
356,260,80507,1,0,0:0:0:0:
232,72,80656,6,0,P|188:64|148:72,2,80.4
280,192,81104,1,0,0:0:0:0:
232,312,81253,2,0,P|188:320|148:312,2,80.4
384,132,81701,1,0,0:0:0:0:
464,312,81850,1,0,0:0:0:0:
356,84,81999,1,0,0:0:0:0:
256,316,82148,1,0,0:0:0:0:
380,36,82298,1,0,0:0:0:0:
456,328,82447,5,0,0:0:0:0:
160,220,82596,2,0,L|156:188,4,20.1
152,72,82895,5,0,0:0:0:0:
448,312,83044,1,0,0:0:0:0:
296,52,83193,1,0,0:0:0:0:
216,304,83342,1,0,0:0:0:0:
460,140,83492,1,0,0:0:0:0:
460,140,83641,6,0,P|400:160|376:208,1,100.5
212,64,83939,1,0,0:0:0:0:
212,64,84089,1,0,0:0:0:0:
64,248,84238,6,0,P|112:224|136:176,1,85.4250016293526
300,320,84536,1,0,0:0:0:0:
404,156,84686,2,0,P|376:112|340:88,2,85.4250016293526
212,320,85134,5,0,0:0:0:0:
108,156,85283,2,0,P|136:112|172:88,2,85.4250016293526
372,320,85731,6,0,P|388:272|384:228,1,85.4250016293526
352,64,86029,1,0,0:0:0:0:
184,216,86178,1,0,0:0:0:0:
456,264,86328,2,0,P|480:308|484:352,2,85.4250016293526
128,104,86775,1,0,0:0:0:0:
300,312,86925,1,0,0:0:0:0:
460,64,87074,1,0,0:0:0:0:
220,208,87223,6,0,P|200:168|204:116,1,85.4250016293526
136,60,87522,2,0,P|100:88|80:140,2,85.4250016293526
240,28,87969,1,0,0:0:0:0:
320,108,88119,2,0,P|332:152|324:208,1,85.4250016293526
200,344,88418,6,0,L|160:304,3,42.7125008146763
232,232,88716,2,0,L|232:188,3,42.7125008146763
156,100,89015,2,0,L|112:80,3,42.7125008146763
56,180,89313,2,0,L|36:232,3,42.7125008146763
60,248,89611,5,0,0:0:0:0:
88,268,89686,1,0,0:0:0:0:
120,280,89760,1,0,0:0:0:0:
156,284,89835,1,0,0:0:0:0:
188,268,89910,1,0,0:0:0:0:
208,240,89984,1,0,0:0:0:0:
236,220,90059,1,0,0:0:0:0:
268,212,90134,1,0,0:0:0:0:
300,212,90208,1,0,0:0:0:0:
332,224,90283,1,0,0:0:0:0:
360,244,90357,1,0,0:0:0:0:
384,268,90432,1,0,0:0:0:0:
380,308,90507,2,0,L|364:356,3,42.7125008146763
332,336,90805,5,0,0:0:0:0:
304,312,90880,1,0,0:0:0:0:
268,308,90954,1,0,0:0:0:0:
232,320,91029,1,0,0:0:0:0:
200,344,91104,2,0,L|152:328,3,42.7125008146763
280,224,91403,2,0,L|304:272,3,42.7125008146763
336,264,91701,1,0,0:0:0:0:
368,244,91776,1,0,0:0:0:0:
388,212,91851,1,0,0:0:0:0:
392,176,91925,1,0,0:0:0:0:
380,140,92000,6,0,P|344:112|296:108,1,85.4250016293526
104,360,92298,1,0,0:0:0:0:
224,52,92448,1,0,0:0:0:0:
372,368,92597,1,0,0:0:0:0:
396,344,92671,1,0,0:0:0:0:
408,312,92746,1,0,0:0:0:0:
412,276,92821,1,0,0:0:0:0:
404,244,92895,1,0,0:0:0:0:
196,4,93045,1,0,0:0:0:0:
280,232,93194,5,0,0:0:0:0:
456,228,93343,1,0,0:0:0:0:
380,320,93492,5,0,0:0:0:0:
376,144,93641,1,0,0:0:0:0:
76,192,93791,5,0,0:0:0:0:
92,208,93865,1,0,0:0:0:0:
112,220,93940,1,0,0:0:0:0:
136,224,94015,1,0,0:0:0:0:
156,224,94089,1,0,0:0:0:0:
176,220,94164,1,0,0:0:0:0:
192,208,94239,1,0,0:0:0:0:
208,192,94313,1,0,0:0:0:0:
224,152,94387,5,0,0:0:0:0:
112,360,94536,1,0,0:0:0:0:
360,280,94686,1,0,0:0:0:0:
80,120,94835,1,0,0:0:0:0:
212,348,94984,1,0,0:0:0:0:
300,64,95134,1,0,0:0:0:0:
480,284,95283,1,0,0:0:0:0:
160,204,95433,1,0,0:0:0:0:
448,56,95582,6,0,P|392:48|336:56,1,100.5
292,264,95880,1,0,0:0:0:0:
292,264,96030,1,0,0:0:0:0:
204,116,96179,2,0,L|112:60,2,85.4250016293526
316,248,96627,2,0,P|292:300|252:324,1,85.4250016293526
128,292,96925,1,0,0:0:0:0:
76,172,97074,2,0,P|72:124|84:80,2,85.4250016293526
244,256,97522,1,0,0:0:0:0:
344,64,97671,1,0,0:0:0:0:
236,272,97820,1,0,0:0:0:0:
440,296,97970,6,0,P|400:312|344:304,1,85.4250016293526
232,112,98268,1,0,0:0:0:0:
192,312,98418,1,0,0:0:0:0:
352,160,98567,1,0,0:0:0:0:
376,360,98717,1,0,0:0:0:0:
104,112,98866,1,0,0:0:0:0:
416,240,99015,1,0,0:0:0:0:
224,36,99164,6,0,L|208:128,2,85.4250016293526
184,200,99612,1,0,0:0:0:0:
84,52,99761,1,0,0:0:0:0:
180,256,99910,1,0,0:0:0:0:
384,44,100059,1,0,0:0:0:0:
176,304,100209,1,0,0:0:0:0:
176,304,100358,6,0,P|168:256|184:192,1,85.4250016293526
456,108,100657,2,0,P|416:92|360:100,1,85.4250016293526
228,272,100955,1,0,0:0:0:0:
100,60,101104,1,0,0:0:0:0:
244,304,101254,1,0,0:0:0:0:
80,24,101402,1,0,0:0:0:0:
352,340,101552,6,0,P|380:304|384:256,1,85.4250016293526
92,316,101851,1,0,0:0:0:0:
140,108,102000,1,0,0:0:0:0:
292,244,102149,1,0,0:0:0:0:
80,356,102298,1,0,0:0:0:0:
156,60,102448,1,0,0:0:0:0:
340,256,102596,1,0,0:0:0:0:
56,324,102746,6,0,P|104:304|160:312,1,85.4250016293526
308,64,103045,2,0,P|348:92|416:108,2,85.4250016293526
416,328,103492,1,0,0:0:0:0:
376,136,103642,1,0,0:0:0:0:
244,312,103791,1,0,0:0:0:0:
132,108,103939,5,0,0:0:0:0:
156,60,104014,1,0,0:0:0:0:
200,32,104089,1,0,0:0:0:0:
252,36,104163,1,0,0:0:0:0:
300,60,104238,1,0,0:0:0:0:
316,108,104313,1,0,0:0:0:0:
304,160,104387,1,0,0:0:0:0:
304,212,104462,1,0,0:0:0:0:
320,260,104537,6,0,L|432:276,1,85.4250016293526
192,124,104836,2,0,L|76:104,1,85.4250016293526
412,340,105134,5,0,0:0:0:0:
460,264,105283,1,0,0:0:0:0:
436,176,105433,1,0,0:0:0:0:
360,124,105582,1,0,0:0:0:0:
276,160,105731,2,0,P|236:200|232:256,1,95.4749974505425
324,76,106030,2,0,P|272:56|224:56,2,95.4749974505425
384,140,106478,1,0,0:0:0:0:
380,232,106627,1,0,0:0:0:0:
316,296,106776,1,0,0:0:0:0:
232,264,106926,1,0,0:0:0:0:
204,176,107075,1,0,0:0:0:0:
120,140,107224,1,0,0:0:0:0:
64,208,107373,1,0,0:0:0:0:
448,48,107522,6,0,P|464:96|452:144,1,95.4749974505425
380,180,107821,1,0,0:0:0:0:
344,264,107970,1,0,0:0:0:0:
404,332,108119,1,0,0:0:0:0:
472,272,108268,1,0,0:0:0:0:
464,180,108417,1,0,0:0:0:0:
376,156,108566,1,0,0:0:0:0:
128,328,108716,6,0,P|116:276|132:224,1,95.4749974505425
204,196,109015,1,0,0:0:0:0:
156,124,109164,2,0,P|136:72|148:24,2,95.4749974505425
228,72,109612,2,0,P|280:64|332:72,1,95.4749974505425
452,332,109836,1,0,0:0:0:0:
452,332,109910,6,0,P|392:324|344:332,1,95.4749974505425
304,208,110209,1,0,0:0:0:0:
96,296,110358,1,0,0:0:0:0:
168,64,110508,1,0,0:0:0:0:
216,348,110657,1,0,0:0:0:0:
72,164,110806,1,0,0:0:0:0:
376,256,110955,1,0,0:0:0:0:
108,304,111104,6,0,L|104:192,2,95.4749974505425
356,64,111552,2,0,L|460:40,2,95.4749974505425
296,296,112000,1,0,0:0:0:0:
100,76,112149,1,0,0:0:0:0:
460,320,112298,5,0,0:0:0:0:
472,276,112372,1,0,0:0:0:0:
468,232,112447,1,0,0:0:0:0:
448,192,112522,1,0,0:0:0:0:
412,168,112596,1,0,0:0:0:0:
368,160,112671,1,0,0:0:0:0:
324,164,112745,1,0,0:0:0:0:
284,184,112820,1,0,0:0:0:0:
244,180,112895,2,0,L|208:120,3,47.7374987252713
108,300,113194,2,0,L|84:360,3,47.7374987252713
140,336,113492,6,0,P|196:328|256:352,1,95.4749974505425
432,28,113791,2,0,L|416:148,1,95.4749974505425
83,258,114089,6,0,P|136:279|176:328,1,95.4749974505425
490,137,114387,2,0,L|416:232,1,95.4749974505425
56,160,114686,6,0,B|36:28|36:28|152:20|124:100|68:104|68:104|164:164,1,391.949982057954
232,188,115880,2,0,B|164:200|164:200|180:268|180:268|240:260|240:260|180:272|180:272|192:340|192:340|272:324,1,391.949982057954
348,248,117074,2,0,B|349:195|328:136|328:136|362:167|392:184|392:184|416:161|424:120|424:120|432:188|464:256,1,391.949982057954
94,211,118268,6,0,B|78:307|110:379|110:379|126:307,1,228.637489533806
123,323,118865,6,0,B|209:307|237:359|237:359|296:368,1,175.875
348,336,119462,6,0,P|364:264|332:180,1,160.8
180,24,119760,6,0,P|128:88|104:176,2,160.8
420,212,120208,1,0,0:0:0:0:
108,248,120358,6,0,P|139:314|224:352,2,160.8
232,36,120805,1,0,0:0:0:0:
304,344,120955,6,0,P|364:300|396:204,2,160.8
40,192,121402,1,0,0:0:0:0:
392,148,121552,6,0,P|364:68|276:24,2,160.8
112,288,122000,1,0,0:0:0:0:
212,88,122149,1,0,0:0:0:0:
376,348,122298,6,0,P|428:292|512:284,2,160.8
284,72,122745,1,0,0:0:0:0:
52,296,122895,1,0,0:0:0:0:
128,40,123044,1,0,0:0:0:0:
244,340,123193,1,0,0:0:0:0:
40,136,123342,1,0,0:0:0:0:
364,208,123492,1,0,0:0:0:0:
80,320,123642,6,0,L|96:132,1,160.8
468,72,123939,2,0,P|384:56|296:72,1,160.8
230,285,124238,2,0,P|158:321|70:317,2,160.8
128,56,124686,1,0,0:0:0:0:
432,336,124835,6,0,P|448:252|404:160,1,160.8
368,28,125134,2,0,P|324:101|336:204,1,160.8
180,296,125432,6,0,P|261:267|320:188,1,160.8
414,87,125731,2,0,P|328:88|244:148,2,160.8
68,336,126178,1,0,0:0:0:0:
312,132,126328,1,0,0:0:0:0:
444,336,126477,1,0,0:0:0:0:
212,256,126626,6,0,P|132:264|72:324,1,160.8
360,160,126925,2,0,L|396:4,2,160.8
256,348,127372,1,0,0:0:0:0:
152,160,127522,2,0,L|116:4,1,160.8
352,288,127820,5,0,0:0:0:0:
352,288,127895,1,0,0:0:0:0:
352,288,127969,2,0,L|404:268,4,40.2
204,72,128268,5,0,0:0:0:0:
112,336,128417,1,0,0:0:0:0:
208,16,128566,5,0,0:0:0:0:
464,356,128716,1,0,0:0:0:0:
240,64,128865,5,0,0:0:0:0:
448,264,129015,6,0,P|368:272|284:364,1,160.8
72,104,129313,5,0,0:0:0:0:
176,328,129462,1,0,0:0:0:0:
264,68,129611,2,0,P|336:88|380:160,1,160.8
140,23,129910,5,0,0:0:0:0:
118,269,130059,1,0,0:0:0:0:
324,88,130208,2,0,P|377:141|380:224,1,160.8
240,0,130507,5,0,0:0:0:0:
98,190,130656,1,0,0:0:0:0:
367,136,130805,2,0,P|386:209|344:288,1,160.8
344,8,131104,5,0,0:0:0:0:
120,112,131253,1,0,0:0:0:0:
380,200,131402,2,0,P|360:272|288:320,1,160.8
144,36,131701,5,0,0:0:0:0:
64,312,131850,1,0,0:0:0:0:
144,36,131999,1,0,0:0:0:0:
320,340,132148,1,0,0:0:0:0:
132,24,132298,1,0,0:0:0:0:
40,368,132447,1,0,0:0:0:0:
480,168,132596,6,0,P|408:148|324:164,1,160.8
316,236,132895,2,0,L|436:344,1,160.8
196,236,133193,2,0,L|76:344,1,160.8
177,162,133492,2,0,P|103:148|20:172,1,160.8
464,64,133790,5,0,0:0:0:0:
416,40,133865,1,0,0:0:0:0:
364,40,133939,1,0,0:0:0:0:
316,64,134014,1,0,0:0:0:0:
292,112,134089,1,0,0:0:0:0:
280,164,134163,1,0,0:0:0:0:
252,208,134238,1,0,0:0:0:0:
204,232,134313,1,0,0:0:0:0:
156,216,134388,2,0,L|88:172,3,80.4
208,120,134686,2,0,L|184:32,3,80.4
136,48,134984,5,0,0:0:0:0:
84,68,135059,1,0,0:0:0:0:
64,120,135134,1,0,0:0:0:0:
76,176,135208,1,0,0:0:0:0:
128,200,135283,1,0,0:0:0:0:
180,176,135357,1,0,0:0:0:0:
236,172,135432,1,0,0:0:0:0:
276,212,135507,1,0,0:0:0:0:
272,268,135582,2,0,L|308:348,3,80.4
160,144,135880,2,0,L|188:60,3,80.4
236,56,136178,5,0,0:0:0:0:
280,88,136253,1,0,0:0:0:0:
284,144,136328,1,0,0:0:0:0:
252,188,136402,1,0,0:0:0:0:
264,244,136477,1,0,0:0:0:0:
308,276,136551,1,0,0:0:0:0:
364,276,136626,1,0,0:0:0:0:
404,236,136701,1,0,0:0:0:0:
372,188,136776,2,0,L|312:124,3,80.4
200,284,137074,2,0,L|168:368,3,80.4
136,336,137372,5,0,0:0:0:0:
264,24,137522,1,0,0:0:0:0:
464,360,137671,1,0,0:0:0:0:
256,4,137820,1,0,0:0:0:0:
80,356,137969,1,0,0:0:0:0:
44,312,138044,1,0,0:0:0:0:
36,256,138119,1,0,0:0:0:0:
60,204,138193,1,0,0:0:0:0:
112,184,138268,1,0,0:0:0:0:
168,180,138342,1,0,0:0:0:0:
216,208,138417,1,0,0:0:0:0:
252,252,138492,1,0,0:0:0:0:
300,244,138567,6,0,L|404:252,1,75.3750028753282
192,156,138865,2,0,L|88:148,1,75.3750028753282
340,228,139164,6,0,L|444:236,1,75.3750028753282
172,156,139462,2,0,L|68:148,1,75.3750028753282
360,228,139761,6,0,L|464:236,1,75.3750028753282
152,156,140059,2,0,L|48:148,1,75.3750028753282
380,228,140358,6,0,L|484:236,1,75.3750028753282
132,156,140657,2,0,L|28:148,1,75.3750028753282
256,236,140955,6,0,L|256:268,30,18.843750718832
284,196,142149,6,0,P|312:168|324:112,1,75.3750028753282
252,220,142448,2,0,P|280:248|336:260,1,75.3750028753282
228,188,142746,2,0,P|200:216|188:272,1,75.3750028753282
260,164,143045,2,0,P|232:136|176:124,1,75.3750028753282
256,240,143343,5,0,0:0:0:0:
