osu file format v14

[General]
AudioFilename: Hitorigoto.mp3
AudioLeadIn: 0
PreviewTime: 54338
Countdown: 1
SampleSet: Soft
StackLeniency: 0.7
Mode: 0
LetterboxInBreaks: 1
WidescreenStoryboard: 0

[Editor]
Bookmarks: 520,12156,23792,35429,35792,41247,41610,44156,44520,47065,47429,54338,63065,65974,74701,77610,83429,86338,87792
DistanceSpacing: 1
BeatDivisor: 4
GridSize: 4
TimelineZoom: 2.799999

[Metadata]
Title:FUNKOT COMPILATIONS
TitleUnicode:FUNKOT COMPILATIONS
Artist:VARIOUS ARTISTS
ArtistUnicode:VARIOUS ARTISTS
Creator:Aikyuu-Chan
Version:Hitorigoto EXTRA
Source:
Tags:Love Live! Sunshine!! ラブライブ!サンシャイン!! DJ Ramakun Aqours Aquors anime school idol project Inami Anju 伊波杏樹 Aida Rikako 逢田梨香子 Suwa Nanaka 諏訪ななか Komiya Arisa 小宮有紗 Saito Shuka 斉藤朱夏 Kobayashi Aika 小林愛香 Takatsuki Kanako 高槻かなこ Suzuki Aina 鈴木愛奈 Furihata Ai 降幡 愛 Takami Chika 高海千歌 Sakurauchi Riko 桜内梨子 Matsuura Kanan 松浦果南 Kurosawa Dia 黒澤ダイヤ Watanabe You 渡辺 曜 Tsushima Yoshiko 津島善子 Kunikida Hanamaru 国木田花丸 Ohara Mari 小原鞠莉 Kurosawa Ruby 黒澤ルビィ Funkot Dangdut Sedikit Dugem Drum n Bass DDB DJ™ Richiter Dangdut Dugem Goyang Joget Sawer Indonesia Loli Lolicon Moe Cafe gochuumon wa usagi desu ka is the order a rabbit gochiusa ごちうさ season two 2 op opening sakura ayane 佐倉綾音 hoto cocoa 保登心愛 ココア minase inori 水瀬いのり kafuu chino 香風智乃 チノ taneda risa 種田梨沙 tedeza rize 天々座理世 リゼ satou satomi 佐藤聡美 ujimatsu chiya 宇治松千夜 uchida maaya 内田真礼 kirima syaro 桐間紗路 シャロ Petit Rabbit's Re:ゼロから始める異世界生活 Anime Re: Zero Kara Hajimeru Isekai Seikatsu Life in a different world from zero Re:zero Tv Size Ed Ending EMILIA Rem Ram Subaru Indonesia Dangdut Dugem AKI Feat. Ramakun 熱闘!BEMANIスタジアム BEMANI Beatmania IIDX DDR pop'n jubeat reflec beat GITADORA ミライダガッキ SOUND VOLTEX II りす Risu dropout gabdro dropkick ガヴドロ opening tv size tenma gabriel white 天真・ガヴリール・ホワイト tsukinose vignette april 月乃瀬・ヴィネット・エイプリル vigne ヴィーネ kurumizawa satanichia mcdowell 胡桃沢・サタニキア・マクドウェル satania サターニャ shiraha raphiel ainsworth 白羽・ラフィエル・エインズワース Plastic Memories tv size anime attack on titan opening shingeki no kyojin 進撃の巨人 SnK Guren no Yumiya armin arlert levi erin jaeger mikasa indomie macross delta walkure マクロスΔ Sono Hanabira no Kuchizuke Wo Sonohana Yuri 学戦都市アスタリスクTHE ASTERISK WAR The Academy City on the Water Gakusen Toshi Asterisk Shiena Nishizawa Brand-new World ClariS エロマンガ先生 ヒトリゴト -TV MIX- Hitorigoto eromanga sensei ero manga eromanga-sensei eromangasensei opening tv size happy party train rokudenashi jinrui wa suitai shimashita
BeatmapID:1283287
BeatmapSetID:602628

[Difficulty]
HPDrainRate:0
CircleSize:4
OverallDifficulty:9
ApproachRate:9.5
SliderMultiplier:1.65
SliderTickRate:1

[Events]
//Background and Video events
0,0,"BG.jpg",0,0
//Break Periods
//Storyboard Layer 0 (Background)
//Storyboard Layer 1 (Fail)
//Storyboard Layer 2 (Pass)
//Storyboard Layer 3 (Foreground)
//Storyboard Layer 4 (Overlay)
//Storyboard Sound Samples

[TimingPoints]
530,363.636363636364,4,2,1,90,1,0
530,-142.857142857143,4,2,1,90,0,1
620,-142.857142857143,4,2,1,90,0,0
12166,-83.3333333333333,4,2,1,90,0,1
12257,-83.3333333333333,4,2,1,90,0,0
16348,-58.8235294117647,4,2,1,90,0,0
18348,-83.3333333333333,4,2,1,90,0,0
23802,-111.111111111111,4,2,1,90,0,1
23893,-111.111111111111,4,2,1,90,0,0
35439,-125,4,2,1,90,0,1
35530,-125,4,2,1,90,0,0
35802,-125,4,2,1,90,0,0
41257,-117.647058823529,4,2,1,90,0,1
41348,-117.647058823529,4,2,1,90,0,0
41620,-117.647058823529,4,2,1,90,0,0
44166,-111.111111111111,4,2,1,90,0,1
44257,-111.111111111111,4,2,1,90,0,0
44530,-111.111111111111,4,2,1,90,0,0
47075,-105.263157894737,4,2,1,90,0,1
47166,-105.263157894737,4,2,1,90,0,0
47439,-105.263157894737,4,2,1,90,0,0
54348,-55.5555555555556,4,2,1,90,0,1
63075,-66.6666666666667,4,2,1,90,0,1
65620,-100,4,2,1,90,0,0
65984,-55.5555555555556,4,2,1,90,0,1
74711,-66.6666666666667,4,2,1,90,0,1
77620,-83.3333333333333,4,2,1,90,0,0
83439,-76.9230769230769,4,2,1,90,0,1
83530,-76.9230769230769,4,2,1,90,0,0
86348,-133.333333333333,4,2,1,90,0,1
87802,-100,4,2,1,90,0,0

[HitObjects]
432,36,530,5,0,0:0:0:0:
44,368,711,1,0,0:0:0:0:
44,368,893,6,0,P|52:336|48:296,1,57.7499982376099
132,284,1257,2,0,P|124:248|104:216,1,57.7499982376099
192,168,1620,2,0,P|180:128|160:108,1,57.7499982376099
76,160,1984,6,0,P|80:192|100:212,1,57.7499982376099
88,292,2348,2,0,P|116:312|152:312,1,57.7499982376099
220,360,2711,2,0,P|252:352|272:336,1,57.7499982376099
360,320,3075,2,0,P|376:288|380:256,1,57.7499982376099
40,32,3439,5,0,0:0:0:0:
456,356,3620,2,0,P|460:332|456:288,2,57.7499982376099
368,280,4166,2,0,P|364:248|372:220,2,57.7499982376099
296,352,4711,1,0,0:0:0:0:
212,276,4893,6,0,P|176:264|144:272,1,57.7499982376099
157,266,5166,1,0,0:0:0:0:
157,266,5257,1,0,0:0:0:0:
280,136,5439,1,0,0:0:0:0:
372,256,5620,2,0,P|400:264|440:264,2,57.7499982376099
80,40,6166,1,0,0:0:0:0:
288,352,6348,5,0,0:0:0:0:
480,16,6530,1,0,0:0:0:0:
480,16,6711,6,0,P|456:32|424:32,1,57.7499982376099
356,80,7075,2,0,P|348:112|360:152,1,57.7499982376099
180,44,7439,2,0,P|208:56|248:52,1,57.7499982376099
120,208,7802,6,0,L|120:124,1,57.7499982376099
216,264,8166,2,0,L|288:264,1,57.7499982376099
112,304,8530,2,0,L|48:348,1,57.7499982376099
260,152,8893,2,0,L|300:100,1,57.7499982376099
408,356,9257,5,0,0:0:0:0:
36,36,9439,1,0,0:0:0:0:
180,340,9620,2,0,P|208:344|244:336,2,57.7499982376099
368,40,10166,1,0,0:0:0:0:
102,256,10348,2,0,P|121:277|154:294,1,57.7499982376099
292,32,10711,5,0,0:0:0:0:
424,188,10894,1,0,0:0:0:0:
424,232,10984,1,0,0:0:0:0:
400,268,11075,1,0,0:0:0:0:
364,288,11166,1,0,0:0:0:0:
320,296,11257,1,0,0:0:0:0:
280,284,11348,1,0,0:0:0:0:
244,260,11439,1,0,0:0:0:0:
204,248,11530,1,0,0:0:0:0:
160,252,11620,1,0,0:0:0:0:
120,268,11711,1,0,0:0:0:0:
100,308,11802,2,0,L|88:356,3,28.874999118805
40,276,12166,6,0,L|48:156,1,98.9999969787599
472,120,12530,2,0,B|450:74|450:74|395:96|362:46|362:46|319:60,1,197.99999395752
408,332,13075,1,0,0:0:0:0:
32,32,13257,1,0,0:0:0:0:
44,212,13439,6,0,B|56:268|56:268|120:252,1,98.9999969787599
176,200,13802,2,0,P|196:224|184:200,1,98.9999969787599
272,156,14166,2,0,B|284:212|284:212|348:196,1,98.9999969787599
428,104,14530,2,0,L|452:204,1,98.9999969787599
163,54,14893,1,0,0:0:0:0:
452,356,15075,2,0,L|464:248,1,98.9999969787599
111,104,15439,6,0,P|158:88|207:92,1,98.9999969787599
364,168,15802,2,0,L|382:70,2,98.9999969787599
84,56,16348,6,0,P|36:100|88:140,1,140.250002675056
168,120,16711,2,0,P|200:172|216:116,1,140.250002675056
308,156,17075,2,0,B|356:156|356:156|332:156|332:156|336:252,1,140.250002675056
432,272,17439,2,0,B|472:272|472:272|472:204|372:212|364:284|420:376|472:332,1,280.500005350113
476,336,17984,2,0,P|400:352|336:324,1,140.250002675056
244,316,18348,5,0,0:0:0:0:
420,72,18530,1,0,0:0:0:0:
244,352,18711,1,0,0:0:0:0:
72,60,18893,1,0,0:0:0:0:
244,380,19075,1,0,0:0:0:0:
436,32,19257,6,0,P|384:44|320:28,1,98.9999969787599
320,120,19620,2,0,P|271:138|223:127,1,98.9999969787599
192,208,19984,2,0,P|218:249|261:272,1,98.9999969787599
344,296,20348,2,0,P|392:288|432:259,2,98.9999969787599
84,296,20893,6,0,P|140:324|200:324,1,98.9999969787599
56,96,21257,2,0,L|72:212,1,98.9999969787599
442,194,21620,2,0,L|456:96,2,98.9999969787599
336,327,22166,6,0,P|385:320|428:296,1,98.9999969787599
308,120,22530,2,0,L|348:232,1,98.9999969787599
336,264,22802,1,0,0:0:0:0:
308,304,22893,1,0,0:0:0:0:
260,312,22984,1,0,0:0:0:0:
224,280,23075,6,0,L|176:208,3,49.4999984893799
64,320,23439,2,0,L|32:368,3,49.4999984893799
28,272,23802,2,0,P|20:232|32:184,1,74.2499977340699
160,292,24166,6,0,P|208:300|248:288,1,74.2499977340699
352,92,24530,2,0,P|304:84|264:96,1,74.2499977340699
486,199,24893,2,0,P|491:235|484:272,1,74.2499977340699
328,232,25257,6,0,P|320:272|336:320,1,74.2499977340699
432,356,25620,2,0,L|452:284,1,74.2499977340699
356,80,25984,2,0,L|388:184,1,74.2499977340699
300,268,26348,2,0,P|252:276|208:260,1,74.2499977340699
132,96,26711,1,0,0:0:0:0:
184,332,26893,6,0,P|220:344|256:336,2,74.2499977340699
336,280,27439,2,0,P|372:244|380:216,2,74.2499977340699
392,128,27984,1,0,0:0:0:0:
280,184,28166,6,0,P|236:196|196:192,2,74.2499977340699
116,160,28711,2,0,P|84:120|72:80,2,74.2499977340699
168,80,29257,1,0,0:0:0:0:
236,148,29439,1,0,0:0:0:0:
320,100,29620,2,0,P|364:88|416:96,1,74.2499977340699
328,236,29984,6,0,L|316:320,1,74.2499977340699
200,112,30348,2,0,L|220:208,1,74.2499977340699
328,24,30711,2,0,L|304:104,1,74.2499977340699
460,224,31075,6,0,L|440:136,1,74.2499977340699
320,272,31439,2,0,L|336:172,1,74.2499977340699
452,348,31802,2,0,L|432:264,1,74.2499977340699
252,348,32166,2,0,P|300:356|336:348,1,74.2499977340699
408,260,32530,1,0,0:0:0:0:
108,72,32711,5,0,0:0:0:0:
244,336,32893,1,0,0:0:0:0:
392,48,33075,1,0,0:0:0:0:
84,268,33257,1,0,0:0:0:0:
416,356,33439,1,0,0:0:0:0:
224,24,33620,1,0,0:0:0:0:
124,348,33802,1,0,0:0:0:0:
368,60,33984,5,0,0:0:0:0:
332,48,34075,1,0,0:0:0:0:
296,52,34166,1,0,0:0:0:0:
268,72,34257,1,0,0:0:0:0:
248,104,34348,1,0,0:0:0:0:
228,136,34439,1,0,0:0:0:0:
200,160,34530,1,0,0:0:0:0:
164,172,34620,1,0,0:0:0:0:
128,168,34711,6,0,L|96:104,3,37.1249988670349
236,176,35075,2,0,L|208:212,3,37.1249988670349
256,128,35439,6,0,L|256:32,1,66
88,232,35802,6,0,P|124:248|156:248,1,66
152,328,36166,2,0,P|188:328|216:312,1,66
288,352,36530,2,0,P|312:320|320:288,1,66
296,208,36893,6,0,P|332:200|364:204,2,66
224,244,37439,2,0,P|192:232|176:204,2,66
300,188,37984,1,0,0:0:0:0:
356,104,38166,1,0,0:0:0:0:
280,48,38348,6,0,P|240:40|200:44,1,66
168,116,38711,2,0,L|144:184,1,66
176,268,39075,2,0,P|212:280|256:280,1,66
332,252,39439,2,0,L|368:184,1,66
300,132,39802,6,0,L|232:92,2,66
392,100,40348,2,0,L|432:28,2,66
408,188,40893,2,0,L|420:284,1,66
352,324,41257,2,0,L|256:352,1,70.1250013375282
144,256,41620,5,0,0:0:0:0:
240,200,41802,1,0,0:0:0:0:
144,256,41984,1,0,0:0:0:0:
240,200,42166,1,0,0:0:0:0:
388,184,42348,5,0,0:0:0:0:
332,88,42530,1,0,0:0:0:0:
388,184,42712,1,0,0:0:0:0:
332,88,42894,1,0,0:0:0:0:
88,284,43075,6,0,L|160:344,1,70.1250013375282
432,80,43439,1,0,0:0:0:0:
72,208,43620,2,0,B|68:164|100:132|100:132|88:64,1,140.250002675056
90,76,44166,1,0,0:0:0:0:
90,76,44348,1,0,0:0:0:0:
352,216,44530,6,0,L|336:300,1,74.2499977340699
352,216,44893,2,0,L|432:232,1,74.2499977340699
160,168,45257,6,0,L|176:84,1,74.2499977340699
160,168,45620,2,0,L|80:152,1,74.2499977340699
220,312,45984,6,0,P|260:316|300:312,3,74.2499977340699
256,192,46711,1,0,0:0:0:0:
293,70,46893,2,0,P|256:68|220:72,2,74.2499977340699
376,172,47439,6,0,L|336:260,1,78.3749979071618
424,292,47802,2,0,L|332:340,1,78.3749979071618
88,292,48166,2,0,L|180:340,1,78.3749979071618
136,172,48530,2,0,L|176:260,1,78.3749979071618
312,56,48893,6,0,P|352:68|388:68,2,78.3749979071618
256,192,49439,1,0,0:0:0:0:
200,56,49620,2,0,P|160:68|124:68,2,78.3749979071618
256,192,50166,1,0,0:0:0:0:
312,328,50348,6,0,P|352:316|388:316,2,78.3749979071618
256,192,50894,1,0,0:0:0:0:
200,328,51075,2,0,P|160:316|124:316,1,78.3749979071618
44,184,51439,5,0,0:0:0:0:
72,156,51530,1,0,0:0:0:0:
104,136,51620,1,0,0:0:0:0:
144,132,51711,1,0,0:0:0:0:
180,148,51802,1,0,0:0:0:0:
212,172,51893,1,0,0:0:0:0:
244,192,51984,1,0,0:0:0:0:
280,208,52075,1,0,0:0:0:0:
320,208,52166,6,0,L|364:168,3,39.1874989535809
328,108,52530,2,0,L|300:96,7,19.5937494767904
260,136,52893,5,0,0:0:0:0:
256,192,52984,12,0,54348,0:0:0:0:
64,336,54530,5,0,0:0:0:0:
388,48,54711,1,0,0:0:0:0:
232,344,54893,1,0,0:0:0:0:
48,32,55075,5,0,0:0:0:0:
376,216,55257,1,0,0:0:0:0:
108,304,55439,1,0,0:0:0:0:
256,36,55620,1,0,0:0:0:0:
360,336,55802,6,0,P|432:312|472:240,2,148.49999546814
68,36,56348,2,0,L|80:220,1,148.49999546814
200,336,56711,5,0,0:0:0:0:
492,24,56893,1,0,0:0:0:0:
200,336,57075,1,0,0:0:0:0:
492,24,57257,1,0,0:0:0:0:
372,264,57439,5,0,0:0:0:0:
176,60,57620,1,0,0:0:0:0:
96,352,57802,1,0,0:0:0:0:
296,156,57984,5,0,0:0:0:0:
52,80,58166,1,0,0:0:0:0:
236,328,58348,1,0,0:0:0:0:
416,40,58530,1,0,0:0:0:0:
36,260,58711,6,0,P|96:304|176:308,2,148.49999546814
464,40,59257,2,0,L|436:192,1,148.49999546814
288,328,59620,5,0,0:0:0:0:
52,32,59802,1,0,0:0:0:0:
288,328,59984,1,0,0:0:0:0:
52,32,60166,1,0,0:0:0:0:
56,268,60348,6,0,B|76:348|76:348|152:332,1,148.49999546814
188,172,60711,2,0,P|208:216|200:160,1,148.49999546814
280,288,61075,2,0,B|316:360|316:360|380:328,1,148.49999546814
428,144,61439,2,0,L|472:296,1,148.49999546814
344,312,61802,5,0,0:0:0:0:
168,52,61984,1,0,0:0:0:0:
384,336,62166,1,0,0:0:0:0:
472,32,62348,5,0,0:0:0:0:
416,360,62530,1,0,0:0:0:0:
144,24,62711,1,0,0:0:0:0:
456,380,62893,1,0,0:0:0:0:
80,344,63075,5,0,0:0:0:0:
144,156,63257,1,0,0:0:0:0:
224,324,63439,1,0,0:0:0:0:
112,112,63620,1,0,0:0:0:0:
24,284,63802,5,0,0:0:0:0:
136,40,63984,1,0,0:0:0:0:
232,244,64166,1,0,0:0:0:0:
108,8,64348,1,0,0:0:0:0:
48,316,64530,6,0,P|112:332|184:312,1,123.750004720688
464,68,64893,2,0,P|400:52|328:72,1,123.750004720688
112,336,65257,5,0,0:0:0:0:
60,96,65439,1,0,0:0:0:0:
400,336,65620,5,0,0:0:0:0:
452,96,65802,1,0,0:0:0:0:
256,364,65984,5,0,0:0:0:0:
368,184,66166,6,0,B|400:236|450:271|450:271|440:240,2,148.49999546814
132,76,66711,1,0,0:0:0:0:
48,340,66893,1,0,0:0:0:0:
272,200,67075,1,0,0:0:0:0:
0,172,67257,1,0,0:0:0:0:
332,328,67439,6,0,L|368:184,2,148.49999546814
180,328,67984,2,0,L|144:184,1,148.49999546814
448,300,68348,5,0,0:0:0:0:
100,228,68530,1,0,0:0:0:0:
420,32,68711,1,0,0:0:0:0:
172,352,68893,1,0,0:0:0:0:
168,136,69075,6,0,P|108:92|36:88,2,148.49999546814
88,216,69620,2,0,P|152:260|220:252,2,148.49999546814
268,96,70166,1,0,0:0:0:0:
400,256,70348,6,0,B|348:312|348:312|236:336,1,148.49999546814
112,128,70711,2,0,B|164:72|164:72|276:48,2,148.49999546814
224,336,71257,5,0,0:0:0:0:
460,72,71439,1,0,0:0:0:0:
112,228,71620,1,0,0:0:0:0:
472,332,71802,1,0,0:0:0:0:
472,332,71984,6,0,P|456:264|480:176,2,148.49999546814
396,136,72530,2,0,P|320:104|280:40,2,148.49999546814
256,248,73075,1,0,0:0:0:0:
136,132,73257,1,0,0:0:0:0:
40,256,73439,6,0,P|68:324|136:344,1,148.49999546814
136,252,73802,2,0,L|236:140,2,148.49999546814
328,143,74348,2,0,P|301:77|232:55,1,148.49999546814
160,336,74711,5,0,0:0:0:0:
32,188,74893,1,0,0:0:0:0:
264,192,75075,1,0,0:0:0:0:
140,32,75257,1,0,0:0:0:0:
512,184,75439,5,0,0:0:0:0:
364,56,75621,1,0,0:0:0:0:
368,288,75803,1,0,0:0:0:0:
208,164,75985,1,0,0:0:0:0:
304,328,76166,6,0,P|360:296|392:240,1,123.750004720688
121,246,76530,2,0,P|154:298|208:328,1,123.750004720688
208,56,76893,2,0,P|152:88|120:144,1,123.750004720688
390,137,77257,2,0,P|357:85|304:56,1,123.750004720688
168,320,77620,5,0,0:0:0:0:
280,160,77802,1,0,0:0:0:0:
352,324,77984,1,0,0:0:0:0:
156,192,78166,1,0,0:0:0:0:
424,224,78348,5,0,0:0:0:0:
208,360,78530,1,0,0:0:0:0:
152,32,78711,1,0,0:0:0:0:
56,268,78893,1,0,0:0:0:0:
280,360,79075,6,0,L|336:264,1,98.9999969787599
440,320,79439,2,0,L|416:208,1,98.9999969787599
336,28,79802,2,0,L|280:148,1,98.9999969787599
72,344,80166,1,0,0:0:0:0:
484,168,80348,1,0,0:0:0:0:
316,72,80530,5,0,0:0:0:0:
144,200,80711,1,0,0:0:0:0:
288,320,80893,1,0,0:0:0:0:
224,68,81075,1,0,0:0:0:0:
144,308,81257,5,0,0:0:0:0:
400,156,81439,1,0,0:0:0:0:
252,360,81620,1,0,0:0:0:0:
152,60,81802,1,0,0:0:0:0:
60,232,81984,6,0,P|44:284|52:336,1,98.9999969787599
152,288,82348,2,0,P|164:336|144:384,1,98.9999969787599
168,168,82711,2,0,P|188:112|180:60,1,98.9999969787599
68,108,83075,2,0,P|52:60|64:8,1,98.9999969787599
276,296,83439,5,0,0:0:0:0:
408,28,83620,1,0,0:0:0:0:
272,328,83802,1,0,0:0:0:0:
88,32,83984,1,0,0:0:0:0:
276,360,84166,5,0,0:0:0:0:
456,24,84348,1,0,0:0:0:0:
276,384,84530,1,0,0:0:0:0:
88,16,84711,1,0,0:0:0:0:
408,108,84893,6,0,L|292:160,1,107.249995090485
340,344,85257,2,0,L|288:228,1,107.249995090485
104,276,85620,2,0,L|220:224,1,107.249995090485
172,40,85984,2,0,L|224:156,1,107.249995090485
256,224,86348,5,0,0:0:0:0:
256,192,86439,12,0,87802,0:0:0:0:
