osu file format v14

[General]
AudioFilename: Gabriel DropKick.mp3
AudioLeadIn: 0
PreviewTime: 61453
Countdown: 1
SampleSet: Soft
StackLeniency: 0.7
Mode: 0
LetterboxInBreaks: 1
WidescreenStoryboard: 1

[Editor]
Bookmarks: 120,2786,8119,9453,20119,30786,38786,41453,52119,60119,61453,72119,74786,76119,77453,80453,81453
DistanceSpacing: 1.2
BeatDivisor: 4
GridSize: 4
TimelineZoom: 3.399998

[Metadata]
Title:FUNKOT COMPILATIONS
TitleUnicode:FUNKOT COMPILATIONS
Artist:VARIOUS ARTISTS
ArtistUnicode:VARIOUS ARTISTS
Creator:Aikyuu-Chan
Version:Gabriel Dropkick SquishyFish's INSANE
Source:
Tags:Love Live! Sunshine!! ラブライブ!サンシャイン!! DJ Ramakun Aqours Aquors anime school idol project Inami Anju 伊波杏樹 Aida Rikako 逢田梨香子 Suwa Nanaka 諏訪ななか Komiya Arisa 小宮有紗 Saito Shuka 斉藤朱夏 Kobayashi Aika 小林愛香 Takatsuki Kanako 高槻かなこ Suzuki Aina 鈴木愛奈 Furihata Ai 降幡 愛 Takami Chika 高海千歌 Sakurauchi Riko 桜内梨子 Matsuura Kanan 松浦果南 Kurosawa Dia 黒澤ダイヤ Watanabe You 渡辺 曜 Tsushima Yoshiko 津島善子 Kunikida Hanamaru 国木田花丸 Ohara Mari 小原鞠莉 Kurosawa Ruby 黒澤ルビィ Funkot Dangdut Sedikit Dugem Drum n Bass DDB DJ™ Richiter Dangdut Dugem Goyang Joget Sawer Indonesia Loli Lolicon Moe Cafe gochuumon wa usagi desu ka is the order a rabbit gochiusa ごちうさ season two 2 op opening sakura ayane 佐倉綾音 hoto cocoa 保登心愛 ココア minase inori 水瀬いのり kafuu chino 香風智乃 チノ taneda risa 種田梨沙 tedeza rize 天々座理世 リゼ satou satomi 佐藤聡美 ujimatsu chiya 宇治松千夜 uchida maaya 内田真礼 kirima syaro 桐間紗路 シャロ Petit Rabbit's Re:ゼロから始める異世界生活 Anime Re: Zero Kara Hajimeru Isekai Seikatsu Life in a different world from zero Re:zero Tv Size Ed Ending EMILIA Rem Ram Subaru Indonesia Dangdut Dugem AKI Feat. Ramakun 熱闘!BEMANIスタジアム BEMANI Beatmania IIDX DDR pop'n jubeat reflec beat GITADORA ミライダガッキ SOUND VOLTEX II りす Risu dropout gabdro dropkick ガヴドロ opening tv size tenma gabriel white 天真・ガヴリール・ホワイト tsukinose vignette april 月乃瀬・ヴィネット・エイプリル vigne ヴィーネ kurumizawa satanichia mcdowell 胡桃沢・サタニキア・マクドウェル satania サターニャ shiraha raphiel ainsworth 白羽・ラフィエル・エインズワース Plastic Memories tv size anime attack on titan opening shingeki no kyojin 進撃の巨人 SnK Guren no Yumiya armin arlert levi erin jaeger mikasa indomie macross delta walkure マクロスΔ Sono Hanabira no Kuchizuke Wo Sonohana Yuri 学戦都市アスタリスクTHE ASTERISK WAR The Academy City on the Water Gakusen Toshi Asterisk Shiena Nishizawa Brand-new World ClariS エロマンガ先生 ヒトリゴト -TV MIX- Hitorigoto eromanga sensei ero manga eromanga-sensei eromangasensei opening tv size happy party train rokudenashi jinrui wa suitai shimashita
BeatmapID:1292497
BeatmapSetID:602628

[Difficulty]
HPDrainRate:1
CircleSize:4
OverallDifficulty:7
ApproachRate:9
SliderMultiplier:1.8
SliderTickRate:1

[Events]
//Background and Video events
0,0,"BG.jpg",0,0
//Break Periods
2,25653,27519
//Storyboard Layer 0 (Background)
//Storyboard Layer 1 (Fail)
//Storyboard Layer 2 (Pass)
//Storyboard Layer 3 (Foreground)
//Storyboard Layer 4 (Overlay)
//Storyboard Sound Samples

[TimingPoints]
120,333.333333333333,4,2,0,100,1,0
120,-100,4,2,0,5,0,0
2619,-100,4,2,0,5,0,0
2786,-133.333333333333,4,2,0,100,0,1
2869,-100,4,2,0,100,0,0
8119,-100,4,2,0,100,0,1
9119,-100,4,2,0,100,0,0
9453,-100,4,2,0,100,0,1
9536,-100,4,2,0,100,0,0
20119,-100,4,2,0,100,0,1
20203,-100,4,2,0,100,0,0
30786,-100,4,2,0,100,0,1
30869,-100,4,2,0,100,0,0
38786,-100,4,2,0,100,0,0
41119,-66.6666666666667,4,2,0,100,0,0
41453,-100,4,2,0,100,0,1
41536,-100,4,2,0,100,0,0
52119,-100,4,2,0,100,0,1
52203,-100,4,2,0,100,0,0
60119,-100,4,2,0,100,0,0
61453,-100,4,2,0,100,0,1
66453,-100,4,2,0,100,0,0
66786,-100,4,2,0,100,0,1
72036,-100,4,2,0,100,0,0
72119,-100,4,2,0,100,0,1
72203,-100,4,2,0,100,0,0
73119,-100,4,2,0,100,0,1
73203,-100,4,2,0,100,0,0
73453,-100,4,2,0,100,0,1
73536,-100,4,2,0,100,0,0
74453,-100,4,2,0,100,0,1
74536,-100,4,2,0,100,0,0
74786,-100,4,2,0,100,0,1
74869,-100,4,2,0,100,0,0
75119,-100,4,2,0,100,0,1
75203,-100,4,2,0,100,0,0
75453,-100,4,2,0,100,0,1
75536,-100,4,2,0,100,0,0
75786,-100,4,2,0,100,0,1
75869,-100,4,2,0,100,0,0
76119,-100,4,2,0,100,0,1
76203,-100,4,2,0,100,0,1
77369,-100,4,2,0,100,0,0
77453,-100,4,2,0,100,0,1
77536,-100,4,2,0,100,0,0
77786,-100,4,2,0,100,0,1
77869,-100,4,2,0,100,0,0
78119,-100,4,2,0,100,0,1
78203,-100,4,2,0,100,0,0
78453,-100,4,2,0,100,0,1
78536,-100,4,2,0,100,0,0
78786,-100,4,2,0,100,0,1
78869,-100,4,2,0,100,0,0
79119,-100,4,2,0,100,0,1
79203,-100,4,2,0,100,0,0
79453,-100,4,2,0,100,0,1
79536,-100,4,2,0,100,0,0
79786,-100,4,2,0,100,0,1
79869,-100,4,2,0,100,0,0
80119,-100,4,2,0,100,0,1
80203,-100,4,2,0,100,0,0
80453,-100,4,2,0,100,0,1
80536,-100,4,2,0,100,0,0
81453,-100,4,2,0,100,0,0

[Colours]
Combo1 : 255,255,255
Combo2 : 242,231,13
Combo3 : 255,106,106
Combo4 : 247,128,19

[HitObjects]
216,172,1453,5,0,0:0:0:0:
256,192,1536,12,0,2703,0:0:0:0:
328,80,2786,6,0,P|248:60|184:76,1,135,6|0,0:0|0:0,0:0:0:0:
112,148,3286,1,0,0:0:0:0:
104,176,3453,2,0,L|108:288,1,90,2|0,0:0|0:0,0:0:0:0:
232,200,3786,2,0,L|248:96,1,90,2|0,0:0|0:0,0:0:0:0:
152,268,4119,6,0,B|184:300|184:300|344:296,1,180,2|0,0:0|0:0,0:0:0:0:
388,224,4619,1,0,0:0:0:0:
388,224,4786,1,2,0:0:0:0:
288,112,5453,6,0,B|276:160|276:160|280:232,1,90,2|0,0:0|0:0,0:0:0:0:
384,144,5786,2,0,B|396:96|396:96|392:24,1,90,2|0,0:0|0:0,0:0:0:0:
240,28,6119,2,0,L|120:28,1,90,2|0,0:0|0:0,0:0:0:0:
96,200,6453,1,2,0:0:0:0:
268,156,6786,6,0,B|212:144|212:144|144:168|144:168|60:156,1,180,2|0,0:0|0:0,0:0:0:0:
24,92,7286,2,0,L|48:288,1,180,2|0,0:0|0:0,0:0:0:0:
32,360,7786,1,2,0:0:0:0:
260,192,8119,1,14,0:0:0:0:
384,256,8286,5,10,0:0:0:0:
384,256,8369,1,10,0:0:0:0:
384,256,8453,2,0,P|392:216|384:192,1,45,8|0,0:0|0:0,0:0:0:0:
328,104,8619,2,0,P|320:136|328:168,1,45,2|0,0:0|0:0,0:0:0:0:
388,52,8786,2,0,P|340:28|284:40,1,90,8|2,0:0|0:0,0:0:0:0:
244,92,9119,6,0,B|208:88|184:64|184:64|192:112|188:156,1,135,2|0,3:0|0:0,0:0:0:0:
192,208,9453,6,0,B|144:224|144:224|84:216,1,90,6|0,0:0|0:0,0:0:0:0:
200,320,9786,2,0,B|252:304|252:304|312:320,1,90,8|0,0:0|0:0,0:0:0:0:
364,200,10119,1,2,0:0:0:0:
344,356,10286,1,0,0:0:0:0:
364,200,10453,1,8,0:0:0:0:
344,356,10620,1,0,0:0:0:0:
436,244,10786,6,0,P|440:188|424:124,1,90,2|0,0:0|0:0,0:0:0:0:
280,12,11119,2,0,P|276:68|292:132,1,90,8|0,0:0|0:0,0:0:0:0:
360,144,11453,2,0,L|152:148,1,180,2|8,0:0|0:0,0:0:0:0:
88,96,11953,5,0,0:0:0:0:
84,112,12036,1,0,0:0:0:0:
84,124,12119,2,0,B|76:172|76:172|100:232,1,90,2|0,0:0|0:0,0:0:0:0:
240,248,12453,2,0,B|248:200|248:200|224:140,1,90,8|0,0:0|0:0,0:0:0:0:
144,308,12786,2,0,B|192:288|192:288|344:284,1,180,2|8,0:0|0:0,0:0:0:0:
408,336,13286,5,0,0:0:0:0:
400,320,13369,1,0,0:0:0:0:
404,304,13453,2,0,L|408:192,1,90,2|0,0:0|0:0,0:0:0:0:
284,24,13786,2,0,L|276:148,1,90,8|0,0:0|0:0,0:0:0:0:
336,168,14119,2,0,P|264:152|188:180,1,135,2|0,0:0|0:0,0:0:0:0:
172,216,14453,6,0,L|168:108,1,90,8|0,0:0|0:0,0:0:0:0:
280,240,14786,2,0,L|280:344,1,90,2|0,0:0|0:0,0:0:0:0:
96,172,15119,1,8,0:0:0:0:
108,96,15286,1,0,0:0:0:0:
132,268,15453,6,0,P|92:272|36:256,1,90,2|0,0:0|0:0,0:0:0:0:
232,224,15786,2,0,P|240:256|224:328,1,90,8|0,0:0|0:0,0:0:0:0:
180,128,16119,1,2,0:0:0:0:
300,132,16286,1,0,0:0:0:0:
112,192,16453,6,0,P|88:144|92:80,1,90,8|0,0:0|0:0,0:0:0:0:
316,216,16786,2,0,P|340:264|336:328,1,90,2|0,0:0|0:0,0:0:0:0:
240,336,17119,2,0,L|80:340,1,135,8|0,0:0|0:0,0:0:0:0:
68,280,17453,6,0,L|-8:296,3,45,2|0|0|0,0:0|0:0|0:0|0:0,0:0:0:0:
144,200,17786,2,0,L|212:220,3,45,8|0|0|0,0:0|0:0|0:0|0:0,0:0:0:0:
80,112,18119,2,0,L|64:48,3,45,2|0|0|0,0:0|0:0|0:0|0:0,0:0:0:0:
72,224,18453,5,8,0:0:0:0:
107,198,18536,1,0,0:0:0:0:
152,196,18619,1,8,0:0:0:0:
190,218,18702,1,0,0:0:0:0:
208,248,18786,6,0,L|204:300,5,30,8|0|0|8|0|0,0:0|0:0|0:0|0:0|0:0|0:0,0:0:0:0:
172,356,19119,6,0,L|232:360,1,45,8|0,0:0|0:0,0:0:0:0:
344,292,19286,2,2,L|284:288,1,45,10|2,0:0|0:0,0:0:0:0:
388,344,19453,6,0,L|384:220,1,90,6|2,0:0|0:0,0:0:0:0:
360,176,19703,2,0,L|344:148,2,22.5,0|0|8,0:0|0:0|0:0,0:0:0:0:
388,80,19953,1,0,0:0:0:0:
288,68,20119,6,0,P|216:48|140:76,1,135,6|0,0:0|0:0,0:0:0:0:
108,132,20453,2,0,L|108:240,1,90,2|2,0:0|0:0,0:0:0:0:
256,312,20786,2,0,L|268:180,1,90,2|0,0:0|0:0,0:0:0:0:
108,132,21119,1,2,0:0:0:0:
108,222,21286,1,2,0:0:0:0:
336,272,21453,6,0,L|156:276,1,180,2|0,0:0|0:0,0:0:0:0:
336,188,21953,1,2,0:0:0:0:
248,104,22119,6,0,B|172:144|116:84|116:84|180:168|148:216|148:216|136:156,1,315,2|0,0:0|0:0,0:0:0:0:
72,168,22786,6,0,L|72:272,1,90,2|0,0:0|0:0,0:0:0:0:
224,288,23119,2,0,L|232:184,1,90,8|0,0:0|0:0,0:0:0:0:
328,56,23453,1,2,0:0:0:0:
336,188,23619,1,0,0:0:0:0:
204,132,23786,1,8,0:0:0:0:
328,56,23953,6,0,L|328:204,1,135
252,280,24286,1,8,0:0:0:0:
404,168,24453,1,8,0:0:0:0:
340,340,24619,1,2,0:0:0:0:
152,256,24786,6,0,L|176:248,4,22.5,2|0|0|0|0,0:0|0:0|0:0|0:0|0:0,0:0:0:0:
224,84,25119,2,0,L|216:188,1,90,8|0,0:0|0:0,0:0:0:0:
152,332,25453,1,6,0:0:0:0:
408,144,28119,6,0,L|316:148,1,90,2|0,0:0|0:0,0:0:0:0:
152,76,28453,2,0,L|248:72,1,90,8|0,0:0|0:0,0:0:0:0:
396,228,28786,5,2,0:0:0:0:
312,236,28952,1,0,0:0:0:0:
224,216,29119,2,0,L|220:328,1,90,8|0,0:0|0:0,0:0:0:0:
128,288,29453,5,2,0:0:0:0:
132,188,29619,1,0,0:0:0:0:
168,92,29786,2,0,L|276:80,1,90,8|0,0:0|0:0,0:0:0:0:
360,132,30119,6,2,L|388:128,4,22.5
220,200,30453,2,0,L|320:204,1,90,8|0,0:0|0:0,0:0:0:0:
144,260,30786,6,0,P|132:232|144:164,1,90,4|0,0:0|0:0,0:0:0:0:
236,280,31119,2,0,P|212:336|160:360,1,90,8|0,0:0|0:0,0:0:0:0:
60,256,31453,1,2,0:0:0:0:
124,148,31619,1,0,0:0:0:0:
112,336,31786,6,0,P|56:348|4:340,1,90,8|0,0:0|0:0,0:0:0:0:
244,144,32119,1,2,0:0:0:0:
268,332,32286,1,0,0:0:0:0:
176,208,32453,6,0,P|222:202|288:204,1,90,8|0,0:0|0:0,0:0:0:0:
380,288,32786,2,0,L|376:100,1,180,2|8,0:0|0:0,0:0:0:0:
440,24,33286,1,0,0:0:0:0:
440,128,33453,6,0,P|336:132|312:128,1,90,2|0,0:0|0:0,0:0:0:0:
200,88,33786,2,0,P|304:84|328:88,1,90,8|0,0:0|0:0,0:0:0:0:
208,208,34119,1,2,0:0:0:0:
32,184,34286,1,0,0:0:0:0:
136,136,34453,1,8,0:0:0:0:
116,296,34619,6,0,L|104:100,1,180
52,56,35119,1,8,0:0:0:0:
4,240,35286,1,0,0:0:0:0:
240,268,35453,6,0,P|164:272|52:268,1,180,2|8,0:0|0:0,0:0:0:0:
252,128,35953,1,0,0:0:0:0:
308,220,36119,6,0,P|320:280|304:320,1,90,2|0,0:0|0:0,0:0:0:0:
192,228,36453,2,0,P|200:172|236:128,1,90,8|0,0:0|0:0,0:0:0:0:
236,296,36786,2,0,P|184:312|136:304,1,90,2|0,0:0|0:0,0:0:0:0:
80,180,37119,1,8,0:0:0:0:
176,80,37286,1,0,0:0:0:0:
208,204,37453,6,0,L|80:208,1,90,2|0,0:0|0:0,0:0:0:0:
80,180,37703,1,0,0:0:0:0:
40,168,37786,2,0,L|44:224,1,45,8|0,0:0|0:0,0:0:0:0:
84,316,37953,5,2,0:0:0:0:
160,56,38119,2,0,L|160:180,1,90,8|2,0:0|0:0,0:0:0:0:
288,88,38453,2,0,L|280:208,1,90,8|0,0:0|0:0,0:0:0:0:
192,324,38786,5,6,0:0:0:0:
192,324,40119,5,2,0:0:0:0:
272,224,40286,2,8,L|272:172,2,45
344,280,40619,1,2,0:0:0:0:
196,232,40786,2,0,L|188:108,1,90,8|0,0:0|0:0,0:0:0:0:
152,296,41119,6,0,B|236:324|272:256|272:256|264:304|276:328|276:328|288:280,1,202.500007724762,2|0,0:0|0:0,0:0:0:0:
344,220,41453,6,0,P|292:180|244:180,1,90,6|0,0:0|0:0,0:0:0:0:
224,172,41703,1,2,0:0:0:0:
180,164,41786,2,0,P|128:144|96:112,1,90,8|0,0:0|0:0,0:0:0:0:
56,48,42119,2,0,L|68:168,1,90,2|0,0:0|0:0,0:0:0:0:
20,256,42453,6,0,B|60:264|104:240|104:240|132:264|132:264|168:240|224:256,1,180,8|2,0:0|0:0,0:0:0:0:
280,276,42953,1,0,0:0:0:0:
196,344,43119,2,0,P|184:300|196:252,1,90,8|0,0:0|0:0,0:0:0:0:
280,96,43453,2,0,P|292:140|280:188,1,90,2|0,0:0|0:0,0:0:0:0:
224,220,43786,2,0,P|292:208|384:220,1,135,8|0,0:0|0:0,0:0:0:0:
400,272,44119,6,0,L|400:172,1,90,2|0,0:0|0:0,0:0:0:0:
296,24,44453,2,0,L|304:132,1,90,8|0,0:0|0:0,0:0:0:0:
352,204,44786,1,2,0:0:0:0:
216,204,44953,1,0,0:0:0:0:
176,96,45119,6,0,P|140:56|84:48,1,90,8|0,0:0|0:0,0:0:0:0:
80,84,45369,1,0,0:0:0:0:
72,128,45453,2,0,L|76:248,1,90,2|0,0:0|0:0,0:0:0:0:
160,328,45786,2,0,L|160:208,1,90,8|0,0:0|0:0,0:0:0:0:
264,152,46119,5,2,0:0:0:0:
256,240,46286,1,0,0:0:0:0:
208,88,46453,2,0,P|256:68|296:72,1,90,8|0,0:0|0:0,0:0:0:0:
364,192,46786,2,0,L|364:312,1,90,2|0,0:0|0:0,0:0:0:0:
176,236,47119,2,0,L|176:146,1,90,8|0,0:0|0:0,0:0:0:0:
248,312,47453,5,2,0:0:0:0:
136,340,47619,1,0,0:0:0:0:
248,312,47786,1,8,0:0:0:0:
136,340,47952,1,0,0:0:0:0:
80,164,48119,6,0,L|88:288,1,90,2|0,0:0|0:0,0:0:0:0:
276,196,48453,2,0,L|284:88,1,90,8|0,0:0|0:0,0:0:0:0:
172,60,48786,5,2,0:0:0:0:
96,240,48953,1,0,0:0:0:0:
56,112,49119,1,8,0:0:0:0:
200,176,49286,1,0,0:0:0:0:
164,320,49453,6,0,L|160:252,3,45,2|0|0|0,0:0|0:0|0:0|0:0,0:0:0:0:
268,260,49786,2,0,L|272:192,3,45,8|0|0|0,0:0|0:0|0:0|0:0,0:0:0:0:
208,132,50119,6,0,P|248:140|292:136,1,45,2|0,0:0|0:0,0:0:0:0:
380,80,50286,2,0,P|340:72|296:76,1,45
208,132,50453,2,0,P|248:140|292:136,1,45,8|0,0:0|0:0,0:0:0:0:
380,80,50620,2,0,P|340:72|296:76,1,45
128,48,50786,5,2,0:0:0:0:
132,92,50869,1,0,0:0:0:0:
137,137,50952,1,0,0:0:0:0:
142,182,51036,1,0,0:0:0:0:
148,224,51119,2,0,L|152:100,1,90,8|0,0:0|0:0,0:0:0:0:
364,160,51453,2,0,L|360:284,1,90,2|0,0:0|0:0,0:0:0:0:
260,280,51786,2,0,B|248:244|260:208|260:208|252:180|252:180|268:140|260:116,1,135,8|0,0:0|0:0,0:0:0:0:
212,52,52119,5,6,0:0:0:0:
80,76,52453,5,2,0:0:0:0:
84,164,52786,1,2,0:0:0:0:
92,252,53119,1,2,0:0:0:0:
296,168,53453,5,2,0:0:0:0:
208,172,53786,1,2,0:0:0:0:
120,176,54119,5,2,0:0:0:0:
264,264,54286,1,2,0:0:0:0:
272,60,54453,2,2,L|264:152,1,90
324,312,54786,2,2,P|264:268|216:268,1,90,6|0,0:0|0:0,0:0:0:0:
88,336,55119,5,2,0:0:0:0:
64,208,55286,1,2,0:0:0:0:
88,336,55453,1,2,0:0:0:0:
64,208,55619,1,2,0:0:0:0:
204,172,55786,2,2,L|196:280,1,90,2|0,0:0|0:0,0:0:0:0:
136,100,56119,5,2,0:0:0:0:
272,88,56286,1,2,0:0:0:0:
136,100,56453,1,2,0:0:0:0:
272,88,56620,1,2,0:0:0:0:
416,240,56786,2,2,P|352:224|312:228,1,90,2|0,0:0|0:0,0:0:0:0:
224,304,57119,6,2,P|288:320|328:316,1,90,2|0,0:0|0:0,0:0:0:0:
220,172,57453,1,2,0:0:0:0:
220,172,57619,1,2,0:0:0:0:
220,172,57786,5,2,0:0:0:0:
203,150,57869,1,2,0:0:0:0:
180,136,57952,1,2,0:0:0:0:
154,132,58036,1,2,0:0:0:0:
128,137,58119,1,2,0:0:0:0:
105,152,58202,1,2,0:0:0:0:
92,180,58286,1,2,0:0:0:0:
103,214,58369,1,2,0:0:0:0:
107,249,58452,1,2,0:0:0:0:
103,285,58536,1,2,0:0:0:0:
80,312,58619,1,2,0:0:0:0:
118,290,58702,1,2,0:0:0:0:
163,291,58785,1,2,0:0:0:0:
200,315,58869,1,2,0:0:0:0:
220,348,58953,1,2,0:0:0:0:
220,348,59036,1,2,0:0:0:0:
220,348,59119,6,2,L|232:296,3,45
192,204,59453,2,2,L|180:152,3,45
304,36,59786,2,2,P|276:28|232:36,1,45
152,80,59953,2,2,P|180:88|224:80,1,45
360,92,60119,5,6,0:0:0:0:
360,92,61453,6,0,P|376:144|364:216,1,90,2|0,0:0|0:0,0:0:0:0:
360,216,61703,1,0,0:0:0:0:
324,232,61786,2,0,L|216:236,1,90,8|0,0:0|0:0,0:0:0:0:
104,144,62119,2,0,L|208:144,1,90,2|0,0:0|0:0,0:0:0:0:
48,80,62369,6,0,L|64:240,1,135,8|0,0:0|0:0,0:0:0:0:
56,320,62786,2,0,P|112:292|176:300,1,90,2|0,0:0|0:0,0:0:0:0:
236,292,63036,2,0,P|280:285|318:262,1,90,10|0,0:0|0:0,0:0:0:0:
344,144,63286,1,2,0:0:0:0:
232,64,63453,6,0,L|240:168,1,90,2|0,0:0|0:0,0:0:0:0:
238,153,63703,1,0,0:0:0:0:
238,153,63786,1,8,0:0:0:0:
184,296,63953,1,0,0:0:0:0:
128,144,64119,1,6,0:0:0:0:
364,220,64453,5,2,0:0:0:0:
272,280,64786,2,0,L|268:168,1,90,2|8,0:0|0:0,0:0:0:0:
284,128,65036,1,8,0:0:0:0:
284,128,65119,1,8,0:0:0:0:
188,48,65286,1,0,0:0:0:0:
196,172,65453,6,0,P|152:152|96:168,1,90,8|2,0:0|0:0,0:0:0:0:
64,200,65703,1,0,0:0:0:0:
52,260,65786,2,0,L|60:376,1,90,2|8,0:0|0:0,0:0:0:0:
156,240,66119,5,0,0:0:0:0:
144,340,66286,2,0,L|176:336,4,22.5,0|0|0|0|8,0:0|0:0|0:0|0:0|0:0,0:0:0:0:
296,264,66619,1,0,0:0:0:0:
368,208,66786,6,0,P|320:176|256:192,1,90,2|0,0:0|0:0,0:0:0:0:
228,184,67036,1,0,0:0:0:0:
168,204,67119,2,0,P|100:204|48:192,1,90,8|0,0:0|0:0,0:0:0:0:
124,80,67453,2,0,P|168:76|232:80,1,90,2|0,0:0|0:0,0:0:0:0:
268,108,67703,2,0,P|312:112|376:108,1,90,8|0,0:0|0:0,0:0:0:0:
416,84,67953,1,2,0:0:0:0:
412,208,68119,6,0,B|408:240|396:256|396:256|416:276|420:304|420:304|408:324|412:352,2,135,2|8|2,0:0|0:0|0:0,0:0:0:0:
280,136,68786,2,0,L|288:240,1,90,2|0,0:0|0:0,0:0:0:0:
286,225,69036,1,0,0:0:0:0:
286,225,69119,1,8,0:0:0:0:
356,316,69286,5,0,0:0:0:0:
360,96,69453,1,6,0:0:0:0:
188,220,70286,5,8,0:0:0:0:
88,208,70453,1,8,0:0:0:0:
88,208,70536,1,0,0:0:0:0:
88,208,70619,1,2,0:0:0:0:
88,208,70703,1,2,0:0:0:0:
88,208,70786,6,0,P|72:152|88:80,1,90,8|0,0:0|0:0,0:0:0:0:
228,20,71036,2,0,P|228:64|213:107,1,90,8|0,0:0|0:0,0:0:0:0:
196,192,71286,2,0,L|208:228,3,22.5
188,236,71453,6,8,L|296:232,1,90
412,148,71786,2,8,L|322:144,1,90
108,180,72119,6,0,P|96:260|108:292,1,90,6|0,0:0|0:0,0:0:0:0:
128,308,72369,1,0,0:0:0:0:
176,328,72453,6,0,L|292:328,1,90,8|0,0:0|0:0,0:0:0:0:
396,236,72786,2,0,L|268:236,1,90,2|0,0:0|0:0,0:0:0:0:
168,160,73119,2,0,L|276:152,1,90,8|0,0:0|0:0,0:0:0:0:
392,56,73453,2,0,L|284:56,1,90,2|0,0:0|0:0,0:0:0:0:
252,60,73703,1,0,0:0:0:0:
204,68,73786,6,0,L|100:68,1,90,8|0,0:0|0:0,0:0:0:0:
24,144,74119,2,0,P|12:216|24:256,1,90,2|0,0:0|0:0,0:0:0:0:
128,312,74453,2,0,L|-16:316,1,135,8|0,0:0|0:0,0:0:0:0:
176,240,74786,1,6,0:0:0:0:
268,248,75119,6,0,L|256:352,1,90,8|2,0:0|0:0,0:0:0:0:
176,240,75453,1,0,0:0:0:0:
384,176,75786,6,0,L|368:272,1,90,8|2,0:0|0:0,0:0:0:0:
176,240,76119,1,2,0:0:0:0:
172,228,76203,1,2,0:0:0:0:
172,216,76286,2,0,L|184:168,1,45,2|0,0:0|0:0,0:0:0:0:
136,144,76453,6,0,L|240:140,1,90,8|0,0:0|0:0,0:0:0:0:
368,184,76786,2,0,L|368:304,1,90,8|0,0:0|0:0,0:0:0:0:
344,324,77036,1,0,0:0:0:0:
292,336,77119,2,0,L|192:332,1,90,8|0,0:0|0:0,0:0:0:0:
64,256,77453,5,4,0:0:0:0:
