osu file format v14

[General]
AudioFilename: Gabriel DropKick.mp3
AudioLeadIn: 0
PreviewTime: 61453
Countdown: 1
SampleSet: Soft
StackLeniency: 0.7
Mode: 0
LetterboxInBreaks: 1
WidescreenStoryboard: 1

[Editor]
Bookmarks: 120,2786,8119,9453,20119,30786,38786,41453,52119,60119,61453,72119,74786,76119,77453,80453,81453,0,858
DistanceSpacing: 1
BeatDivisor: 4
GridSize: 4
TimelineZoom: 2.799999

[Metadata]
Title:FUNKOT COMPILATIONS
TitleUnicode:FUNKOT COMPILATIONS
Artist:VARIOUS ARTISTS
ArtistUnicode:VARIOUS ARTISTS
Creator:Aikyuu-Chan
Version:Gabriel Dropkick Elza's INSANE
Source:
Tags:Love Live! Sunshine!! ラブライブ!サンシャイン!! DJ Ramakun Aqours Aquors anime school idol project Inami Anju 伊波杏樹 Aida Rikako 逢田梨香子 Suwa Nanaka 諏訪ななか Komiya Arisa 小宮有紗 Saito Shuka 斉藤朱夏 Kobayashi Aika 小林愛香 Takatsuki Kanako 高槻かなこ Suzuki Aina 鈴木愛奈 Furihata Ai 降幡 愛 Takami Chika 高海千歌 Sakurauchi Riko 桜内梨子 Matsuura Kanan 松浦果南 Kurosawa Dia 黒澤ダイヤ Watanabe You 渡辺 曜 Tsushima Yoshiko 津島善子 Kunikida Hanamaru 国木田花丸 Ohara Mari 小原鞠莉 Kurosawa Ruby 黒澤ルビィ Funkot Dangdut Sedikit Dugem Drum n Bass DDB DJ™ Richiter Dangdut Dugem Goyang Joget Sawer Indonesia Loli Lolicon Moe Cafe gochuumon wa usagi desu ka is the order a rabbit gochiusa ごちうさ season two 2 op opening sakura ayane 佐倉綾音 hoto cocoa 保登心愛 ココア minase inori 水瀬いのり kafuu chino 香風智乃 チノ taneda risa 種田梨沙 tedeza rize 天々座理世 リゼ satou satomi 佐藤聡美 ujimatsu chiya 宇治松千夜 uchida maaya 内田真礼 kirima syaro 桐間紗路 シャロ Petit Rabbit's Re:ゼロから始める異世界生活 Anime Re: Zero Kara Hajimeru Isekai Seikatsu Life in a different world from zero Re:zero Tv Size Ed Ending EMILIA Rem Ram Subaru Indonesia Dangdut Dugem AKI Feat. Ramakun 熱闘!BEMANIスタジアム BEMANI Beatmania IIDX DDR pop'n jubeat reflec beat GITADORA ミライダガッキ SOUND VOLTEX II りす Risu dropout gabdro dropkick ガヴドロ opening tv size tenma gabriel white 天真・ガヴリール・ホワイト tsukinose vignette april 月乃瀬・ヴィネット・エイプリル vigne ヴィーネ kurumizawa satanichia mcdowell 胡桃沢・サタニキア・マクドウェル satania サターニャ shiraha raphiel ainsworth 白羽・ラフィエル・エインズワース Plastic Memories tv size anime attack on titan opening shingeki no kyojin 進撃の巨人 SnK Guren no Yumiya armin arlert levi erin jaeger mikasa indomie macross delta walkure マクロスΔ Sono Hanabira no Kuchizuke Wo Sonohana Yuri 学戦都市アスタリスクTHE ASTERISK WAR The Academy City on the Water Gakusen Toshi Asterisk Shiena Nishizawa Brand-new World ClariS エロマンガ先生 ヒトリゴト -TV MIX- Hitorigoto eromanga sensei ero manga eromanga-sensei eromangasensei opening tv size happy party train rokudenashi jinrui wa suitai shimashita
BeatmapID:1287836
BeatmapSetID:602628

[Difficulty]
HPDrainRate:2
CircleSize:4
OverallDifficulty:8
ApproachRate:9
SliderMultiplier:1.79999990463257
SliderTickRate:1

[Events]
//Background and Video events
0,0,"BG.jpg",0,0
//Break Periods
2,38986,40852
//Storyboard Layer 0 (Background)
//Storyboard Layer 1 (Fail)
//Storyboard Layer 2 (Pass)
//Storyboard Layer 3 (Foreground)
//Storyboard Layer 4 (Overlay)
//Storyboard Sound Samples

[TimingPoints]
120,333.333333333333,4,2,0,100,1,0
120,-100,4,2,0,100,0,0
2786,-100,4,2,0,100,0,1
4953,-200,4,2,0,100,0,0
8119,-100,4,2,0,100,0,1
9119,-100,4,2,0,100,0,0
9453,-100,4,2,0,100,0,1
18842,-100,4,3,0,70,0,0
18842,-200,4,3,0,70,0,0
19175,-100,4,3,0,70,0,0
20119,-100,4,2,0,100,0,1
20203,-100,4,2,0,100,0,0
22119,-200,4,2,0,100,0,0
25440,-200,4,2,0,100,0,0
30119,-200,4,2,0,100,0,0
30786,-100,4,2,0,100,0,1
30869,-100,4,2,0,100,0,0
31953,-100,4,2,0,100,0,0
32119,-200,4,2,0,100,0,0
32203,-100,4,2,0,100,0,0
32369,-100,4,2,0,100,0,0
38786,333.333333333333,4,2,0,100,1,0
38786,-100,4,2,0,100,0,0
41453,-100,4,2,0,100,0,1
41536,-100,4,2,0,100,0,0
43452,-100,4,2,0,100,0,0
50785,-200,4,2,0,100,0,0
51452,-100,4,2,0,100,0,0
51785,-100,4,2,0,100,0,0
51952,-100,4,2,0,100,0,0
52035,-100,4,2,0,100,0,0
52119,-100,4,2,0,100,0,1
52203,-100,4,2,0,100,0,0
53785,-100,4,2,0,100,0,0
60119,-100,4,2,0,100,0,0
61453,-100,4,2,0,100,0,1
66453,-100,4,2,0,100,0,0
66786,-100,4,2,0,100,0,1
72036,-100,4,2,0,100,0,0
72119,-100,4,2,0,100,0,1
72203,-100,4,2,0,100,0,0
73119,-100,4,2,0,100,0,1
73203,-100,4,2,0,100,0,0
73453,-100,4,2,0,100,0,1
73536,-100,4,2,0,100,0,0
74453,-100,4,2,0,100,0,1
74536,-100,4,2,0,100,0,0
74786,-100,4,2,0,100,0,1
74869,-100,4,2,0,100,0,0
75119,-100,4,2,0,100,0,1
75203,-100,4,2,0,100,0,0
75453,-100,4,2,0,100,0,1
75536,-100,4,2,0,100,0,0
75786,-100,4,2,0,100,0,1
75869,-100,4,2,0,100,0,0
76119,-50,4,2,0,100,0,1
76203,-100,4,2,0,100,0,1
77369,-100,4,2,0,100,0,0
77453,-100,4,2,0,100,0,1
77536,-100,4,2,0,100,0,0
77786,-100,4,2,0,100,0,1
77869,-100,4,2,0,100,0,0
78119,-100,4,2,0,100,0,1
78203,-100,4,2,0,100,0,0
78453,-100,4,2,0,100,0,1
78536,-100,4,2,0,100,0,0
78786,-100,4,2,0,100,0,1
78869,-100,4,2,0,100,0,0
79119,-100,4,2,0,100,0,1
79203,-100,4,2,0,100,0,0
79453,-100,4,2,0,100,0,1
79536,-100,4,2,0,100,0,0
79786,-100,4,2,0,100,0,1
79869,-100,4,2,0,100,0,0
80119,-100,4,2,0,100,0,1
80203,-100,4,2,0,100,0,0
80453,-100,4,2,0,100,0,1
80536,-100,4,2,0,100,0,0
81453,-100,4,2,0,100,0,0

[HitObjects]
108,116,2786,5,0,0:0:0:0:
384,140,3119,1,0,0:0:0:0:
224,196,3286,1,0,0:0:0:0:
388,252,3453,1,0,0:0:0:0:
292,112,3619,1,0,0:0:0:0:
280,280,3786,1,0,0:0:0:0:
68,268,3953,2,0,B|128:224|140:204|140:204|116:236|104:236|92:244|148:192|132:176|92:168|84:164,1,180
56,144,4453,6,0,L|156:92,1,90
380,64,4786,2,0,L|280:48,1,90
224,91,5286,6,0,B|204:123|220:159|236:175|204:192,1,90
240,252,5786,2,0,B|288:200|340:160,1,134.999992847443
144,164,6453,1,0,0:0:0:0:
64,232,6786,5,0,0:0:0:0:
264,212,7286,1,0,0:0:0:0:
72,252,7786,1,0,0:0:0:0:
256,192,8286,12,0,9120,0:0:0:0:
468,228,9453,5,0,0:0:0:0:
468,228,9536,1,0,0:0:0:0:
468,228,9619,2,0,B|472:180|472:156|464:200|480:144|448:160|440:208|492:212|488:160|480:136|476:128,2,90
432,112,10119,5,0,0:0:0:0:
352,48,10286,1,0,0:0:0:0:
248,52,10453,1,0,0:0:0:0:
280,276,10786,5,0,0:0:0:0:
184,232,10953,1,0,0:0:0:0:
204,328,11119,6,0,L|112:340,1,90
88,324,11453,1,0,0:0:0:0:
80,312,11536,1,0,0:0:0:0:
68,304,11619,6,0,L|32:128,1,180
92,96,12119,5,0,0:0:0:0:
144,120,12286,1,0,0:0:0:0:
156,180,12453,1,0,0:0:0:0:
192,220,12619,5,0,0:0:0:0:
200,224,12703,1,0,0:0:0:0:
212,228,12786,2,0,B|288:236|316:232|316:228,1,90
344,200,13119,1,0,0:0:0:0:
380,144,13453,6,0,P|376:92|344:72,1,90
296,168,13786,2,0,B|232:128|264:84|280:68,1,90
312,44,14119,2,0,P|276:16|216:20,1,90
200,104,14453,2,0,P|140:92|136:124,1,90
200,208,14786,5,0,0:0:0:0:
304,232,14953,1,0,0:0:0:0:
200,208,15119,5,0,0:0:0:0:
304,144,15286,1,0,0:0:0:0:
200,208,15453,1,0,0:0:0:0:
236,96,15619,1,0,0:0:0:0:
200,208,15786,5,0,0:0:0:0:
152,84,15953,1,0,0:0:0:0:
124,172,16119,5,0,0:0:0:0:
72,188,16286,1,0,0:0:0:0:
20,216,16453,1,0,0:0:0:0:
4,268,16619,1,0,0:0:0:0:
40,308,16786,1,0,0:0:0:0:
80,320,16953,6,0,L|136:240,2,90
196,156,17453,2,0,L|152:88,6,45
256,132,18119,2,0,L|280:180,9,30
344,180,18786,2,0,L|384:196,4,30
396,268,19119,6,0,L|404:244,3,15
312,244,19453,2,0,L|316:292,2,44.9999976158142
232,264,19786,6,0,L|240:240,6,15
100,240,20119,5,0,0:0:0:0:
276,208,20286,1,0,0:0:0:0:
144,144,20453,1,0,0:0:0:0:
280,144,20619,1,0,0:0:0:0:
208,64,20786,1,0,0:0:0:0:
116,68,20953,5,0,0:0:0:0:
28,124,21119,1,0,0:0:0:0:
24,224,21286,1,0,0:0:0:0:
92,296,21453,6,0,P|196:300|260:256,1,180
216,160,21953,5,0,0:0:0:0:
216,160,22119,2,0,B|148:152|180:120|208:108,1,90
200,52,22619,5,0,0:0:0:0:
88,72,22786,1,0,0:0:0:0:
52,124,22953,1,0,0:0:0:0:
16,168,23119,6,0,B|-8:204|28:256|40:256,1,90
68,280,23619,2,0,P|140:276|152:284,1,90
184,304,24286,1,0,0:0:0:0:
224,312,24453,6,0,L|268:304,1,45
288,224,24786,5,0,0:0:0:0:
288,224,24869,1,0,0:0:0:0:
288,224,24953,1,0,0:0:0:0:
200,212,25119,1,0,0:0:0:0:
200,212,25203,1,0,0:0:0:0:
200,212,25286,1,0,0:0:0:0:
276,144,25453,2,0,B|332:104|360:120|416:104,1,134.999992847443
160,96,26119,6,0,B|136:68|84:60|64:64,1,90
56,136,26786,2,0,L|116:140,1,44.9999976158142
44,216,27119,2,0,L|104:220,1,44.9999976158142
32,292,27453,2,0,L|88:296,1,44.9999976158142
168,276,27786,2,0,L|228:272,1,44.9999976158142
104,144,28119,5,0,0:0:0:0:
272,136,28286,1,0,0:0:0:0:
192,80,28453,1,0,0:0:0:0:
196,212,28619,1,0,0:0:0:0:
104,144,28786,5,0,0:0:0:0:
272,136,28953,1,0,0:0:0:0:
192,80,29120,1,0,0:0:0:0:
196,212,29286,1,0,0:0:0:0:
104,144,29453,5,0,0:0:0:0:
220,144,29619,2,0,P|260:172|276:232,1,112.499994039536
280,260,30119,2,0,L|296:284,2,22.5
176,204,30453,1,0,0:0:0:0:
412,132,30786,5,0,0:0:0:0:
416,256,30953,1,0,0:0:0:0:
328,188,31119,1,0,0:0:0:0:
412,132,31286,5,0,0:0:0:0:
416,256,31453,1,0,0:0:0:0:
328,188,31619,1,0,0:0:0:0:
412,132,31786,5,0,0:0:0:0:
416,256,31953,1,0,0:0:0:0:
328,192,32119,2,0,L|264:176,1,44.9999976158142
312,272,32453,2,0,L|192:248|192:248,1,90
160,340,32786,2,0,L|180:216,1,90
72,208,33119,2,0,L|184:224,1,90
328,128,33453,5,0,0:0:0:0:
328,272,33619,1,0,0:0:0:0:
328,128,33786,5,0,0:0:0:0:
328,272,33952,1,0,0:0:0:0:
328,128,34119,5,0,0:0:0:0:
328,272,34285,1,0,0:0:0:0:
328,128,34453,5,0,0:0:0:0:
328,272,34619,1,0,0:0:0:0:
328,128,34786,5,0,0:0:0:0:
328,272,34952,1,0,0:0:0:0:
472,204,35119,6,0,L|252:192,1,180
256,168,35786,1,0,0:0:0:0:
128,176,36119,5,0,0:0:0:0:
240,264,36286,1,0,0:0:0:0:
128,176,36453,5,0,0:0:0:0:
240,264,36620,1,0,0:0:0:0:
128,176,36786,5,0,0:0:0:0:
240,264,36953,1,0,0:0:0:0:
128,176,37119,5,0,0:0:0:0:
240,264,37286,1,0,0:0:0:0:
256,192,37453,12,0,38453,0:0:0:0:
240,200,38786,5,0,0:0:0:0:
304,200,41452,5,0,0:0:0:0:
312,200,41536,1,0,0:0:0:0:
320,200,41619,1,0,0:0:0:0:
236,204,41786,5,0,0:0:0:0:
228,204,41869,1,0,0:0:0:0:
216,204,41952,1,0,0:0:0:0:
264,156,42119,5,0,0:0:0:0:
264,148,42202,1,0,0:0:0:0:
264,144,42286,2,0,L|272:48,1,90
108,96,42619,1,0,0:0:0:0:
384,200,42785,1,0,0:0:0:0:
120,292,42952,1,0,0:0:0:0:
384,200,43119,1,0,0:0:0:0:
108,96,43285,1,0,0:0:0:0:
136,40,43452,2,0,L|424:44,1,269.999985694885
280,260,44119,5,0,0:0:0:0:
400,176,44285,1,0,0:0:0:0:
232,208,44452,1,0,0:0:0:0:
348,136,44619,1,0,0:0:0:0:
200,164,44785,1,0,0:0:0:0:
24,224,45119,1,0,0:0:0:0:
228,316,45452,1,0,0:0:0:0:
220,40,45785,1,0,0:0:0:0:
60,80,46119,5,0,0:0:0:0:
48,264,46452,1,0,0:0:0:0:
136,108,46785,1,0,0:0:0:0:
132,232,47119,1,0,0:0:0:0:
216,160,47452,1,0,0:0:0:0:
344,164,47785,1,0,0:0:0:0:
256,248,48119,5,0,0:0:0:0:
88,160,48452,1,0,0:0:0:0:
360,152,48785,1,0,0:0:0:0:
224,32,49119,2,0,L|336:104,1,89.9999952316285
260,156,49452,1,0,0:0:0:0:
220,134,49535,1,0,0:0:0:0:
179,139,49618,1,0,0:0:0:0:
170,183,49702,1,0,0:0:0:0:
150,222,49785,1,0,0:0:0:0:
106,230,49868,1,0,0:0:0:0:
60,224,49952,6,0,L|12:232,1,44.9999976158143
83,123,50118,1,0,0:0:0:0:
113,100,50202,1,0,0:0:0:0:
147,85,50285,1,0,0:0:0:0:
183,74,50368,1,0,0:0:0:0:
220,64,50452,1,0,0:0:0:0:
251,44,50535,1,0,0:0:0:0:
280,40,50619,5,0,0:0:0:0:
324,48,50702,1,0,0:0:0:0:
344,60,50785,1,0,0:0:0:0:
364,80,50869,1,0,0:0:0:0:
380,112,50952,6,0,L|380:172,1,44.9999976158143
308,172,51285,2,0,L|312:224,1,44.9999976158143
228,200,51619,2,0,L|244:288,1,89.9999952316285
200,148,52119,5,0,0:0:0:0:
292,96,52452,1,0,0:0:0:0:
328,200,52618,5,0,0:0:0:0:
188,168,52785,1,0,0:0:0:0:
320,256,52951,1,0,0:0:0:0:
172,232,53118,1,0,0:0:0:0:
304,312,53285,1,0,0:0:0:0:
160,296,53451,5,0,0:0:0:0:
256,264,53785,2,0,L|228:352,1,89.9999976158142
360,280,54785,5,0,0:0:0:0:
364,272,54869,1,0,0:0:0:0:
372,260,54952,2,0,P|412:212|384:180,1,89.9999952316283
272,268,55286,5,0,0:0:0:0:
268,264,55369,1,0,0:0:0:0:
268,264,55452,2,0,P|248:212|268:160,1,89.9999952316283
280,100,55785,6,0,L|392:108,1,89.9999952316283
108,88,56285,1,0,0:0:0:0:
216,208,56785,5,0,0:0:0:0:
212,72,57285,5,0,0:0:0:0:
108,88,57785,1,0,0:0:0:0:
216,208,58285,5,0,0:0:0:0:
212,72,58785,5,0,0:0:0:0:
132,160,59119,1,0,0:0:0:0:
170,173,59202,1,0,0:0:0:0:
209,185,59285,1,0,0:0:0:0:
247,201,59369,1,0,0:0:0:0:
280,224,59452,1,0,0:0:0:0:
310,253,59535,1,0,0:0:0:0:
324,268,59619,6,0,L|416:280,1,89.9999952316285
416,204,59869,1,0,0:0:0:0:
403,160,59952,1,0,0:0:0:0:
381,121,60035,1,0,0:0:0:0:
347,93,60119,1,0,0:0:0:0:
303,92,60202,1,0,0:0:0:0:
265,117,60285,1,0,0:0:0:0:
235,151,60369,1,0,0:0:0:0:
196,169,60452,1,0,0:0:0:0:
155,150,60535,1,0,0:0:0:0:
128,132,60619,6,0,L|28:144,1,89.9999952316285
376,128,61452,5,0,0:0:0:0:
152,196,61619,1,0,0:0:0:0:
312,256,61785,1,0,0:0:0:0:
224,68,61952,1,0,0:0:0:0:
376,128,62119,5,0,0:0:0:0:
152,196,62286,1,0,0:0:0:0:
312,256,62452,1,0,0:0:0:0:
224,68,62619,1,0,0:0:0:0:
376,128,62785,5,0,0:0:0:0:
152,196,62952,1,0,0:0:0:0:
312,256,63118,1,0,0:0:0:0:
224,68,63285,1,0,0:0:0:0:
120,88,63452,6,0,B|24:128|28:156|32:172,1,90
40,176,63702,1,0,0:0:0:0:
44,212,63785,2,0,P|80:256|132:256,1,90
164,140,64119,1,0,0:0:0:0:
464,132,64452,5,0,0:0:0:0:
164,140,64785,1,0,0:0:0:0:
184,76,65119,5,0,0:0:0:0:
88,200,65285,1,0,0:0:0:0:
244,144,65452,1,0,0:0:0:0:
112,112,65619,1,0,0:0:0:0:
204,232,65785,1,0,0:0:0:0:
184,76,65952,5,0,0:0:0:0:
88,200,66118,1,0,0:0:0:0:
244,144,66285,1,0,0:0:0:0:
112,112,66452,1,0,0:0:0:0:
136,192,66785,5,0,0:0:0:0:
340,192,66952,1,0,0:0:0:0:
232,92,67119,1,0,0:0:0:0:
240,280,67285,1,0,0:0:0:0:
152,128,67452,1,0,0:0:0:0:
316,256,67619,1,0,0:0:0:0:
136,192,67785,5,0,0:0:0:0:
340,192,67952,1,0,0:0:0:0:
232,92,68119,1,0,0:0:0:0:
240,280,68285,1,0,0:0:0:0:
152,128,68452,1,0,0:0:0:0:
316,256,68619,1,0,0:0:0:0:
232,188,68785,5,0,0:0:0:0:
232,160,68869,1,0,0:0:0:0:
232,128,68952,1,0,0:0:0:0:
232,83,69035,1,0,0:0:0:0:
232,38,69118,1,0,0:0:0:0:
72,128,69452,5,0,0:0:0:0:
52,252,69785,1,0,0:0:0:0:
156,256,70119,1,0,0:0:0:0:
280,244,70452,5,0,0:0:0:0:
288,248,70535,1,0,0:0:0:0:
296,252,70619,1,0,0:0:0:0:
296,196,70785,1,0,0:0:0:0:
304,200,70869,1,0,0:0:0:0:
312,200,70952,1,0,0:0:0:0:
296,152,71119,5,0,0:0:0:0:
304,156,71202,1,0,0:0:0:0:
312,160,71285,1,0,0:0:0:0:
392,168,71452,2,0,B|436:124|404:72|356:56|348:64|332:68|320:80|392:76|376:64|380:80|368:76|312:72|360:76|344:68|240:76,1,269.999985694885
152,132,72119,5,0,0:0:0:0:
148,260,72285,1,0,0:0:0:0:
264,256,72452,1,0,0:0:0:0:
256,124,72619,1,0,0:0:0:0:
256,124,72785,6,0,L|380:124,1,90
256,240,73119,2,0,L|368:244,1,90
256,124,73452,2,0,L|364:124,1,90
256,240,73785,2,0,L|360:240,1,90
176,168,74119,2,0,L|176:72,1,90
180,264,74452,2,0,L|180:368,1,90
112,212,74786,5,0,0:0:0:0:
100,216,74869,1,0,0:0:0:0:
84,220,74952,1,0,0:0:0:0:
144,128,75119,5,0,0:0:0:0:
136,116,75202,1,0,0:0:0:0:
128,104,75285,1,0,0:0:0:0:
232,172,75452,5,0,0:0:0:0:
240,168,75535,1,0,0:0:0:0:
248,160,75619,1,0,0:0:0:0:
452,248,75952,1,0,0:0:0:0:
407,248,76035,1,0,0:0:0:0:
362,248,76118,1,0,0:0:0:0:
317,248,76201,1,0,0:0:0:0:
272,248,76285,1,0,0:0:0:0:
227,248,76368,1,0,0:0:0:0:
182,248,76451,1,0,0:0:0:0:
140,168,76785,6,0,B|208:88|116:84|36:268|308:280|132:52|-12:-8|264:352|140:-4|-104:104|276:344|284:-4|-156:104|332:252|-40:12|316:220|-52:268|340:32|-36:8|244:304|-44:16|304:68|204:336|0:324|-116:108|244:-4|380:136|272:308|-28:244|-44:40|248:56|276:216,1,449.999976158142
252,120,77785,1,0,0:0:0:0:
256,224,78119,1,0,0:0:0:0:
112,224,78452,1,0,0:0:0:0:
112,128,78785,1,0,0:0:0:0:
200,176,79119,5,0,0:0:0:0:
452,172,79452,1,0,0:0:0:0:
140,72,80119,1,0,0:0:0:0:
200,288,80452,1,0,0:0:0:0:
256,192,80535,12,0,84452,0:0:0:0:
