osu file format v14

[General]
AudioFilename: Gabriel DropKick.mp3
AudioLeadIn: 0
PreviewTime: 61453
Countdown: 1
SampleSet: Soft
StackLeniency: 0.7
Mode: 0
LetterboxInBreaks: 1
WidescreenStoryboard: 0

[Editor]
Bookmarks: 120,2786,8119,9453,20119,30786,38786,41453,52119,60119,61453,72119,74786,76119,77453,80453,81453
DistanceSpacing: 1
BeatDivisor: 4
GridSize: 4
TimelineZoom: 2.799999

[Metadata]
Title:FUNKOT COMPILATIONS
TitleUnicode:FUNKOT COMPILATIONS
Artist:VARIOUS ARTISTS
ArtistUnicode:VARIOUS ARTISTS
Creator:Aikyuu-Chan
Version:Gabriel Dropkick EXTRA
Source:
Tags:Love Live! Sunshine!! ラブライブ!サンシャイン!! DJ Ramakun Aqours Aquors anime school idol project Inami Anju 伊波杏樹 Aida Rikako 逢田梨香子 Suwa Nanaka 諏訪ななか Komiya Arisa 小宮有紗 Saito Shuka 斉藤朱夏 Kobayashi Aika 小林愛香 Takatsuki Kanako 高槻かなこ Suzuki Aina 鈴木愛奈 Furihata Ai 降幡 愛 Takami Chika 高海千歌 Sakurauchi Riko 桜内梨子 Matsuura Kanan 松浦果南 Kurosawa Dia 黒澤ダイヤ Watanabe You 渡辺 曜 Tsushima Yoshiko 津島善子 Kunikida Hanamaru 国木田花丸 Ohara Mari 小原鞠莉 Kurosawa Ruby 黒澤ルビィ Funkot Dangdut Sedikit Dugem Drum n Bass DDB DJ™ Richiter Dangdut Dugem Goyang Joget Sawer Indonesia Loli Lolicon Moe Cafe gochuumon wa usagi desu ka is the order a rabbit gochiusa ごちうさ season two 2 op opening sakura ayane 佐倉綾音 hoto cocoa 保登心愛 ココア minase inori 水瀬いのり kafuu chino 香風智乃 チノ taneda risa 種田梨沙 tedeza rize 天々座理世 リゼ satou satomi 佐藤聡美 ujimatsu chiya 宇治松千夜 uchida maaya 内田真礼 kirima syaro 桐間紗路 シャロ Petit Rabbit's Re:ゼロから始める異世界生活 Anime Re: Zero Kara Hajimeru Isekai Seikatsu Life in a different world from zero Re:zero Tv Size Ed Ending EMILIA Rem Ram Subaru Indonesia Dangdut Dugem AKI Feat. Ramakun 熱闘!BEMANIスタジアム BEMANI Beatmania IIDX DDR pop'n jubeat reflec beat GITADORA ミライダガッキ SOUND VOLTEX II りす Risu dropout gabdro dropkick ガヴドロ opening tv size tenma gabriel white 天真・ガヴリール・ホワイト tsukinose vignette april 月乃瀬・ヴィネット・エイプリル vigne ヴィーネ kurumizawa satanichia mcdowell 胡桃沢・サタニキア・マクドウェル satania サターニャ shiraha raphiel ainsworth 白羽・ラフィエル・エインズワース Plastic Memories tv size anime attack on titan opening shingeki no kyojin 進撃の巨人 SnK Guren no Yumiya armin arlert levi erin jaeger mikasa indomie macross delta walkure マクロスΔ Sono Hanabira no Kuchizuke Wo Sonohana Yuri 学戦都市アスタリスクTHE ASTERISK WAR The Academy City on the Water Gakusen Toshi Asterisk Shiena Nishizawa Brand-new World ClariS エロマンガ先生 ヒトリゴト -TV MIX- Hitorigoto eromanga sensei ero manga eromanga-sensei eromangasensei opening tv size happy party train rokudenashi jinrui wa suitai shimashita
BeatmapID:1272945
BeatmapSetID:602628

[Difficulty]
HPDrainRate:0
CircleSize:4
OverallDifficulty:9
ApproachRate:9.5
SliderMultiplier:1.8
SliderTickRate:1

[Events]
//Background and Video events
0,0,"BG.jpg",0,0
//Break Periods
//Storyboard Layer 0 (Background)
//Storyboard Layer 1 (Fail)
//Storyboard Layer 2 (Pass)
//Storyboard Layer 3 (Foreground)
//Storyboard Layer 4 (Overlay)
//Storyboard Sound Samples

[TimingPoints]
120,333.333333333333,4,2,0,100,1,0
120,-100,4,2,0,100,0,0
2786,-100,4,2,0,100,0,1
2869,-100,4,2,0,100,0,0
8119,-100,4,2,0,100,0,1
9119,-100,4,2,0,100,0,0
9453,-100,4,2,0,100,0,1
9536,-100,4,2,0,100,0,0
20119,-100,4,2,0,100,0,1
20203,-100,4,2,0,100,0,0
30786,-100,4,2,0,100,0,1
30869,-100,4,2,0,100,0,0
38786,-100,4,2,0,100,0,0
41453,-100,4,2,0,100,0,1
41536,-100,4,2,0,100,0,0
52119,-100,4,2,0,100,0,1
52203,-100,4,2,0,100,0,0
60119,-100,4,2,0,100,0,0
61453,-100,4,2,0,100,0,1
66453,-100,4,2,0,100,0,0
66786,-100,4,2,0,100,0,1
72036,-100,4,2,0,100,0,0
72119,-100,4,2,0,100,0,1
72203,-100,4,2,0,100,0,0
73119,-100,4,2,0,100,0,1
73203,-100,4,2,0,100,0,0
73453,-100,4,2,0,100,0,1
73536,-100,4,2,0,100,0,0
74453,-100,4,2,0,100,0,1
74536,-100,4,2,0,100,0,0
74786,-100,4,2,0,100,0,1
74869,-100,4,2,0,100,0,0
75119,-100,4,2,0,100,0,1
75203,-100,4,2,0,100,0,0
75453,-100,4,2,0,100,0,1
75536,-100,4,2,0,100,0,0
75786,-100,4,2,0,100,0,1
75869,-100,4,2,0,100,0,0
76119,-100,4,2,0,100,0,1
76203,-100,4,2,0,100,0,1
77369,-100,4,2,0,100,0,0
77453,-100,4,2,0,100,0,1
77536,-100,4,2,0,100,0,0
77786,-100,4,2,0,100,0,1
77869,-100,4,2,0,100,0,0
78119,-100,4,2,0,100,0,1
78203,-100,4,2,0,100,0,0
78453,-100,4,2,0,100,0,1
78536,-100,4,2,0,100,0,0
78786,-100,4,2,0,100,0,1
78869,-100,4,2,0,100,0,0
79119,-100,4,2,0,100,0,1
79203,-100,4,2,0,100,0,0
79453,-100,4,2,0,100,0,1
79536,-100,4,2,0,100,0,0
79786,-100,4,2,0,100,0,1
79869,-100,4,2,0,100,0,0
80119,-100,4,2,0,100,0,1
80203,-100,4,2,0,100,0,0
80453,-100,4,2,0,100,0,1
80536,-100,4,2,0,100,0,0
81453,-100,4,2,0,100,0,0

[HitObjects]
256,192,120,12,0,2453,0:0:0:0:
344,144,2786,6,0,P|352:192|336:268,2,90
184,104,3286,1,0,0:0:0:0:
304,280,3453,2,0,P|256:288|180:272,2,90
184,104,3953,6,0,P|144:80|120:32,1,90
184,104,4286,2,0,P|176:160|192:212,1,90
184,104,4619,2,0,P|232:76|284:76,2,90
184,104,5119,2,0,P|132:112|84:104,1,90
268,336,5453,5,0,0:0:0:0:
444,56,5619,1,0,0:0:0:0:
232,196,5786,1,0,0:0:0:0:
468,336,5953,1,0,0:0:0:0:
312,36,6119,1,0,0:0:0:0:
60,328,6286,1,0,0:0:0:0:
240,64,6453,1,0,0:0:0:0:
348,320,6619,1,0,0:0:0:0:
232,236,6786,6,0,B|225:231|221:226|220:218|220:218|220:212|220:206|220:199|221:192|221:192|224:188|228:183|228:183|232:178|236:172|240:165|240:161|240:161|245:156|248:152|252:147|256:142|259:139|258:132|261:127|261:127|264:117|268:112|275:102|276:98|283:91|291:83|291:83|307:83|330:83|353:83|370:82|400:84|420:76|449:64|475:54|492:45|492:45|471:77|460:92|444:109|420:113|403:123|386:127|370:132|357:140|345:145|345:145|358:153|389:161|405:153|431:142|447:140|461:138|488:138|488:138|473:154|454:169|444:176|426:185|409:190|397:199|384:201|369:200|351:198|338:197|325:197|325:197|338:207|354:217|368:226|377:230|394:230|414:227|430:227|445:224|461:222|474:221|474:221|470:232|464:240|456:248|450:259|446:267|438:272|427:281|417:285|417:285|411:289|401:294|392:298|386:300|377:298|363:299|349:295|349:295|337:295|328:291|319:287|308:280|305:277|294:270|289:264,1,1260
84,312,9453,5,0,0:0:0:0:
268,56,9619,1,0,0:0:0:0:
336,344,9786,1,0,0:0:0:0:
280,36,9953,1,0,0:0:0:0:
60,344,10119,1,0,0:0:0:0:
288,24,10286,1,0,0:0:0:0:
324,364,10453,1,0,0:0:0:0:
300,0,10619,1,0,0:0:0:0:
120,96,10786,5,0,0:0:0:0:
376,188,10953,1,0,0:0:0:0:
200,336,11119,1,0,0:0:0:0:
264,24,11286,1,0,0:0:0:0:
396,240,11453,1,0,0:0:0:0:
92,176,11619,1,0,0:0:0:0:
256,356,11786,1,0,0:0:0:0:
316,36,11953,1,0,0:0:0:0:
72,312,12119,6,0,P|120:324|176:312,2,90
440,40,12619,1,0,0:0:0:0:
440,344,12786,6,0,P|392:356|336:344,2,90
72,72,13286,1,0,0:0:0:0:
320,104,13453,6,0,P|348:60|352:16,1,90
372,168,13786,2,0,P|420:148|444:112,1,90
380,252,14119,2,0,P|428:264|476:264,1,90
316,312,14453,2,0,P|332:360|376:384,1,90
92,88,14786,5,0,0:0:0:0:
92,88,14953,1,0,0:0:0:0:
144,328,15119,2,0,P|196:340|244:324,1,90
165,19,15453,5,0,0:0:0:0:
165,19,15620,1,0,0:0:0:0:
91,253,15786,2,0,P|130:290|179:300,1,90
420,296,16119,5,0,0:0:0:0:
420,296,16286,1,0,0:0:0:0:
368,56,16452,2,0,P|316:44|268:60,1,90
346,364,16786,5,0,0:0:0:0:
346,364,16953,1,0,0:0:0:0:
420,130,17119,2,0,P|381:93|332:83,1,90
48,208,17453,5,0,0:0:0:0:
68,236,17536,1,0,0:0:0:0:
96,260,17619,1,0,0:0:0:0:
128,276,17703,1,0,0:0:0:0:
164,280,17786,2,0,L|196:216,3,45
132,104,18119,2,0,L|140:156,3,45
160,188,18453,1,0,0:0:0:0:
124,216,18536,1,0,0:0:0:0:
80,224,18619,1,0,0:0:0:0:
36,208,18703,1,0,0:0:0:0:
4,176,18786,6,0,P|-4:224|4:268,1,90
180,364,19119,2,0,P|188:316|180:272,1,90
108,104,19453,1,0,0:0:0:0:
352,72,19619,2,0,L|388:76,4,22.5
420,200,19953,1,0,0:0:0:0:
420,200,20119,6,0,P|408:252|384:288,2,90
128,36,20619,1,0,0:0:0:0:
248,332,20786,2,0,P|208:320|160:332,2,90
344,56,21286,1,0,0:0:0:0:
52,144,21453,6,0,P|48:192|64:236,1,90
96,64,21786,2,0,P|136:40|184:40,2,90
260,56,22286,2,0,P|300:96|304:136,1,90
256,260,22619,1,0,0:0:0:0:
36,308,22786,6,0,P|80:320|132:312,1,90
152,212,23119,2,0,L|176:120,2,90
224,280,23619,1,0,0:0:0:0:
304,216,23786,2,0,L|324:124,2,90
348,308,24286,1,0,0:0:0:0:
252,352,24453,6,0,P|212:360|164:348,1,90
60,104,24786,2,0,L|96:128,4,22.5
260,32,25119,2,0,P|300:24|348:36,1,90
92,184,25453,6,0,P|104:132|128:96,2,90
384,348,25953,1,0,0:0:0:0:
264,52,26120,2,0,P|304:64|352:52,2,90
168,328,26620,1,0,0:0:0:0:
460,240,26787,6,0,P|464:192|448:148,1,90
416,320,27120,2,0,P|376:344|328:344,2,90
252,328,27620,2,0,P|212:288|208:248,1,90
256,108,27953,1,0,0:0:0:0:
476,76,28120,6,0,P|432:64|380:72,1,90
360,172,28453,2,0,L|336:264,2,90
288,104,28953,1,0,0:0:0:0:
208,168,29120,2,0,L|188:260,2,90
164,76,29620,1,0,0:0:0:0:
260,32,29787,6,0,P|300:24|348:36,1,90
452,280,30120,2,0,L|416:256,4,22.5
252,352,30453,2,0,P|212:360|164:348,1,90
80,140,30786,6,0,B|64:184|64:184|76:240,1,90
164,348,31119,2,0,B|180:308|180:308|176:260,1,90
248,80,31453,2,0,B|296:72|296:72|348:84,2,90
328,184,31953,1,0,0:0:0:0:
304,288,32119,2,0,B|264:320|264:320|224:328,2,90
256,184,32619,1,0,0:0:0:0:
288,84,32786,2,0,B|328:56|328:56|376:48,2,90
372,336,33286,1,0,0:0:0:0:
76,236,33453,6,0,P|64:284|76:336,2,90
128,188,33953,1,0,0:0:0:0:
184,232,34119,2,0,P|216:268|224:324,2,90
200,160,34619,1,0,0:0:0:0:
268,140,34786,2,0,P|316:156|348:192,2,90
228,80,35286,1,0,0:0:0:0:
156,84,35453,2,0,P|104:96|60:84,1,90
156,84,35786,2,0,L|192:192,1,90
332,344,36119,5,0,0:0:0:0:
448,48,36286,1,0,0:0:0:0:
164,196,36453,1,0,0:0:0:0:
480,204,36619,1,0,0:0:0:0:
268,72,36786,1,0,0:0:0:0:
320,328,36953,1,0,0:0:0:0:
432,104,37119,1,0,0:0:0:0:
196,248,37286,1,0,0:0:0:0:
80,148,37453,6,0,P|68:100|80:60,1,90
120,48,37703,1,0,0:0:0:0:
164,60,37786,2,0,P|216:68|264:56,1,90
292,328,38119,6,0,P|276:288|284:240,1,90
396,280,38453,2,0,P|408:328|392:372,1,90
256,40,38786,5,0,0:0:0:0:
64,284,40119,6,0,P|112:296|156:288,1,90
151,289,40369,1,0,0:0:0:0:
151,289,40453,2,0,L|196:208,1,90
468,80,40786,6,0,P|428:60|380:60,1,90
384,60,41036,1,0,0:0:0:0:
384,60,41119,2,0,L|362:147,1,90
76,228,41453,6,0,L|68:292,3,45
152,172,41786,2,0,L|182:205,3,45
244,116,42119,2,0,P|296:128|360:120,1,90
480,28,42453,2,0,P|460:76|416:92,1,90
427,91,42703,1,0,0:0:0:0:
427,91,42786,6,0,L|408:196,1,90
320,304,43119,1,0,0:0:0:0:
140,124,43286,1,0,0:0:0:0:
140,124,43369,1,0,0:0:0:0:
140,124,43453,1,0,0:0:0:0:
32,300,43619,1,0,0:0:0:0:
200,360,43786,2,0,P|252:368|312:360,1,90
332,212,44119,6,0,P|356:168|360:116,2,90
184,100,44619,1,0,0:0:0:0:
289,263,44786,6,0,P|338:253|381:222,2,90
280,77,45286,1,0,0:0:0:0:
223,263,45453,6,0,P|262:294|312:307,2,90
359,137,45953,1,0,0:0:0:0:
180,212,46119,6,0,P|181:262|203:309,2,90
364,235,46619,1,0,0:0:0:0:
68,188,46786,5,0,0:0:0:0:
164,48,46953,1,0,0:0:0:0:
68,188,47119,5,0,0:0:0:0:
164,48,47286,1,0,0:0:0:0:
0,64,47453,5,0,0:0:0:0:
276,151,47620,1,0,0:0:0:0:
0,64,47786,5,0,0:0:0:0:
276,151,47953,1,0,0:0:0:0:
176,352,48119,5,0,0:0:0:0:
320,52,48286,1,0,0:0:0:0:
176,352,48453,5,0,0:0:0:0:
320,52,48620,1,0,0:0:0:0:
468,212,48786,5,0,0:0:0:0:
80,104,48953,1,0,0:0:0:0:
468,212,49119,5,0,0:0:0:0:
80,104,49286,1,0,0:0:0:0:
128,304,49453,5,0,0:0:0:0:
256,28,49619,1,0,0:0:0:0:
384,304,49786,1,0,0:0:0:0:
256,40,49953,1,0,0:0:0:0:
128,316,50119,1,0,0:0:0:0:
256,52,50286,1,0,0:0:0:0:
384,316,50453,1,0,0:0:0:0:
256,64,50619,1,0,0:0:0:0:
112,304,50786,5,0,0:0:0:0:
96,272,50869,1,0,0:0:0:0:
92,236,50953,1,0,0:0:0:0:
92,200,51036,1,0,0:0:0:0:
104,168,51119,1,0,0:0:0:0:
128,140,51203,1,0,0:0:0:0:
160,124,51286,1,0,0:0:0:0:
196,128,51369,1,0,0:0:0:0:
228,144,51453,1,0,0:0:0:0:
260,160,51536,1,0,0:0:0:0:
296,168,51619,1,0,0:0:0:0:
332,172,51703,1,0,0:0:0:0:
368,164,51786,1,0,0:0:0:0:
400,144,51869,1,0,0:0:0:0:
424,116,51953,1,0,0:0:0:0:
432,80,52036,1,0,0:0:0:0:
432,80,52119,6,0,P|429:130|456:184,1,90
348,192,52453,1,0,0:0:0:0:
348,192,52619,2,0,P|376:228|436:240,2,90
288,116,53119,2,0,P|240:104|184:108,1,90
156,208,53453,2,0,P|112:232|56:228,2,90
88,144,53953,2,0,P|76:104|80:56,2,90
164,84,54453,2,0,P|208:88|248:116,1,90
140,240,54786,5,0,0:0:0:0:
300,68,54953,1,0,0:0:0:0:
340,280,55119,1,0,0:0:0:0:
118,197,55286,5,0,0:0:0:0:
348,80,55453,1,0,0:0:0:0:
309,314,55619,1,0,0:0:0:0:
111,146,55786,5,0,0:0:0:0:
393,111,55953,1,0,0:0:0:0:
265,338,56119,1,0,0:0:0:0:
389,90,56286,5,0,0:0:0:0:
84,160,56453,1,0,0:0:0:0:
302,347,56619,1,0,0:0:0:0:
355,36,56786,5,0,0:0:0:0:
67,223,56953,1,0,0:0:0:0:
362,335,57119,1,0,0:0:0:0:
299,0,57286,5,0,0:0:0:0:
77,293,57453,1,0,0:0:0:0:
415,297,57619,1,0,0:0:0:0:
288,64,57786,6,0,P|332:72|380:64,2,90
224,320,58286,2,0,P|180:312|132:320,2,90
144,164,58786,6,0,P|136:116|144:72,2,90
168,192,59203,1,0,0:0:0:0:
196,212,59286,1,0,0:0:0:0:
228,224,59369,1,0,0:0:0:0:
264,228,59453,1,0,0:0:0:0:
432,76,59619,5,0,0:0:0:0:
408,344,59786,5,0,0:0:0:0:
364,348,59869,1,0,0:0:0:0:
320,336,59953,1,0,0:0:0:0:
256,144,60119,5,0,0:0:0:0:
256,192,60203,12,0,61453,0:0:0:0:
128,144,61619,6,0,P|108:100|112:56,1,90
196,244,61953,1,0,0:0:0:0:
196,244,62119,2,0,P|192:292|156:328,2,90
316,140,62619,1,0,0:0:0:0:
316,140,62786,6,0,P|368:112|388:76,2,90
360,296,63286,1,0,0:0:0:0:
360,296,63453,6,0,P|312:320|260:316,1,90
232,308,63703,1,0,0:0:0:0:
200,276,63786,2,0,L|184:180,1,90
308,96,64119,1,0,0:0:0:0:
308,96,64453,6,0,B|347:146|416:140|416:140|501:193,1,180
356,244,64953,6,0,P|332:288|292:312,2,90
212,309,65453,2,0,P|176:283|156:244,1,90
155,243,65703,1,0,0:0:0:0:
155,243,65786,1,0,0:0:0:0:
138,148,65953,2,0,P|164:112|204:92,1,90
368,180,66286,2,0,L|376:208,3,22.5
360,136,66453,2,0,L|404:48,1,90
64,256,66786,5,0,0:0:0:0:
440,96,66953,1,0,0:0:0:0:
72,256,67119,5,0,0:0:0:0:
432,96,67286,1,0,0:0:0:0:
296,360,67453,5,0,0:0:0:0:
208,16,67620,1,0,0:0:0:0:
296,368,67786,5,0,0:0:0:0:
208,24,67953,1,0,0:0:0:0:
80,224,68119,6,0,P|128:240|192:232,1,90
444,28,68453,1,0,0:0:0:0:
166,239,68619,1,0,0:0:0:0:
104,48,68786,6,0,P|88:100|92:152,1,90
108,176,69036,1,0,0:0:0:0:
120,220,69119,2,0,P|124:276|112:320,1,90
460,40,69453,1,0,0:0:0:0:
460,40,69786,6,0,B|412:64|360:36|360:36|268:64,1,180
380,160,70286,6,0,P|384:212|368:256,1,90
344,280,70536,1,0,0:0:0:0:
304,296,70619,2,0,P|256:312|232:348,2,90
328,336,71036,1,0,0:0:0:0:
372,348,71119,2,0,P|420:344|456:312,1,90
456,272,71369,2,0,L|452:232,2,22.5
128,128,71619,1,0,0:0:0:0:
128,128,71786,2,0,B|120:152|120:152|128:184|128:184|116:216,1,90
424,340,72119,5,0,0:0:0:0:
92,116,72286,1,0,0:0:0:0:
96,120,72369,1,0,0:0:0:0:
96,120,72453,1,0,0:0:0:0:
220,352,72619,1,0,0:0:0:0:
344,24,72786,1,0,0:0:0:0:
324,360,72953,2,0,P|372:348|392:312,1,90
400,268,73203,1,0,0:0:0:0:
400,268,73286,1,0,0:0:0:0:
128,40,73453,5,0,0:0:0:0:
264,344,73619,1,0,0:0:0:0:
264,344,73703,1,0,0:0:0:0:
264,344,73786,1,0,0:0:0:0:
428,48,73953,1,0,0:0:0:0:
256,368,74119,1,0,0:0:0:0:
60,24,74286,2,0,P|108:40|168:32,1,90
146,38,74536,1,0,0:0:0:0:
146,38,74619,1,0,0:0:0:0:
348,316,74786,5,0,0:0:0:0:
88,172,74953,1,0,0:0:0:0:
304,96,75119,5,0,0:0:0:0:
160,356,75286,1,0,0:0:0:0:
416,320,75453,5,0,0:0:0:0:
111,151,75620,1,0,0:0:0:0:
364,62,75786,5,0,0:0:0:0:
196,366,75953,1,0,0:0:0:0:
408,28,76119,5,0,0:0:0:0:
36,176,76286,2,0,L|44:212,4,22.5
356,344,76619,2,0,L|348:308,4,22.5
192,24,76953,1,0,0:0:0:0:
44,328,77119,1,0,0:0:0:0:
88,344,77203,1,0,0:0:0:0:
132,352,77286,1,0,0:0:0:0:
176,348,77369,1,0,0:0:0:0:
220,332,77453,6,0,P|272:256|256:136,1,180
104,84,78119,2,0,B|168:96|200:56|200:56|276:72,1,180
96,128,78786,5,0,0:0:0:0:
68,164,78869,1,0,0:0:0:0:
56,208,78953,1,0,0:0:0:0:
68,252,79036,1,0,0:0:0:0:
100,284,79119,1,0,0:0:0:0:
144,296,79203,1,0,0:0:0:0:
188,296,79286,1,0,0:0:0:0:
228,272,79369,1,0,0:0:0:0:
248,232,79453,1,0,0:0:0:0:
268,192,79536,1,0,0:0:0:0:
296,156,79619,1,0,0:0:0:0:
336,136,79703,1,0,0:0:0:0:
380,128,79786,1,0,0:0:0:0:
424,140,79869,1,0,0:0:0:0:
456,172,79953,1,0,0:0:0:0:
468,216,80036,1,0,0:0:0:0:
456,264,80119,6,0,P|408:280|352:264,1,90
280,236,80453,6,0,B|286:231|290:226|291:218|291:218|291:212|291:206|291:199|290:192|290:192|287:188|283:183|283:183|279:178|275:172|271:165|271:161|271:161|266:156|263:152|259:147|255:142|252:139|253:132|250:127|250:127|247:117|243:112|236:102|235:98|228:91|220:83|220:83|204:83|181:83|158:83|141:82|111:84|91:76|62:64|36:54|19:45|19:45|40:77|51:92|67:109|91:113|108:123|125:127|141:132|154:140|166:145|166:145|153:153|122:161|106:153|80:142|64:140|50:138|23:138|23:138|38:154|57:169|67:176|85:185|102:190|114:199|127:201|142:200|160:198|173:197|186:197|186:197|173:207|157:217|143:226|134:230|117:230|97:227|81:227|66:224|50:222|37:221|37:221|41:232|47:240|55:248|61:259|65:267|73:272|84:281|94:285|94:285|100:289|110:294|119:298|125:300|134:298|148:299|162:295|162:295|174:295|183:291|192:287|203:280|206:277|217:270|222:264,1,1260
