osu file format v14

[General]
AudioFilename: Asayake no Starmine.mp3
AudioLeadIn: 0
PreviewTime: 42686
Countdown: 1
SampleSet: Soft
StackLeniency: 0.7
Mode: 0
LetterboxInBreaks: 1
WidescreenStoryboard: 0

[Editor]
Bookmarks: 1890,15594,29310,36216,43120,56840,70554,77411,84268
DistanceSpacing: 1.5
BeatDivisor: 4
GridSize: 4
TimelineZoom: 2.799999

[Metadata]
Title:FUNKOT COMPILATIONS
TitleUnicode:FUNKOT COMPILATIONS
Artist:VARIOUS ARTISTS
ArtistUnicode:VARIOUS ARTISTS
Creator:Aikyuu-Chan
Version:Asayake no Starmine EXTRA
Source:
Tags:Love Live! Sunshine!! ラブライブ!サンシャイン!! DJ Ramakun Aqours Aquors anime school idol project Inami Anju 伊波杏樹 Aida Rikako 逢田梨香子 Suwa Nanaka 諏訪ななか Komiya Arisa 小宮有紗 Saito Shuka 斉藤朱夏 Kobayashi Aika 小林愛香 Takatsuki Kanako 高槻かなこ Suzuki Aina 鈴木愛奈 Furihata Ai 降幡 愛 Takami Chika 高海千歌 Sakurauchi Riko 桜内梨子 Matsuura Kanan 松浦果南 Kurosawa Dia 黒澤ダイヤ Watanabe You 渡辺 曜 Tsushima Yoshiko 津島善子 Kunikida Hanamaru 国木田花丸 Ohara Mari 小原鞠莉 Kurosawa Ruby 黒澤ルビィ Funkot Dangdut Sedikit Dugem Drum n Bass DDB DJ™ Richiter Dangdut Dugem Goyang Joget Sawer Indonesia Loli Lolicon Moe Cafe gochuumon wa usagi desu ka is the order a rabbit gochiusa ごちうさ season two 2 op opening sakura ayane 佐倉綾音 hoto cocoa 保登心愛 ココア minase inori 水瀬いのり kafuu chino 香風智乃 チノ taneda risa 種田梨沙 tedeza rize 天々座理世 リゼ satou satomi 佐藤聡美 ujimatsu chiya 宇治松千夜 uchida maaya 内田真礼 kirima syaro 桐間紗路 シャロ Petit Rabbit's Re:ゼロから始める異世界生活 Anime Re: Zero Kara Hajimeru Isekai Seikatsu Life in a different world from zero Re:zero Tv Size Ed Ending EMILIA Rem Ram Subaru Indonesia Dangdut Dugem AKI Feat. Ramakun 熱闘!BEMANIスタジアム BEMANI Beatmania IIDX DDR pop'n jubeat reflec beat GITADORA ミライダガッキ SOUND VOLTEX II りす Risu dropout gabdro dropkick ガヴドロ opening tv size tenma gabriel white 天真・ガヴリール・ホワイト tsukinose vignette april 月乃瀬・ヴィネット・エイプリル vigne ヴィーネ kurumizawa satanichia mcdowell 胡桃沢・サタニキア・マクドウェル satania サターニャ shiraha raphiel ainsworth 白羽・ラフィエル・エインズワース Plastic Memories tv size anime attack on titan opening shingeki no kyojin 進撃の巨人 SnK Guren no Yumiya armin arlert levi erin jaeger mikasa indomie macross delta walkure マクロスΔ Sono Hanabira no Kuchizuke Wo Sonohana Yuri 学戦都市アスタリスクTHE ASTERISK WAR The Academy City on the Water Gakusen Toshi Asterisk Shiena Nishizawa Brand-new World ClariS エロマンガ先生 ヒトリゴト -TV MIX- Hitorigoto eromanga sensei ero manga eromanga-sensei eromangasensei opening tv size happy party train rokudenashi jinrui wa suitai shimashita
BeatmapID:1272903
BeatmapSetID:602628

[Difficulty]
HPDrainRate:0
CircleSize:4
OverallDifficulty:9
ApproachRate:9.5
SliderMultiplier:2.39
SliderTickRate:1

[Events]
//Background and Video events
0,0,"BG.jpg",0,0
//Break Periods
//Storyboard Layer 0 (Background)
//Storyboard Layer 1 (Fail)
//Storyboard Layer 2 (Pass)
//Storyboard Layer 3 (Foreground)
//Storyboard Layer 4 (Overlay)
//Storyboard Sound Samples

[TimingPoints]
1880,427.960057061341,4,2,0,100,1,0
1890,-133.333333333333,4,2,0,100,0,0
15590,430.725053840632,4,2,0,100,1,0
15590,-125,4,2,0,100,0,0
29350,427.350427350427,4,2,0,100,1,0
29350,-111.111111111111,4,2,0,100,0,0
36180,430.725053840632,4,2,0,100,1,0
36180,-100,4,2,0,100,0,0
43069,430.725053840632,4,2,0,100,1,0
43069,-66.6666666666667,4,2,0,100,0,1
53406,430.10752688172,4,2,0,100,1,1
53406,-100,4,2,0,100,0,1
56416,-100,4,2,0,100,0,0
56852,427.960057061341,4,2,0,100,1,1
56852,-66.6666666666667,4,2,0,100,0,1
70551,428.571428571429,4,2,0,100,1,0
70551,-117.647058823529,4,2,0,100,0,0
77408,429.491768074445,4,2,0,100,1,0
77408,-133.333333333333,4,2,0,100,0,0
84279,431.654676258993,4,2,0,100,1,0

[HitObjects]
136,296,1880,5,0,0:0:0:0:
416,40,2093,1,0,0:0:0:0:
296,336,2307,1,0,0:0:0:0:
124,52,2521,1,0,0:0:0:0:
432,232,2735,1,0,0:0:0:0:
104,136,2949,1,0,0:0:0:0:
272,352,3163,1,0,0:0:0:0:
372,72,3377,1,0,0:0:0:0:
96,252,3591,6,0,P|140:264|192:256,1,89.6250034189225
372,56,4019,2,0,L|340:148,1,89.6250034189225
328,259,4447,2,0,P|373:263|416:252,1,89.6250034189225
169,140,4875,2,0,L|140:56,1,89.6250034189225
264,316,5303,5,0,0:0:0:0:
400,60,5517,1,0,0:0:0:0:
72,184,5731,1,0,0:0:0:0:
420,296,5945,1,0,0:0:0:0:
220,40,6159,1,0,0:0:0:0:
152,328,6373,1,0,0:0:0:0:
488,160,6587,1,0,0:0:0:0:
44,136,6801,1,0,0:0:0:0:
332,304,7015,6,0,P|384:312|444:300,2,89.6250034189225
256,80,7657,1,0,0:0:0:0:
180,304,7871,2,0,P|128:312|68:300,2,89.6250034189225
256,148,8513,1,0,0:0:0:0:
88,48,8727,6,0,P|72:96|84:160,1,89.6250034189225
104,248,9155,1,0,0:0:0:0:
104,248,9369,1,0,0:0:0:0:
400,360,9583,6,0,P|352:376|288:364,1,89.6250034189225
200,344,10011,1,0,0:0:0:0:
200,344,10225,1,0,0:0:0:0:
112,24,10439,6,0,P|160:8|224:20,1,89.6250034189225
312,40,10867,1,0,0:0:0:0:
312,40,11081,1,0,0:0:0:0:
424,336,11295,6,0,P|440:288|428:224,1,89.6250034189225
408,136,11723,1,0,0:0:0:0:
408,136,11937,1,0,0:0:0:0:
400,360,12151,6,0,P|352:376|288:364,1,89.6250034189225
200,344,12579,1,0,0:0:0:0:
200,344,12793,1,0,0:0:0:0:
400,24,13007,6,0,P|352:8|288:20,1,89.6250034189225
200,40,13435,1,0,0:0:0:0:
200,40,13649,1,0,0:0:0:0:
88,336,13863,6,0,P|72:288|84:224,1,89.6250034189225
104,136,14291,1,0,0:0:0:0:
104,136,14505,1,0,0:0:0:0:
424,48,14719,6,0,P|440:96|428:160,1,89.6250034189225
408,248,15147,1,0,0:0:0:0:
408,248,15361,1,0,0:0:0:0:
140,172,15590,6,0,P|128:120|136:68,2,95.6
256,332,16236,1,0,0:0:0:0:
372,172,16451,2,0,P|384:120|376:68,2,95.6
80,244,17097,2,0,P|128:256|184:248,1,95.6
432,140,17528,2,0,P|384:128|328:136,2,95.6
372,264,18174,1,0,0:0:0:0:
252,312,18389,2,0,P|196:304|160:272,1,95.6
196,168,18820,1,0,0:0:0:0:
120,76,19035,6,0,P|76:48|28:48,2,95.6
68,216,19681,1,0,0:0:0:0:
316,40,19897,1,0,0:0:0:0:
276,320,20112,1,0,0:0:0:0:
128,72,20327,1,0,0:0:0:0:
400,280,20543,2,0,P|368:236|364:184,1,95.6
320,96,20974,2,0,P|276:72|212:80,2,95.6
224,200,21620,1,0,0:0:0:0:
96,80,21835,2,0,P|68:124|64:180,2,95.6
192,320,22481,5,0,0:0:0:0:
444,84,22696,1,0,0:0:0:0:
24,144,22912,1,0,0:0:0:0:
428,312,23127,1,0,0:0:0:0:
172,24,23343,1,0,0:0:0:0:
72,348,23558,1,0,0:0:0:0:
444,108,23773,1,0,0:0:0:0:
44,224,23989,1,0,0:0:0:0:
400,328,24204,1,0,0:0:0:0:
400,328,24419,2,0,L|416:220,2,95.6
112,328,25065,6,0,L|96:220,2,95.6
176,184,25712,2,0,P|220:152|244:96,1,95.6
112,96,26142,2,0,P|68:64|52:16,2,95.6
40,184,26788,1,0,0:0:0:0:
120,272,27004,2,0,P|136:316|128:364,2,95.6
328,64,27650,5,0,0:0:0:0:
416,336,27865,1,0,0:0:0:0:
68,144,28081,1,0,0:0:0:0:
476,44,28296,1,0,0:0:0:0:
184,312,28511,1,0,0:0:0:0:
48,32,28727,2,0,L|112:40,1,47.8
144,48,28942,2,0,P|192:60|240:48,1,95.6
160,260,29350,1,0,0:0:0:0:
160,260,29563,6,0,P|136:312|92:344,1,107.549996717835
340,180,29991,2,0,P|392:160|420:112,1,107.549996717835
112,56,30418,5,0,0:0:0:0:
348,336,30632,1,0,0:0:0:0:
448,60,30845,1,0,0:0:0:0:
332,360,31059,1,0,0:0:0:0:
72,28,31273,5,0,0:0:0:0:
336,332,31486,1,0,0:0:0:0:
456,96,31700,1,0,0:0:0:0:
76,208,31914,1,0,0:0:0:0:
276,336,32127,1,0,0:0:0:0:
256,40,32341,1,0,0:0:0:0:
112,336,32555,1,0,0:0:0:0:
316,72,32768,6,0,P|372:84|432:72,2,107.549996717835
112,212,33409,2,0,L|68:320,2,107.549996717835
353,99,34050,6,0,P|401:130|462:139,2,107.549996717835
113,161,34691,2,0,L|35:247,2,107.549996717835
384,56,35332,1,0,0:0:0:0:
212,304,35546,6,0,P|276:312|332:304,1,107.549996717835
88,32,35973,1,0,0:0:0:0:
336,200,36180,2,0,P|384:172|476:180,2,119.5
128,304,36826,1,0,0:0:0:0:
40,32,37041,1,0,0:0:0:0:
244,200,37256,1,0,0:0:0:0:
8,296,37472,1,0,0:0:0:0:
200,80,37687,6,0,P|252:92|336:80,1,119.5
276,192,38118,2,0,P|336:184|388:144,1,119.5
416,304,38548,2,0,P|460:272|484:200,1,119.5
472,84,38979,2,0,P|424:44|360:36,2,119.5
76,272,39625,5,0,0:0:0:0:
300,80,39841,1,0,0:0:0:0:
368,324,40056,1,0,0:0:0:0:
60,171,40271,5,0,0:0:0:0:
350,117,40487,1,0,0:0:0:0:
286,362,40702,1,0,0:0:0:0:
96,76,40917,5,0,0:0:0:0:
374,174,41133,1,0,0:0:0:0:
197,354,41348,1,0,0:0:0:0:
56,152,41564,6,0,P|44:96|64:28,2,119.5
196,240,42210,2,0,P|208:296|176:368,2,119.5
392,56,42856,1,0,0:0:0:0:
392,56,42963,1,0,0:0:0:0:
392,56,43069,6,0,B|384:116|384:116|396:152|396:152|388:236,2,179.250006837845
180,184,43715,2,0,P|96:160|56:80,2,179.250006837845
400,36,44361,1,0,0:0:0:0:
160,304,44576,1,0,0:0:0:0:
472,184,44791,1,0,0:0:0:0:
108,16,45007,1,0,0:0:0:0:
424,320,45222,1,0,0:0:0:0:
376,28,45437,1,0,0:0:0:0:
36,240,45653,1,0,0:0:0:0:
288,336,45868,6,0,P|376:308|416:232,2,179.250006837845
72,160,46514,5,0,0:0:0:0:
380,24,46730,1,0,0:0:0:0:
260,316,46945,1,0,0:0:0:0:
260,328,47160,5,0,0:0:0:0:
392,7,47375,1,0,0:0:0:0:
53,156,47591,1,0,0:0:0:0:
216,344,47806,2,0,P|312:356|396:336,2,179.250006837845
312,200,48453,2,0,P|352:120|348:32,2,179.250006837845
196,96,49099,2,0,P|108:112|40:176,2,179.250006837845
256,280,49745,5,0,0:0:0:0:
468,52,49960,1,0,0:0:0:0:
208,56,50175,5,0,0:0:0:0:
436,268,50390,1,0,0:0:0:0:
256,104,50606,5,0,0:0:0:0:
44,332,50821,1,0,0:0:0:0:
304,328,51036,5,0,0:0:0:0:
76,116,51251,1,0,0:0:0:0:
376,292,51468,5,0,0:0:0:0:
192,36,51683,1,0,0:0:0:0:
40,312,51898,1,0,0:0:0:0:
200,12,52114,1,0,0:0:0:0:
428,328,52329,1,0,0:0:0:0:
216,0,52544,1,0,0:0:0:0:
28,344,52760,1,0,0:0:0:0:
268,0,52975,1,0,0:0:0:0:
464,344,53191,1,0,0:0:0:0:
100,260,53406,6,0,P|164:272|224:260,1,119.5
400,36,53836,2,0,L|376:168,1,119.5
412,260,54266,6,0,P|348:272|288:260,1,119.5
112,36,54696,2,0,L|136:168,1,119.5
120,316,55126,5,0,0:0:0:0:
168,240,55233,1,0,0:0:0:0:
204,324,55341,1,0,0:0:0:0:
120,296,55449,5,0,0:0:0:0:
177,204,55556,1,0,0:0:0:0:
220,305,55664,1,0,0:0:0:0:
132,292,55771,5,0,0:0:0:0:
200,181,55878,1,0,0:0:0:0:
252,302,55986,1,0,0:0:0:0:
164,296,56094,5,0,0:0:0:0:
245,162,56201,1,0,0:0:0:0:
308,308,56309,1,0,0:0:0:0:
148,304,56416,6,0,P|132:244|160:168,1,119.5
416,272,56739,1,0,0:0:0:0:
416,272,56852,2,0,L|440:80,2,179.250006837845
96,272,57493,2,0,L|64:56,2,179.250006837845
276,124,58135,2,0,P|360:148|472:120,2,179.250006837845
148,256,58777,5,0,0:0:0:0:
424,52,58991,1,0,0:0:0:0:
300,316,59205,1,0,0:0:0:0:
28,68,59419,1,0,0:0:0:0:
440,172,59633,5,0,0:0:0:0:
136,320,59847,1,0,0:0:0:0:
304,36,60061,1,0,0:0:0:0:
192,228,60275,6,0,B|128:200|128:200|48:216|24:144,2,179.250006837845
104,112,60917,2,0,B|118:60|198:76|198:76|262:48,2,179.250006837845
320,184,61559,2,0,P|344:272|304:360,1,179.250006837845
40,176,61987,5,0,0:0:0:0:
448,16,62201,1,0,0:0:0:0:
100,352,62415,1,0,0:0:0:0:
216,32,62629,1,0,0:0:0:0:
436,324,62843,5,0,0:0:0:0:
28,148,63057,1,0,0:0:0:0:
480,80,63271,1,0,0:0:0:0:
184,348,63485,1,0,0:0:0:0:
84,88,63699,6,0,B|172:112|224:104|224:104|184:96,2,179.250006837845
248,336,64341,1,0,0:0:0:0:
432,44,64555,1,0,0:0:0:0:
240,360,64769,1,0,0:0:0:0:
72,36,64983,1,0,0:0:0:0:
252,372,65197,1,0,0:0:0:0:
464,32,65411,6,0,P|476:124|448:212,1,179.250006837845
56,88,65839,2,0,P|44:180|88:300,1,179.250006837845
464,112,66267,6,0,P|476:204|448:292,1,179.250006837845
56,168,66695,2,0,P|44:260|88:380,1,179.250006837845
240,56,67123,5,0,0:0:0:0:
332,152,67230,1,0,0:0:0:0:
204,196,67337,1,0,0:0:0:0:
240,56,67444,5,0,0:0:0:0:
332,152,67551,1,0,0:0:0:0:
204,196,67658,1,0,0:0:0:0:
240,56,67764,5,0,0:0:0:0:
332,152,67871,1,0,0:0:0:0:
204,196,67978,1,0,0:0:0:0:
240,56,68085,5,0,0:0:0:0:
332,152,68192,1,0,0:0:0:0:
204,196,68299,1,0,0:0:0:0:
240,56,68406,5,0,0:0:0:0:
332,152,68513,1,0,0:0:0:0:
204,196,68620,1,0,0:0:0:0:
240,56,68727,1,0,0:0:0:0:
128,304,68834,6,0,P|176:320|216:312,1,89.6250034189225
424,48,69048,2,0,L|392:136,1,89.6250034189225
89,224,69262,6,0,P|122:262|161:275,1,89.6250034189225
473,151,69476,2,0,L|401:211,1,89.6250034189225
95,137,69690,6,0,P|105:186|132:217,1,89.6250034189225
464,265,69904,2,0,L|372:281,1,89.6250034189225
144,64,70118,6,0,P|128:112|136:151,1,89.6250034189225
400,360,70332,2,0,L|311:327,1,89.6250034189225
80,148,70551,6,0,P|128:124|164:64,1,101.575001937389
200,248,70979,2,0,L|260:356,1,101.575001937389
92,271,71408,6,0,P|114:222|103:153,1,101.575001937389,0|0,2:0|2:0,2:0:0:0:
249,270,71836,2,0,L|364:315,1,101.575001937389,0|0,2:0|2:0,2:0:0:0:
182,357,72265,6,0,P|166:306|113:260,1,101.575001937389,0|0,2:0|2:0,2:0:0:0:
301,256,72693,2,0,L|418:216,1,101.575001937389,0|0,2:0|2:0,2:0:0:0:
305,366,73122,6,0,P|261:336|191:335,1,101.575001937389,0|0,2:0|2:0,2:0:0:0:
332,212,73550,2,0,L|396:106,1,101.575001937389,0|0,2:0|2:0,2:0:0:0:
212,368,73979,6,0,P|188:320|128:284,1,101.575001937389
312,248,74407,2,0,L|420:188,1,101.575001937389
335,355,74836,6,0,P|286:333|217:344,1,101.575001937389,0|0,2:0|2:0,2:0:0:0:
334,198,75264,2,0,L|379:83,1,101.575001937389,0|0,2:0|2:0,2:0:0:0:
421,265,75693,6,0,P|370:281|324:334,1,101.575001937389,0|0,2:0|2:0,2:0:0:0:
320,146,76121,2,0,L|280:29,1,101.575001937389,0|0,2:0|2:0,2:0:0:0:
430,142,76550,6,0,P|400:186|399:256,1,101.575001937389,0|0,2:0|2:0,2:0:0:0:
276,115,76978,2,0,L|170:51,1,101.575001937389,0|0,2:0|2:0,2:0:0:0:
164,304,77408,6,0,P|212:312|272:300,2,89.6250034189225
44,192,78052,1,0,0:0:0:0:
348,80,78266,6,0,P|300:72|240:84,2,89.6250034189225
468,192,78911,1,0,0:0:0:0:
76,244,79125,6,0,P|64:288|88:344,1,89.6250034189225
168,192,79555,2,0,P|180:236|156:292,1,89.6250034189225
68,84,79984,2,0,P|56:128|80:184,1,89.6250034189225
160,32,80414,2,0,P|172:76|148:132,1,89.6250034189225
312,240,80843,6,0,P|356:248|408:240,1,89.6250034189225
312,144,81273,2,0,P|304:96|320:48,1,89.6250034189225
232,192,81702,2,0,P|184:164|140:156,1,89.6250034189225
248,280,82132,2,0,P|232:324|236:376,1,89.6250034189225
368,312,82561,6,0,B|416:320|416:320|464:312,2,89.6250034189225
472,144,83206,1,0,0:0:0:0:
312,160,83420,2,0,B|304:116|304:116|320:68,2,89.6250034189225
192,272,84065,1,0,0:0:0:0:
256,128,84279,5,0,0:0:0:0:
