osu file format v14

[General]
AudioFilename: audio.mp3
AudioLeadIn: 0
PreviewTime: 103148
Countdown: 0
SampleSet: Soft
StackLeniency: 0.7
Mode: 2
LetterboxInBreaks: 0
WidescreenStoryboard: 0

[Editor]
Bookmarks: 71262,196887,256887,285012,294621,298137
DistanceSpacing: 1.1
BeatDivisor: 4
GridSize: 32
TimelineZoom: 1.6

[Metadata]
Title:Count What You Have Now
TitleUnicode:Count What You Have Now
Artist:VANTAGE
ArtistUnicode:VANTAGE
Creator:wonjae
Version:Mogul Moves
Source:
Tags:pop 80s citypop city ludwig ahgren paranoid grapes japanese future funk electronic mariya takeuchi shiawase no monosashi 竹内まりや 幸せのものさし j-funk edits collection
BeatmapID:2454654
BeatmapSetID:1176960

[Difficulty]
HPDrainRate:6
CircleSize:4
OverallDifficulty:9
ApproachRate:9
SliderMultiplier:3.59999990463257
SliderTickRate:2

[Events]
//Background and Video events
0,0,"Webp.net-resizeimage.jpg",0,0
//Break Periods
2,234598,238914
//Storyboard Layer 0 (Background)
//Storyboard Layer 1 (Fail)
//Storyboard Layer 2 (Pass)
//Storyboard Layer 3 (Foreground)
//Storyboard Layer 4 (Overlay)
//Storyboard Sound Samples

[TimingPoints]
53,468.75,4,2,0,60,1,0
2836,468.75,4,2,0,60,1,0
3069,-100,4,2,2,60,0,0
3773,468.75,4,2,1,60,1,0
4942,-100,4,2,2,60,0,0
6583,-83.3333333333333,4,2,2,60,0,0
6819,-83.3333333333333,4,2,5,60,0,0
7520,-100,4,2,1,60,0,0
7757,-100,4,2,0,60,0,0
7991,-100,4,2,1,60,0,0
8343,-100,4,2,0,60,0,0
8460,-100,4,2,1,60,0,0
8577,-100,4,2,0,60,0,0
8926,-100,4,2,1,60,0,0
9398,-100,4,2,2,60,0,0
10804,-100,4,2,4,60,0,0
11038,-100,4,2,2,60,0,0
11270,-100,4,2,1,60,0,0
11390,-100,4,2,0,60,0,0
11739,-133.333333333333,4,2,1,60,0,0
14085,-133.333333333333,4,2,3,60,0,0
14319,-133.333333333333,4,2,1,60,0,0
15140,-133.333333333333,4,2,0,60,0,0
15491,-133.333333333333,4,2,1,60,0,0
17835,-133.333333333333,4,2,3,60,0,0
18069,-133.333333333333,4,2,1,60,0,0
18890,-133.333333333333,4,2,0,60,0,0
19241,-133.333333333333,4,2,1,60,0,0
22757,-133.333333333333,4,2,0,60,0,0
22991,-133.333333333333,4,2,1,60,0,0
23226,-133.333333333333,4,2,0,60,0,0
23460,-133.333333333333,4,2,1,60,0,0
23577,-133.333333333333,4,2,0,60,0,0
23929,-133.333333333333,4,2,1,60,0,0
24398,-133.333333333333,4,2,2,60,0,0
25804,-133.333333333333,4,2,1,60,0,0
27210,-133.333333333333,4,2,3,60,0,0
27444,-133.333333333333,4,2,1,60,0,0
28148,-133.333333333333,4,2,3,60,0,0
28382,-133.333333333333,4,2,1,60,0,0
31898,-133.333333333333,4,2,3,60,0,0
32132,-133.333333333333,4,2,1,60,0,0
33304,-133.333333333333,4,2,4,60,0,0
33773,-133.333333333333,4,2,1,60,0,0
41038,-133.333333333333,4,2,2,60,0,0
41155,-133.333333333333,4,2,0,60,0,0
41273,-133.333333333333,4,2,1,60,0,0
42210,-133.333333333333,4,2,3,60,0,0
42679,-133.333333333333,4,2,1,60,0,0
43148,-133.333333333333,4,2,3,60,0,0
43382,-133.333333333333,4,2,1,60,0,0
45960,-133.333333333333,4,2,3,60,0,0
46194,-133.333333333333,4,2,1,60,0,0
46898,-133.333333333333,4,2,3,60,0,0
47132,-133.333333333333,4,2,1,60,0,0
49241,-133.333333333333,4,2,4,60,0,0
49476,-133.333333333333,4,2,1,60,0,0
51585,-133.333333333333,4,2,3,60,0,0
52054,-133.333333333333,4,2,1,60,0,0
52288,-133.333333333333,4,2,0,60,0,0
52523,-133.333333333333,4,2,1,60,0,0
52991,-133.333333333333,4,2,4,60,0,0
53226,-133.333333333333,4,2,1,60,0,0
54398,-133.333333333333,4,2,3,60,0,0
54866,-133.333333333333,4,2,1,60,0,0
56976,-133.333333333333,4,2,1,60,0,0
59085,-133.333333333333,4,2,3,60,0,0
59319,-133.333333333333,4,2,1,60,0,0
62835,-133.333333333333,4,2,3,60,0,0
63069,-133.333333333333,4,2,1,60,0,0
66116,-133.333333333333,4,2,4,60,0,0
66351,-133.333333333333,4,2,1,60,0,0
69866,-133.333333333333,4,2,4,60,0,0
70335,-133.333333333333,4,2,1,60,0,0
71507,-133.333333333333,4,2,2,60,0,0
72679,-133.333333333333,4,2,1,60,0,0
72796,-133.333333333333,4,2,0,60,0,0
73148,-133.333333333333,4,2,1,60,0,0
74085,-133.333333333333,4,2,3,60,0,0
74319,-133.333333333333,4,2,1,60,0,0
75023,-133.333333333333,4,2,3,60,0,0
75257,-133.333333333333,4,2,1,60,0,0
77835,-133.333333333333,4,2,3,60,0,0
78069,-133.333333333333,4,2,1,60,0,0
79241,-133.333333333333,4,2,4,60,0,0
79476,-133.333333333333,4,2,1,60,0,0
81585,-133.333333333333,4,2,3,60,0,0
81819,-133.333333333333,4,2,1,60,0,0
84866,-133.333333333333,4,2,4,60,0,0
85335,-133.333333333333,4,2,1,60,0,0
86273,-133.333333333333,4,2,2,60,0,0
86741,-133.333333333333,4,2,1,60,0,0
87210,-133.333333333333,4,2,2,60,0,0
87562,-133.333333333333,4,2,4,60,0,0
87913,-133.333333333333,4,2,0,60,0,0
88148,-133.333333333333,4,2,1,60,0,0
89085,-133.333333333333,4,2,3,60,0,0
89319,-133.333333333333,4,2,1,60,0,0
90023,-133.333333333333,4,2,3,60,0,0
90491,-133.333333333333,4,2,1,60,0,0
94710,-133.333333333333,4,2,3,60,0,0
94944,-133.333333333333,4,2,1,60,0,0
95179,-133.333333333333,4,2,4,60,0,0
95413,-133.333333333333,4,2,2,60,0,0
95882,-133.333333333333,4,2,0,60,0,0
96819,-133.333333333333,4,2,2,60,0,0
97757,-133.333333333333,4,2,0,60,0,0
98460,-133.333333333333,4,2,2,60,0,0
98694,-133.333333333333,4,2,5,60,0,0
98929,-133.333333333333,4,2,1,60,0,0
99163,-133.333333333333,4,2,2,60,0,0
99398,-133.333333333333,4,2,0,60,0,0
99866,-133.333333333333,4,2,1,60,0,0
100101,-133.333333333333,4,2,0,60,0,0
100335,-133.333333333333,4,2,1,60,0,0
100452,-133.333333333333,4,2,0,60,0,0
100804,-133.333333333333,4,2,1,60,0,0
101273,-133.333333333333,4,2,2,60,0,0
101741,-133.333333333333,4,2,1,60,0,0
102210,-133.333333333333,4,2,2,60,0,0
102679,-133.333333333333,4,2,4,60,0,0
102913,-133.333333333333,4,2,0,60,0,0
103148,-133.333333333333,4,2,1,60,0,1
105960,-133.333333333333,4,2,3,60,0,1
106194,-133.333333333333,4,2,1,60,0,1
107015,-133.333333333333,4,2,0,60,0,1
107366,-133.333333333333,4,2,1,60,0,1
108187,-133.333333333333,4,2,0,60,0,1
108304,-133.333333333333,4,2,1,60,0,1
109710,-133.333333333333,4,2,3,60,0,1
109944,-133.333333333333,4,2,1,60,0,1
114398,-133.333333333333,4,2,1,60,0,0
117210,-133.333333333333,4,2,3,60,0,0
117444,-133.333333333333,4,2,1,60,0,0
120023,-133.333333333333,4,2,2,60,0,0
120491,-133.333333333333,4,2,1,60,0,0
120960,-133.333333333333,4,2,2,60,0,0
121429,-133.333333333333,4,2,4,60,0,0
121663,-133.333333333333,4,2,0,60,0,0
121898,-133.333333333333,4,2,2,60,0,0
122366,-133.333333333333,4,2,1,60,0,0
122718,-133.333333333333,4,2,2,60,0,0
122835,-133.333333333333,4,2,1,60,0,0
124710,-133.333333333333,4,2,3,60,0,0
125179,-133.333333333333,4,2,1,60,0,0
125648,-133.333333333333,4,2,3,60,0,0
126116,-133.333333333333,4,2,1,60,0,0
127054,-133.333333333333,4,2,4,60,0,0
127523,-133.333333333333,4,2,1,60,0,0
128460,-133.333333333333,4,2,3,60,0,0
128929,-133.333333333333,4,2,1,60,0,0
129398,-133.333333333333,4,2,3,60,0,0
129866,-133.333333333333,4,2,1,60,0,0
134085,-133.333333333333,4,2,3,60,0,0
134202,-133.333333333333,4,2,1,60,0,0
134554,-133.333333333333,4,2,4,60,0,0
134788,-133.333333333333,4,2,1,60,0,0
136898,-133.333333333333,4,2,2,60,0,0
137366,-133.333333333333,4,2,1,60,0,0
137835,-133.333333333333,4,2,2,60,0,0
138304,-133.333333333333,4,2,4,60,0,0
138538,-133.333333333333,4,2,1,60,0,0
139710,-133.333333333333,4,2,3,60,0,0
139944,-133.333333333333,4,2,1,60,0,0
140648,-133.333333333333,4,2,3,60,0,0
140882,-133.333333333333,4,2,1,60,0,0
143460,-133.333333333333,4,2,3,60,0,0
143694,-133.333333333333,4,2,1,60,0,0
144398,-133.333333333333,4,2,3,60,0,0
144515,-133.333333333333,4,2,1,60,0,0
145804,-133.333333333333,4,2,4,60,0,0
146273,-133.333333333333,4,2,1,60,0,0
147093,-133.333333333333,4,2,3,60,0,0
147444,-133.333333333333,4,2,1,60,0,0
151898,-133.333333333333,4,2,3,60,0,0
152132,-133.333333333333,4,2,1,60,0,0
160335,-133.333333333333,4,2,3,60,0,0
160569,-133.333333333333,4,2,1,60,0,0
163616,-133.333333333333,4,2,4,60,0,0
163851,-133.333333333333,4,2,1,60,0,0
167718,-133.333333333333,4,2,2,60,0,0
167835,-133.333333333333,4,2,1,60,0,0
167952,-133.333333333333,4,2,0,60,0,0
168069,-133.333333333333,4,2,2,60,0,0
168304,-133.333333333333,4,2,1,60,0,0
168421,-133.333333333333,4,2,0,60,0,0
168538,-133.333333333333,4,2,2,60,0,0
170179,-133.333333333333,4,2,1,60,0,0
170413,-133.333333333333,4,2,0,60,0,0
170648,-133.333333333333,4,2,1,60,0,0
171585,-133.333333333333,4,2,3,60,0,0
171819,-133.333333333333,4,2,1,60,0,0
172523,-133.333333333333,4,2,3,60,0,0
172757,-133.333333333333,4,2,1,60,0,0
179085,-133.333333333333,4,2,3,60,0,0
179319,-133.333333333333,4,2,1,60,0,0
182952,-133.333333333333,4,2,0,60,0,0
183304,-133.333333333333,4,2,1,60,0,0
184476,-133.333333333333,4,2,2,60,0,0
185171,-133.333333333333,4,2,4,60,0,0
185413,-133.333333333333,4,2,0,60,0,0
185648,-133.333333333333,4,2,1,60,0,0
186585,-133.333333333333,4,2,3,60,0,0
186819,-133.333333333333,4,2,1,60,0,0
187523,-133.333333333333,4,2,3,60,0,0
187757,-133.333333333333,4,2,1,60,0,0
192210,-133.333333333333,4,2,3,60,0,0
192444,-133.333333333333,4,2,1,60,0,0
193148,-133.333333333333,4,2,2,60,0,0
193382,-133.333333333333,4,2,0,60,0,0
194319,-133.333333333333,4,2,2,60,0,0
195257,-133.333333333333,4,2,0,60,0,0
195960,-133.333333333333,4,2,2,60,0,0
196429,-133.333333333333,4,2,1,60,0,0
196663,-133.333333333333,4,2,2,60,0,0
196898,-133.333333333333,4,2,1,60,0,0
197132,-133.333333333333,4,2,0,60,0,0
197366,-133.333333333333,4,2,1,60,0,0
197483,-133.333333333333,4,2,0,60,0,0
197835,-133.333333333333,4,2,1,60,0,0
197952,-133.333333333333,4,2,0,60,0,0
198069,-133.333333333333,4,2,2,60,0,0
198304,-133.333333333333,4,2,1,60,0,0
198538,-133.333333333333,4,2,2,60,0,0
199241,-133.333333333333,4,2,1,60,0,0
199476,-133.333333333333,4,2,3,60,0,0
199710,-133.333333333333,4,2,2,60,0,0
200179,-133.333333333333,4,2,1,60,0,0
200296,-133.333333333333,4,2,0,60,0,0
200648,-133.333333333333,4,2,2,60,0,0
200882,-133.333333333333,4,2,0,60,0,0
201819,-133.333333333333,4,2,2,60,0,0
202054,-133.333333333333,4,2,0,60,0,0
202288,-133.333333333333,4,2,2,60,0,0
202757,-133.333333333333,4,2,0,60,0,0
203694,-133.333333333333,4,2,2,60,0,0
203929,-133.333333333333,4,2,0,60,0,0
204398,-133.333333333333,4,2,2,60,0,0
207913,-133.333333333333,4,2,0,60,0,0
208148,-133.333333333333,4,2,2,60,0,0
208616,-133.333333333333,4,2,0,60,0,0
209319,-133.333333333333,4,2,2,60,0,0
209554,-133.333333333333,4,2,0,60,0,0
209788,-133.333333333333,4,2,2,60,0,0
210257,-133.333333333333,4,2,0,60,0,0
210960,-133.333333333333,4,2,1,60,0,0
211194,-133.333333333333,4,2,2,60,0,0
211429,-133.333333333333,4,2,1,60,0,0
212132,-133.333333333333,4,2,0,60,0,0
212366,-133.333333333333,4,2,1,60,0,0
213069,-133.333333333333,4,2,2,60,0,0
213187,-133.333333333333,4,2,0,60,0,0
213304,-133.333333333333,4,2,1,60,0,0
213538,-133.333333333333,4,2,2,60,0,0
213655,-133.333333333333,4,2,0,60,0,0
213773,-133.333333333333,4,2,2,60,0,0
214241,-133.333333333333,4,2,1,60,0,0
214710,-133.333333333333,4,2,2,60,0,0
215179,-133.333333333333,4,2,1,60,0,0
222210,-133.333333333333,4,2,3,60,0,0
222444,-133.333333333333,4,2,2,60,0,0
222679,-133.333333333333,4,2,1,60,0,0
222913,-133.333333333333,4,2,2,60,0,0
223382,-133.333333333333,4,2,0,60,0,0
223616,-133.333333333333,4,2,1,60,0,0
223851,-133.333333333333,4,2,2,60,0,0
224554,-133.333333333333,4,2,4,60,0,0
224671,-133.333333333333,4,2,2,60,0,0
225257,-133.333333333333,4,2,0,60,0,0
225491,-133.333333333333,4,2,1,60,0,0
225726,-133.333333333333,4,2,2,60,0,0
225960,-133.333333333333,4,2,1,60,0,0
226194,-133.333333333333,4,2,2,60,0,0
226429,-133.333333333333,4,2,1,60,0,0
226663,-133.333333333333,4,2,2,60,0,0
226898,-133.333333333333,4,2,1,60,0,0
227132,-133.333333333333,4,2,0,60,0,0
227366,-133.333333333333,4,2,1,60,0,0
227601,-133.333333333333,4,2,0,60,0,0
227718,-133.333333333333,4,2,2,60,0,0
227835,-133.333333333333,4,2,1,60,0,0
227952,-133.333333333333,4,2,0,60,0,0
228069,-133.333333333333,4,2,2,60,0,0
228187,-133.333333333333,4,2,0,60,0,0
228304,-133.333333333333,4,2,1,60,0,0
228538,-133.333333333333,4,2,5,60,0,0
228773,-133.333333333333,4,2,2,60,0,0
229241,-133.333333333333,4,2,1,60,0,0
229593,-133.333333333333,4,2,5,60,0,0
229710,-133.333333333333,4,2,2,60,0,0
230530,-133.333333333333,4,2,0,60,0,0
230648,-133.333333333333,4,2,2,60,0,0
233929,-133.333333333333,4,2,1,60,0,0
234398,-133.333333333333,4,2,2,60,0,0
239554,-133.333333333333,4,2,1,60,0,0
240023,-133.333333333333,4,2,2,60,0,0
241429,-133.333333333333,4,2,1,60,0,0
241546,-133.333333333333,4,2,0,60,0,0
241898,-133.333333333333,4,2,1,60,0,0
244710,-133.333333333333,4,2,3,60,0,0
245179,-133.333333333333,4,2,1,60,0,0
245413,-133.333333333333,4,2,0,60,0,0
245648,-133.333333333333,4,2,1,60,0,0
248460,-133.333333333333,4,2,3,60,0,0
248929,-133.333333333333,4,2,1,60,0,0
255023,-133.333333333333,4,2,2,60,0,0
255491,-133.333333333333,4,2,1,60,0,0
255608,-133.333333333333,4,2,0,60,0,0
255726,-133.333333333333,4,2,2,60,0,0
256780,-133.333333333333,4,2,0,60,0,0
256898,-125,4,2,1,60,0,1
257952,-125,4,2,0,60,0,1
258304,-125,4,2,1,60,0,1
258421,-125,4,2,0,60,0,1
258773,-125,4,2,1,60,0,1
259710,-125,4,2,3,60,0,1
260179,-125,4,2,1,60,0,1
261819,-125,4,2,0,60,0,1
262054,-125,4,2,1,60,0,1
268382,-125,4,2,0,60,0,1
268616,-125,4,2,1,60,0,1
268851,-125,4,2,2,60,0,1
269085,-125,4,2,1,60,0,1
269202,-125,4,2,0,60,0,1
269319,-125,4,2,2,60,0,1
269437,-125,4,2,0,60,0,1
269554,-125,4,2,1,60,0,1
269671,-125,4,2,0,60,0,1
270023,-125,4,2,1,60,0,1
270726,-125,4,2,2,60,0,1
270960,-125,4,2,1,60,0,1
271312,-125,4,2,2,60,0,1
271429,-125,4,2,1,60,0,1
271546,-125,4,2,0,60,0,1
271663,-125,4,2,1,60,0,1
275882,-125,4,2,0,60,0,1
276116,-125,4,2,1,60,0,1
276351,-125,4,2,0,60,0,1
276468,-125,4,2,2,60,0,1
276585,-125,4,2,1,60,0,1
276702,-125,4,2,0,60,0,1
276819,-125,4,2,2,60,0,1
277054,-125,4,2,1,60,0,1
277523,-125,4,2,2,60,0,1
277991,-125,4,2,1,60,0,1
278108,-125,4,2,2,60,0,1
278226,-125,4,2,0,60,0,1
278343,-125,4,2,2,60,0,1
278929,-125,4,2,1,60,0,1
279163,-125,4,2,2,60,0,1
279398,-125,4,2,1,60,0,1
283968,-125,4,2,2,60,0,1
284085,-125,4,2,1,60,0,1
284788,-125,4,2,2,60,0,1
285023,-125,4,2,1,60,0,0
285491,-125,4,2,1,45,0,0
287835,-125,4,2,3,45,0,0
288304,-125,4,2,1,45,0,0
289007,-125,4,2,0,45,0,0
289241,-125,4,2,1,45,0,0
289476,-125,4,2,0,45,0,0
289593,-125,4,2,2,45,0,0
290062,-125,4,2,0,45,0,0
290179,-125,4,2,1,45,0,0
290648,-125,4,2,2,45,0,0
293226,-125,4,2,1,45,0,0
293460,-125,4,2,2,45,0,0
294536,468.75,4,2,2,60,1,0
294536,-125,4,2,2,60,0,0
295473,-125,4,2,2,40,0,0
296411,-125,4,2,2,30,0,0
297348,-125,4,2,2,20,0,0
297817,-125,4,2,2,10,0,0
298286,-125,4,2,2,40,0,0

[Colours]
Combo1 : 0,128,192
Combo2 : 255,128,255
Combo3 : 255,26,140
Combo4 : 128,0,255

[HitObjects]
257,199,53,5,2,0:0:0:0:
257,199,990,1,2,0:0:0:0:
257,199,1928,1,2,0:0:0:0:
257,199,2836,1,0,0:0:0:0:
97,199,3070,1,8,0:0:0:0:
402,191,3304,1,8,0:0:0:0:
402,191,3421,1,8,0:3:0:0:
402,191,3539,1,8,0:3:0:0:
98,190,3773,5,2,0:0:0:0:
89,195,4944,2,2,B|244:191|244:191|377:186,2,269.999992847443
246,165,6585,2,0,B|473:165|473:165|472:318|472:318|230:318|230:318|510:316,1,863.999950744631,2|2,0:0|0:0,0:0:0:0:
172,265,7757,6,0,L|173:154,1,89.9999976158143,2|2,0:0|0:0,0:0:0:0:
257,161,7991,1,2,0:0:0:0:
73,43,8226,1,0,0:0:0:0:
145,80,8343,1,2,0:0:0:0:
163,148,8460,1,2,0:0:0:0:
116,221,8577,1,2,0:0:0:0:
40,244,8694,1,2,0:0:0:0:
109,287,8812,1,2,0:0:0:0:
325,332,8929,2,0,P|441:272|304:149,1,359.999990463257,2|2,0:0|0:0,0:0:0:0:
85,86,9632,5,2,0:0:0:0:
421,86,9866,2,0,B|417:160|417:160|111:160,1,359.999990463257,2|2,0:0|0:0,0:0:0:0:
131,160,10569,2,0,B|134:234|134:234|441:234,1,359.999990463257,2|2,0:0|0:0,0:0:0:0:
77,295,11273,6,0,L|69:173,1,89.9999976158143,6|2,0:0|0:0,0:0:0:0:
66,151,11507,1,2,0:0:0:0:
302,128,11741,2,0,L|148:107,1,135.000001573563,10|0,0:0|0:0,0:0:0:0:
281,137,12210,2,0,L|276:281,1,135.000001573563,2|0,0:0|0:0,0:0:0:0:
146,296,12679,1,10,0:0:0:0:
262,312,12913,1,0,0:0:0:0:
470,346,13148,6,0,P|469:281|302:190,1,270.000003147125,2|10,0:0|0:0,0:0:0:0:
116,121,13851,2,0,L|417:117,1,270.000003147125,0|0,0:0|0:0,0:0:0:0:
305,108,14437,1,0,0:0:0:0:
174,90,14554,2,0,P|132:156|185:237,1,135.000001573563,10|0,0:0|0:0,0:0:0:0:
224,222,14905,1,0,0:0:0:0:
413,267,15023,6,0,L|494:259,2,67.5000007867814,2|2|2,0:0|0:0|0:0,0:0:0:0:
219,312,15491,2,0,L|355:320,1,135.000001573563,10|0,0:0|0:0,0:0:0:0:
248,260,15960,2,0,L|232:106,1,135.000001573563,2|0,0:0|0:0,0:0:0:0:
355,258,16429,2,0,L|368:123,1,135.000001573563,10|0,0:0|0:0,0:0:0:0:
169,97,16898,5,2,0:0:0:0:
367,123,17132,2,0,L|504:118,1,135.000001573563,0|10,0:0|0:0,0:0:0:0:
305,81,17601,2,0,P|226:177|346:294,1,270.000003147125,0|0,0:0|0:0,0:0:0:0:
492,300,18304,2,0,L|340:304,1,135.000001573563,10|0,0:0|0:0,0:0:0:0:
61,271,18773,5,2,0:0:0:0:
125,268,18890,1,2,0:0:0:0:
187,263,19007,1,2,0:0:0:0:
395,243,19241,2,0,L|405:79,1,135.000001573563,10|0,0:0|0:0,0:0:0:0:
267,95,19710,2,0,L|433:95,1,135.000001573563,2|0,0:0|0:0,0:0:0:0:
261,50,20179,2,0,L|97:55,1,135.000001573563,10|0,0:0|0:0,0:0:0:0:
327,96,20648,6,0,P|397:195|287:282,1,270.000003147125,2|10,0:0|0:0,0:0:0:0:
202,294,21351,1,0,0:0:0:0:
392,347,21585,2,0,L|402:204,1,135.000001573563,2|0,0:0|0:0,0:0:0:0:
268,196,22054,2,0,L|408:193,1,135.000001573563,10|0,0:0|0:0,0:0:0:0:
80,91,22523,5,2,0:0:0:0:
402,193,22757,1,2,0:0:0:0:
465,228,22874,1,2,0:0:0:0:
401,262,22991,1,10,0:0:0:0:
191,319,23226,1,2,0:0:0:0:
192,254,23343,1,2,0:0:0:0:
261,254,23460,1,2,0:0:0:0:
190,224,23577,1,2,0:0:0:0:
120,202,23694,1,2,0:0:0:0:
186,155,23812,1,0,0:0:0:0:
404,252,23929,2,0,P|466:209|379:47,1,270.000003147125,10|2,0:0|0:0,0:0:0:0:
171,50,24632,5,2,0:0:0:0:
484,43,24866,1,2,0:0:0:0:
482,123,25335,1,2,0:0:0:0:
116,26,25569,2,0,L|262:86,1,135.000001573563,2|10,0:0|0:0,0:0:0:0:
172,100,25921,1,8,0:3:0:0:
100,117,26038,1,8,0:3:0:0:
452,313,26273,5,6,0:0:0:0:
352,285,26507,2,0,L|490:277,1,135.000001573563,0|10,0:0|0:0,0:0:0:0:
278,239,26976,2,0,P|160:191|134:54,1,270.000003147125,0|0,0:0|0:0,0:0:0:0:
241,46,27679,1,10,0:0:0:0:
452,150,27913,2,0,L|166:149,1,270.000003147125,0|0,0:0|0:0,0:0:0:0:
273,189,28616,2,0,L|274:330,1,135.000001573563,10|0,0:0|0:0,0:0:0:0:
135,326,29085,2,0,L|132:173,1,135.000001573563,2|0,0:0|0:0,0:0:0:0:
341,113,29554,1,10,0:0:0:0:
401,160,29671,1,0,0:0:0:0:
461,206,29788,1,0,0:0:0:0:
111,311,30023,5,2,0:0:0:0:
194,256,30257,2,0,L|74:323,1,135.000001573563,0|10,0:0|0:0,0:0:0:0:
285,316,30726,2,0,L|287:149,1,135.000001573563,0|2,0:0|0:0,0:0:0:0:
170,120,31194,2,0,L|325:120,1,135.000001573563,0|10,0:0|0:0,0:0:0:0:
102,84,31663,2,0,P|22:122|99:254,1,270.000003147125,0|0,0:0|0:0,0:0:0:0:
183,326,32366,2,0,L|21:336,1,135.000001573563,10|0,0:0|0:0,0:0:0:0:
242,262,32835,1,2,0:0:0:0:
141,263,33069,2,0,P|53:191|142:95,1,270.000003147125,0|0,0:0|0:0,0:0:0:0:
457,204,33773,6,0,L|222:368,1,270.000003147125,2|10,0:0|0:0,0:0:0:0:
333,328,34476,2,0,L|343:191,1,135.000001573563,0|2,0:0|0:0,0:0:0:0:
214,219,34944,2,0,L|207:80,1,135.000001573563,0|10,0:0|0:0,0:0:0:0:
413,63,35413,1,0,0:0:0:0:
207,84,35648,2,0,P|121:162|236:216,1,270.000003147125,2|10,0:0|0:0,0:0:0:0:
427,272,36351,2,0,L|284:292,1,135.000001573563,0|2,0:0|0:0,0:0:0:0:
408,328,36819,2,0,L|544:337,2,135.000001573563,0|10|0,0:0|0:0|0:0,0:0:0:0:
75,298,37523,6,0,P|12:218|121:104,1,270.000003147125,2|10,0:0|0:0,0:0:0:0:
317,243,38226,2,0,L|316:102,1,135.000001573563,0|2,0:0|0:0,0:0:0:0:
212,75,38694,1,0,0:0:0:0:
319,68,38929,2,0,L|470:71,2,135.000001573563,10|0|2,0:0|0:0|0:0,0:0:0:0:
97,135,39632,5,2,0:0:0:0:
398,171,39866,2,0,L|398:309,1,135.000001573563,10|0,0:0|0:0,0:0:0:0:
184,344,40335,1,2,0:0:0:0:
481,344,40569,1,2,0:0:0:0:
346,348,40804,2,0,L|510:343,1,135.000001573563,10|8,0:0|0:0,0:0:0:0:
364,332,41155,1,2,0:0:0:0:
147,201,41273,6,0,L|3:211,2,135.000001573563,2|0|10,0:0|0:0|0:0,0:0:0:0:
354,288,41976,2,0,P|245:197|218:73,1,270.000003147125,0|0,0:0|0:0,0:0:0:0:
337,79,42679,1,10,0:0:0:0:
128,221,42913,2,0,B|18:221|18:221|77:154|77:154|184:234,1,270.000003147125,0|0,0:0|0:0,0:0:0:0:
347,278,43616,2,2,L|481:266,2,135.000001573563,10|0|2,0:0|0:0|0:0,0:0:0:0:
137,312,44319,2,0,L|147:124,1,135.000001573563,0|10,0:0|0:0,0:0:0:0:
362,142,44788,1,0,0:0:0:0:
53,121,45023,5,2,0:0:0:0:
156,176,45257,2,0,L|3:241,1,135.000001573563,0|10,0:0|0:0,0:0:0:0:
242,314,45726,2,0,L|461:140,1,270.000003147125,0|0,0:0|0:0,0:0:0:0:
343,124,46429,1,10,0:0:0:0:
134,117,46663,2,0,P|129:227|275:293,1,270.000003147125,0|0,0:0|0:0,0:0:0:0:
372,329,47366,2,0,L|226:344,2,135.000001573563,10|0|2,0:0|0:0|0:0,0:0:0:0:
155,295,48069,2,0,L|159:139,1,135.000001573563,0|10,0:0|0:0,0:0:0:0:
377,101,48538,1,0,0:0:0:0:
41,174,48773,6,0,P|163:205|179:275,2,202.500002360344,2|0|0,0:0|0:0|0:0,0:0:0:0:
151,159,49710,2,0,L|169:306,1,135.000001573563,2|0,0:0|0:0,0:0:0:0:
57,30,50179,1,10,0:0:0:0:
39,76,50296,1,0,0:0:0:0:
99,100,50413,1,0,0:0:0:0:
321,222,50648,2,0,P|290:325|188:331,1,202.500002360344,2|0,0:0|0:0,0:0:0:0:
269,338,51116,1,8,0:0:0:0:
485,344,51351,2,0,L|238:211,1,270.000003147125,0|0,0:0|0:0,0:0:0:0:
348,194,52054,2,0,L|355:36,1,135.000001573563,10|2,0:0|0:0,0:0:0:0:
271,45,52405,1,2,0:0:0:0:
34,38,52523,6,0,B|36:172|36:172|166:214|166:214|8:269,1,405.000004720688,2|0,0:0|0:0,0:0:0:0:
243,293,53460,1,2,0:0:0:0:
33,268,53694,2,0,L|199:268,1,135.000001573563,0|10,0:0|0:0,0:0:0:0:
379,262,54163,2,0,P|455:199|346:80,1,270.000003147125,0|0,0:0|0:0,0:0:0:0:
268,79,54866,2,0,L|258:258,1,135.000001573563,10|0,0:0|0:0,0:0:0:0:
382,224,55335,2,0,L|247:208,1,135.000001573563,2|0,0:0|0:0,0:0:0:0:
477,197,55804,2,0,L|313:213,1,135.000001573563,10|0,0:0|0:0,0:0:0:0:
16,129,56273,5,6,0:0:0:0:
223,240,56507,2,0,B|223:139|223:139|170:138,1,135.000001573563,0|8,0:0|0:0,0:0:0:0:
80,143,56976,1,0,0:0:0:0:
292,93,57210,1,2,0:0:0:0:
290,32,57444,1,0,0:0:0:0:
179,33,57679,1,10,0:0:0:0:
90,35,57913,1,0,0:0:0:0:
289,349,58148,2,0,L|440:358,2,135.000001573563,2|0|10,0:0|0:0|0:0,0:0:0:0:
67,251,58851,2,0,B|166:251|166:251|163:214|163:214|30:209,1,270.000003147125,0|0,0:0|0:0,0:0:0:0:
234,171,59554,2,0,L|88:169,1,135.000001573563,10|0,0:0|0:0,0:0:0:0:
405,117,60023,6,0,P|477:210|365:309,1,270.000003147125,2|10,0:0|0:0,0:0:0:0:
290,332,60726,2,0,L|432:333,1,135.000001573563,0|2,0:0|0:0,0:0:0:0:
209,286,61194,2,0,L|208:137,1,135.000001573563,0|10,0:0|0:0,0:0:0:0:
338,106,61663,1,0,0:0:0:0:
19,84,61898,1,2,0:0:0:0:
209,184,62132,2,0,L|217:344,1,135.000001573563,0|10,0:0|0:0,0:0:0:0:
121,339,62601,2,0,L|346:177,1,270.000003147125,0|0,0:0|0:0,0:0:0:0:
126,168,63304,2,0,L|-12:96,1,135.000001573563,10|0,0:0|0:0,0:0:0:0:
355,28,63773,5,2,0:0:0:0:
346,125,64007,2,0,L|197:143,1,135.000001573563,0|10,0:0|0:0,0:0:0:0:
90,190,64710,1,2,0:0:0:0:
308,273,64944,1,0,0:0:0:0:
90,190,65179,2,0,L|88:31,1,135.000001573563,10|0,0:0|0:0,0:0:0:0:
396,105,65648,2,0,P|353:193|247:202,2,202.500002360344,2|0|0,0:0|0:0|0:0,0:0:0:0:
262,78,66585,2,0,L|135:-2,2,135.000001573563,2|0|10,0:0|0:0|0:0,0:0:0:0:
480,116,67288,1,0,0:0:0:0:
164,268,67523,6,0,P|80:217|173:106,1,270.000003147125,2|10,0:0|0:0,0:0:0:0:
271,96,68226,1,0,0:0:0:0:
59,172,68460,2,0,L|51:326,1,135.000001573563,2|0,0:0|0:0,0:0:0:0:
262,323,68929,1,10,0:0:0:0:
57,319,69163,1,0,0:0:0:0:
356,330,69398,2,0,P|453:248|300:58,1,405.000004720688,2|0,0:0|0:0,0:0:0:0:
115,59,70335,2,0,L|273:56,1,135.000001573563,2|0,0:0|0:0,0:0:0:0:
454,156,70804,2,0,L|282:156,1,135.000001573563,10|0,0:0|0:0,0:0:0:0:
116,257,71273,5,2,0:0:0:0:
324,319,71507,1,2,0:0:0:0:
19,345,71741,1,2,0:0:0:0:
64,333,72210,1,2,0:0:0:0:
315,315,72444,1,2,0:0:0:0:
22,236,72679,1,8,0:0:0:0:
23,162,72796,1,2,0:0:0:0:
88,110,72913,1,2,0:0:0:0:
178,112,73030,1,2,0:0:0:0:
478,172,73148,5,6,0:0:0:0:
478,172,73382,2,0,L|332:172,1,135.000001573563,0|10,0:0|0:0,0:0:0:0:
13,168,73851,2,0,B|147:169|147:169|5:166,1,270.000003147125,0|0,0:0|0:0,0:0:0:0:
202,169,74554,1,10,0:0:0:0:
499,168,74788,2,0,B|365:169|365:169|507:166,1,270.000003147125,0|0,0:0|0:0,0:0:0:0:
285,175,75491,6,0,L|279:317,1,135.000001573563,10|0,0:0|0:0,0:0:0:0:
479,333,75960,1,2,0:0:0:0:
266,336,76194,1,0,0:0:0:0:
479,333,76429,1,10,0:0:0:0:
376,334,76663,1,0,0:0:0:0:
66,331,76898,6,0,L|207:241,2,135.000001573563,2|0|10,0:0|0:0|0:0,0:0:0:0:
286,260,77601,2,0,P|376:198|261:119,1,270.000003147125,0|0,0:0|0:0,0:0:0:0:
65,124,78304,1,10,0:0:0:0:
406,146,78538,2,0,L|411:280,1,135.000001573563,0|2,0:0|0:0,0:0:0:0:
108,306,79007,6,0,L|348:160,1,270.000003147125,0|0,0:0|0:0,0:0:0:0:
124,146,79710,2,0,L|32:46,2,135.000001573563,2|0|10,0:0|0:0|0:0,0:0:0:0:
350,186,80413,1,0,0:0:0:0:
39,295,80648,5,2,0:0:0:0:
39,237,80882,2,0,L|206:234,1,135.000001573563,0|10,0:0|0:0,0:0:0:0:
381,183,81351,2,0,L|108:92,1,270.000003147125,0|0,0:0|0:0,0:0:0:0:
220,81,82054,1,10,0:0:0:0:
440,69,82288,1,0,0:0:0:0:
240,155,82757,6,0,L|391:186,2,135.000001573563,0|10|0,0:0|0:0|0:0,0:0:0:0:
461,202,83460,2,0,L|448:348,1,135.000001573563,2|0,0:0|0:0,0:0:0:0:
334,333,83929,2,0,L|474:339,1,135.000001573563,10|0,0:0|0:0,0:0:0:0:
167,300,84398,6,0,P|79:278|179:80,1,405.000004720688,2|0,0:0|0:0,0:0:0:0:
408,118,85335,2,0,L|261:112,1,135.000001573563,2|0,0:0|0:0,0:0:0:0:
63,177,85804,2,0,L|346:252,1,270.000003147125,10|2,0:0|0:0,0:0:0:0:
111,287,86507,5,2,0:0:0:0:
422,345,86741,2,0,P|460:270|364:126,1,270.000003147125,10|2,0:0|0:0,0:0:0:0:
55,251,87444,2,0,P|38:154|165:28,1,270.000003147125,2|2,0:0|0:0,0:0:0:0:
220,29,88030,1,2,0:0:0:0:
416,103,88148,5,6,0:0:0:0:
497,162,88382,2,0,L|383:251,1,135.000001573563,0|10,0:0|0:0,0:0:0:0:
181,322,88851,2,0,L|463:315,1,270.000003147125
345,301,89554,1,10,0:0:0:0:
130,253,89788,2,0,L|432:242,1,270.000003147125,0|0,0:0|0:0,0:0:0:0:
188,197,90491,6,0,L|186:59,1,135.000001573563,10|0,0:0|0:0,0:0:0:0:
391,34,90960,1,2,0:0:0:0:
277,43,91194,1,0,0:0:0:0:
481,151,91429,1,10,0:0:0:0:
480,254,91663,1,0,0:0:0:0:
100,281,91898,6,0,L|215:195,2,135.000001573563,2|0|10,0:0|0:0|0:0,0:0:0:0:
290,193,92601,1,0,0:0:0:0:
73,267,92835,2,0,P|0:203|118:100,1,270.000003147125,2|10,0:0|0:0,0:0:0:0:
293,67,93538,2,0,L|133:66,1,135.000001573563,0|2,0:0|0:0,0:0:0:0:
362,106,94007,6,0,L|368:260,1,135.000001573563,0|10,0:0|0:0,0:0:0:0:
43,278,94476,2,0,P|33:158|154:72,1,270.000003147125
219,67,95062,1,0,0:0:0:0:
405,137,95179,2,0,B|491:127,1,67.5000007867814
405,137,95413,2,0,L|304:154,1,67.5000007867814
76,304,95648,1,0,0:0:0:0:
71,309,95882,6,0,L|223:303,3,135.000001573563,2|2|2|2,0:0|0:0|0:0|0:0,0:0:0:0:
417,233,96819,2,0,L|183:241,1,202.500002360344,2|2,0:0|0:0,0:0:0:0:
502,228,97523,5,2,0:0:0:0:
479,232,97757,2,0,L|389:233,1,67.5000007867814,2|0,0:0|0:0,0:0:0:0:
335,229,97991,2,0,L|528:233,1,135.000001573563,2|0,0:0|0:0,0:0:0:0:
265,311,98460,2,0,P|177:206|248:96,1,270.000003147125,2|10,0:0|0:0,0:0:0:0:
432,97,99163,1,8,0:0:0:0:
127,195,99398,6,0,P|57:130|83:50,1,135.000001573563,2|2,0:0|0:0,0:0:0:0:
145,70,99749,1,2,0:0:0:0:
369,110,99866,2,0,L|446:133,2,67.5000007867814,10|0|2,0:0|0:0|0:0,0:0:0:0:
302,95,100218,1,2,0:0:0:0:
165,97,100335,1,2,0:0:0:0:
89,143,100452,1,2,0:0:0:0:
165,202,100569,1,2,0:0:0:0:
88,252,100687,1,2,0:0:0:0:
331,326,100804,2,0,P|417:281|310:182,1,270.000003147125,10|2,0:0|0:0,0:0:0:0:
105,144,101507,5,2,0:0:0:0:
434,86,101741,2,0,L|131:93,1,270.000003147125,10|2,0:0|0:0,0:0:0:0:
300,86,102444,2,0,L|26:91,1,270.000003147125,2|2,0:0|0:0,0:0:0:0:
128,98,103030,1,2,0:0:0:0:
387,211,103148,6,0,L|479:218,2,67.5000007867814,6|0|0,0:0|0:0|0:0,0:0:0:0:
153,289,103616,2,0,P|80:228|96:181,1,135.000001573563,10|0,0:0|0:0,0:0:0:0:
151,176,103968,1,0,0:0:0:0:
296,149,104085,2,0,L|465:147,1,135.000001573563,2|0,0:0|0:0,0:0:0:0:
348,114,104554,1,10,0:0:0:0:
325,181,104671,1,0,0:0:0:0:
371,223,104788,1,0,0:0:0:0:
437,253,104905,1,0,0:0:0:0:
222,311,105023,6,0,P|59:272|33:182,1,270.000003147125,2|10,0:0|0:0,0:0:0:0:
247,218,105726,2,0,P|410:179|436:89,1,270.000003147125,0|0,0:0|0:0,0:0:0:0:
353,94,106312,1,0,0:0:0:0:
132,81,106429,2,0,L|-17:79,1,135.000001573563,10|0,0:0|0:0,0:0:0:0:
305,128,106898,5,2,0:0:0:0:
292,191,107015,1,2,0:0:0:0:
214,211,107132,1,2,0:0:0:0:
433,187,107366,2,0,L|445:324,1,135.000001573563,10|0,0:0|0:0,0:0:0:0:
218,343,107835,2,0,L|76:336,1,135.000001573563,2|0,0:0|0:0,0:0:0:0:
86,283,108187,1,2,0:0:0:0:
221,240,108304,1,10,0:0:0:0:
285,210,108421,1,0,0:0:0:0:
219,163,108538,1,0,0:0:0:0:
148,136,108655,1,0,0:0:0:0:
369,114,108773,6,0,L|461:109,1,67.5000007867814,2|0,0:0|0:0,0:0:0:0:
295,70,109007,2,0,L|207:68,1,67.5000007867814,0|0,0:0|0:0,0:0:0:0:
369,43,109241,2,0,L|378:131,1,67.5000007867814,10|0,0:0|0:0,0:0:0:0:
129,172,109476,2,0,P|30:278|118:345,1,270.000003147125,0|0,0:0|0:0,0:0:0:0:
440,347,110179,2,0,L|457:213,1,135.000001573563,10|0,0:0|0:0,0:0:0:0:
367,196,110530,1,0,0:0:0:0:
157,134,110648,6,0,L|86:134,2,67.5000007867814,2|0|0,0:0|0:0|0:0,0:0:0:0:
376,226,111116,2,0,L|222:222,1,135.000001573563,10|0,0:0|0:0,0:0:0:0:
336,181,111585,2,0,L|476:171,1,135.000001573563,2|0,0:0|0:0,0:0:0:0:
258,109,112054,1,10,0:0:0:0:
257,84,112171,1,0,0:0:0:0:
328,66,112288,1,0,0:0:0:0:
18,177,112523,6,0,L|295:197,1,270.000003147125,2|10,0:0|0:0,0:0:0:0:
174,209,113226,1,0,0:0:0:0:
373,221,113460,2,0,L|96:241,1,270.000003147125,2|10,0:0|0:0,0:0:0:0:
205,254,114163,1,0,0:0:0:0:
512,337,114398,6,0,P|368:314|327:193,3,270.000003147125,6|10|2|10,0:0|0:0|0:0|0:0,0:0:0:0:
507,198,116038,1,0,0:0:0:0:
184,295,116273,6,0,P|83:230|193:177,1,270.000003147125,2|10,0:0|0:0,0:0:0:0:
381,129,116976,2,0,L|96:128,1,270.000003147125,0|0,0:0|0:0,0:0:0:0:
317,132,117679,2,0,L|326:278,1,135.000001573563,10|0,0:0|0:0,0:0:0:0:
27,319,118148,6,0,L|36:143,1,135.000001573563,2|0,0:0|0:0,0:0:0:0:
243,186,118616,2,0,L|289:53,1,135.000001573563,10|0,0:0|0:0,0:0:0:0:
505,69,119085,2,0,L|352:68,1,135.000001573563,2|0,0:0|0:0,0:0:0:0:
159,188,119554,2,0,L|320:191,1,135.000001573563,10|0,0:0|0:0,0:0:0:0:
78,256,120023,5,2,0:0:0:0:
407,322,120257,1,2,0:0:0:0:
84,352,120491,2,0,P|60:282|197:144,1,270.000003147125,10|2,0:0|0:0,0:0:0:0:
485,95,121194,2,0,L|165:104,1,270.000003147125,2|2,0:0|0:0,0:0:0:0:
212,62,121780,1,2,0:0:0:0:
443,57,121898,5,2,0:0:0:0:
262,131,122366,1,10,0:0:0:0:
322,136,122483,1,8,0:3:0:0:
262,131,122601,1,8,0:3:0:0:
392,145,122718,1,8,0:0:0:0:
262,131,122835,1,2,0:0:0:0:
99,132,123069,2,0,L|254:129,2,135.000001573563,0|10|0,0:0|0:0|0:0,0:0:0:0:
499,138,123773,5,6,0:0:0:0:
499,138,124007,2,0,L|344:127,1,135.000001573563,0|10,0:0|0:0,0:0:0:0:
155,199,124476,2,0,P|171:321|315:354,1,270.000003147125,0|0,0:0|0:0,0:0:0:0:
398,348,125179,1,10,0:0:0:0:
80,292,125413,2,0,L|336:114,1,270.000003147125,0|0,0:0|0:0,0:0:0:0:
172,149,126116,2,0,L|128:7,1,135.000001573563,10|0,0:0|0:0,0:0:0:0:
334,31,126585,1,2,0:0:0:0:
132,25,126819,2,0,L|443:30,1,270.000003147125,0|0,0:0|0:0,0:0:0:0:
42,97,127523,5,2,0:0:0:0:
148,196,127757,2,0,L|289:222,1,135.000001573563,0|10,0:0|0:0,0:0:0:0:
494,254,128226,2,0,L|189:296,1,270.000003147125,0|0,0:0|0:0,0:0:0:0:
341,328,128929,1,10,0:0:0:0:
127,297,129163,2,0,P|133:174|262:78,1,270.000003147125,0|0,0:0|0:0,0:0:0:0:
348,233,129866,2,0,L|365:71,1,135.000001573563,10|0,0:0|0:0,0:0:0:0:
145,103,130335,2,0,L|300:114,2,135.000001573563,2|0|10,0:0|0:0|0:0,0:0:0:0:
25,94,131038,1,0,0:0:0:0:
341,314,131273,6,0,B|357:229|286:164|111:144,1,270.000003147125,2|10,0:0|0:0,0:0:0:0:
371,171,131976,2,0,L|403:37,1,135.000001573563,0|2,0:0|0:0,0:0:0:0:
280,43,132444,2,0,L|421:41,1,135.000001573563,0|10,0:0|0:0,0:0:0:0:
191,70,132913,1,0,0:0:0:0:
485,121,133148,2,0,B|486:255|486:255|345:251,1,270.000003147125,2|10,0:0|0:0,0:0:0:0:
139,284,133851,2,0,L|421:299,2,270.000003147125,0|0|0,0:0|0:0|0:0,0:0:0:0:
361,235,135023,6,0,P|401:148|275:32,1,270.000003147125,2|10,0:0|0:0,0:0:0:0:
79,56,135726,2,0,L|392:54,1,270.000003147125
131,139,136429,2,0,L|127:297,1,135.000001573563,10|0,0:0|0:0,0:0:0:0:
345,306,136898,1,2,0:0:0:0:
6,331,137132,1,2,0:0:0:0:
6,331,137366,2,0,L|281:324,1,270.000003147125,10|2,0:0|0:0,0:0:0:0:
378,307,138069,2,0,L|99:292,1,270.000003147125,0|0,0:0|0:0,0:0:0:0:
437,200,138773,5,2,0:0:0:0:
504,169,139007,2,0,L|332:169,1,135.000001573563,0|10,0:0|0:0,0:0:0:0:
157,125,139476,2,0,P|277:124|371:286,1,270.000003147125,0|0,0:0|0:0,0:0:0:0:
263,288,140179,1,10,0:0:0:0:
481,340,140413,2,0,P|478:258|323:150,1,270.000003147125
129,197,141116,2,0,L|119:40,1,135.000001573563,10|0,0:0|0:0,0:0:0:0:
258,195,141585,2,0,L|259:39,1,135.000001573563,2|0,0:0|0:0,0:0:0:0:
129,48,142054,1,10,0:0:0:0:
341,40,142288,1,0,0:0:0:0:
35,51,142523,5,2,0:0:0:0:
48,132,142757,2,0,L|231:134,1,135.000001573563,0|10,0:0|0:0,0:0:0:0:
392,224,143226,2,0,L|87:215,1,270.000003147125,0|0,0:0|0:0,0:0:0:0:
122,164,143929,1,10,0:0:0:0:
330,300,144163,2,0,P|380:204|264:107,1,270.000003147125,0|0,0:0|0:0,0:0:0:0:
147,183,144866,2,0,L|39:66,1,135.000001573563,10|0,0:0|0:0,0:0:0:0:
271,41,145335,1,2,0:0:0:0:
480,76,145569,2,0,L|179:88,1,270.000003147125,0|0,0:0|0:0,0:0:0:0:
422,145,146273,6,0,B|294:192|279:214|495:217,1,270.000003147125,2|8,0:0|0:0,0:0:0:0:
284,292,146976,2,0,P|165:275|77:161,1,270.000003147125,0|0,0:0|0:0,0:0:0:0:
283,114,147679,2,0,L|466:102,1,135.000001573563,10|0,0:0|0:0,0:0:0:0:
62,74,148148,2,0,L|371:62,1,270.000003147125,2|8,0:0|0:0,0:0:0:0:
223,125,148851,2,0,L|211:265,1,135.000001573563,0|0,0:0|0:0,0:0:0:0:
330,323,149319,1,0,0:0:0:0:
197,343,149554,2,0,L|434:334,1,202.500002360344,10|2,0:0|0:0,0:0:0:0:
465,299,150023,6,0,L|149:275,1,270.000003147125,0|10,0:0|0:0,0:0:0:0:
322,220,150726,1,0,0:0:0:0:
191,151,150960,2,0,L|49:142,2,135.000001573563,2|0|10,0:0|0:0|0:0,0:0:0:0:
408,114,151663,2,0,P|451:181|364:337,1,270.000003147125
148,329,152366,2,0,L|137:164,1,135.000001573563,10|0,0:0|0:0,0:0:0:0:
486,130,152835,2,0,P|396:124|195:134,1,270.000003147125,2|10,0:0|0:0,0:0:0:0:
351,134,153538,1,0,0:0:0:0:
18,212,153773,5,6,0:0:0:0:
17,269,154007,2,0,L|160:276,2,135.000001573563,0|8|0,0:0|0:0|0:0,0:0:0:0:
246,267,154710,1,2,0:0:0:0:
139,231,154944,2,0,L|138:84,1,135.000001573563,0|10,0:0|0:0,0:0:0:0:
241,60,155413,1,0,0:0:0:0:
458,40,155648,1,2,0:0:0:0:
356,90,155882,1,0,0:0:0:0:
322,176,156116,1,10,0:0:0:0:
359,253,156351,1,0,0:0:0:0:
469,293,156585,2,0,L|330:291,1,135.000001573563,2|0,0:0|0:0,0:0:0:0:
132,333,157054,2,0,L|-3:332,1,135.000001573563,10|0,0:0|0:0,0:0:0:0:
317,234,157523,6,0,P|475:196|511:93,2,270.000003147125,2|10|2,0:0|0:0|0:0,0:0:0:0:
204,209,158694,1,0,0:0:0:0:
325,188,158929,2,0,L|339:46,1,135.000001573563,10|0,0:0|0:0,0:0:0:0:
39,199,159398,2,0,L|15:29,1,135.000001573563,2|0,0:0|0:0,0:0:0:0:
141,50,159866,1,10,0:0:0:0:
351,105,160101,2,0,B|342:193|342:193|117:197,1,270.000003147125,0|0,0:0|0:0,0:0:0:0:
371,269,160804,2,0,L|518:294,1,135.000001573563,10|0,0:0|0:0,0:0:0:0:
154,336,161273,5,2,0:0:0:0:
37,325,161507,2,0,L|39:152,1,135.000001573563,0|10,0:0|0:0,0:0:0:0:
246,174,161976,1,0,0:0:0:0:
39,118,162210,2,0,L|190:108,1,135.000001573563,2|0,0:0|0:0,0:0:0:0:
392,86,162679,2,0,L|213:72,1,135.000001573563,10|0,0:0|0:0,0:0:0:0:
467,98,163148,2,0,L|223:95,2,202.500002360344,2|0|0,0:0|0:0|0:0,0:0:0:0:
358,153,164085,2,0,L|343:301,1,135.000001573563,2|0,0:0|0:0,0:0:0:0:
135,306,164554,6,0,L|110:163,1,135.000001573563,10|0,0:0|0:0,0:0:0:0:
445,191,165023,2,0,B|404:233|404:233|196:149,1,270.000003147125,2|10,0:0|0:0,0:0:0:0:
312,129,165726,1,0,0:0:0:0:
90,159,165960,2,0,P|21:99|71:17,1,202.500002360344,2|0,0:0|0:0,0:0:0:0:
121,15,166429,2,0,L|272:13,1,135.000001573563,10|0,0:0|0:0,0:0:0:0:
470,128,166898,6,0,L|200:138,1,270.000003147125,2|10,0:0|0:0,0:0:0:0:
312,186,167601,1,0,0:0:0:0:
316,253,167718,1,8,0:0:0:0:
94,249,167835,1,2,0:0:0:0:
45,255,167952,1,2,0:0:0:0:
34,201,168069,1,8,0:0:0:0:
93,179,168187,1,8,0:0:0:0:
231,169,168304,1,10,0:0:0:0:
304,156,168421,1,2,0:0:0:0:
169,128,168538,1,8,0:0:0:0:
105,116,168655,1,8,0:0:0:0:
364,70,168773,5,2,0:0:0:0:
470,137,169007,1,2,0:0:0:0:
146,186,169241,2,0,L|-3:206,2,135.000001573563,2|0|2,0:0|0:0|0:0,0:0:0:0:
369,271,169944,2,0,L|513:302,2,135.000001573563,2|8|2,0:0|0:0|0:0,0:0:0:0:
273,258,170530,1,2,0:0:0:0:
34,228,170648,5,6,0:0:0:0:
31,167,170882,2,0,L|204:163,1,135.000001573563,0|10,0:0|0:0,0:0:0:0:
385,126,171351,2,0,P|445:245|338:296,1,270.000003147125,0|0,0:0|0:0,0:0:0:0:
223,308,172054,1,10,0:0:0:0:
435,239,172288,2,0,L|140:259,1,270.000003147125
74,262,172991,6,0,L|57:115,1,135.000001573563,10|0,0:0|0:0,0:0:0:0:
268,87,173460,2,0,L|448:71,2,135.000001573563,2|0|10,0:0|0:0|0:0,0:0:0:0:
164,106,174163,1,0,0:0:0:0:
464,142,174398,2,0,L|451:312,1,135.000001573563,2|0,0:0|0:0,0:0:0:0:
314,293,174866,2,0,L|476:308,1,135.000001573563,10|0,0:0|0:0,0:0:0:0:
229,275,175335,2,0,P|181:193|296:73,1,270.000003147125,2|10,0:0|0:0,0:0:0:0:
491,169,176038,6,0,L|344:182,1,135.000001573563,0|2,0:0|0:0,0:0:0:0:
147,253,176507,2,0,L|316:274,2,135.000001573563,0|8|0,0:0|0:0|0:0,0:0:0:0:
359,300,177210,1,2,0:0:0:0:
438,192,177444,1,0,0:0:0:0:
324,82,177679,1,10,0:0:0:0:
120,47,177913,1,0,0:0:0:0:
432,38,178148,5,2,0:0:0:0:
424,121,178382,2,0,L|279:149,1,135.000001573563,0|10,0:0|0:0,0:0:0:0:
81,209,178851,2,0,L|388:297,1,270.000003147125,0|0,0:0|0:0,0:0:0:0:
241,329,179554,1,10,0:0:0:0:
461,349,179788,2,0,B|504:278|504:278|452:207|452:207|451:158|450:157|338:167,1,270.000003147125,0|0,0:0|0:0,0:0:0:0:
173,189,180491,6,0,L|9:195,1,135.000001573563,10|0,0:0|0:0,0:0:0:0:
349,84,180960,2,0,L|529:101,3,135.000001573563,2|0|10|0,0:0|0:0|0:0|0:0,0:0:0:0:
274,97,181898,2,0,P|195:178|297:326,1,270.000003147125,2|10,0:0|0:0,0:0:0:0:
340,332,182601,1,0,0:0:0:0:
114,347,182835,1,2,0:0:0:0:
27,271,183069,1,2,0:0:0:0:
94,276,183187,1,2,0:0:0:0:
304,274,183304,2,0,B|499:265|566:259|374:218,1,270.000003147125,10|2,0:0|0:0,0:0:0:0:
191,157,184007,1,2,0:0:0:0:
495,130,184241,6,0,L|492:271,1,135.000001573563,8|8,0:0|0:0,0:0:0:0:
404,279,184593,1,8,0:0:0:0:
495,295,184710,1,2,0:0:0:0:
195,317,184944,2,0,B|202:233|202:233|393:231,1,270.000003147125,2|2,0:0|0:0,0:0:0:0:
323,233,185530,1,2,0:0:0:0:
101,221,185648,5,6,0:0:0:0:
29,165,185882,2,0,L|167:158,1,135.000001573563,0|10,0:0|0:0,0:0:0:0:
377,94,186351,2,0,L|95:84,1,270.000003147125,0|0,0:0|0:0,0:0:0:0:
218,52,187054,1,10,0:0:0:0:
427,60,187288,2,0,P|482:153|374:276,1,270.000003147125
190,292,187991,6,0,L|37:307,1,135.000001573563,10|0,0:0|0:0,0:0:0:0:
142,259,188460,2,0,L|134:96,1,135.000001573563,2|0,0:0|0:0,0:0:0:0:
23,69,188929,2,0,L|180:55,1,135.000001573563,10|0,0:0|0:0,0:0:0:0:
472,86,189398,2,0,L|292:125,2,135.000001573563,2|0|10,0:0|0:0|0:0,0:0:0:0:
471,157,190101,1,0,0:0:0:0:
247,315,190335,2,0,B|84:324|84:324|245:313,1,270.000003147125,2|10,0:0|0:0,0:0:0:0:
314,312,191038,1,0,0:0:0:0:
5,133,191273,6,0,L|174:136,2,135.000001573563,2|0|10,0:0|0:0|0:0,0:0:0:0:
330,98,191976,2,0,P|398:160|300:276,1,270.000003147125,0|0,0:0|0:0,0:0:0:0:
89,325,192679,2,0,L|72:169,1,135.000001573563,10|0,0:0|0:0,0:0:0:0:
408,135,193148,1,2,0:0:0:0:
408,135,193382,6,0,L|232:147,2,135.000001573563,2|2|0,0:0|0:0|0:0,0:0:0:0:
273,144,194085,1,0,0:0:0:0:
57,232,194319,2,0,L|52:19,1,202.500002360344,2|2,0:0|0:0,0:0:0:0:
474,35,195023,1,2,0:0:0:0:
465,68,195257,2,0,L|282:61,2,135.000001573563,2|0|0,0:0|0:0|0:0,0:0:0:0:
154,275,195960,2,0,L|-7:288,1,135.000001573563,2|8,0:0|0:0,0:0:0:0:
339,320,196429,2,0,L|482:318,1,135.000001573563,10|8,0:0|0:0,0:0:0:0:
388,290,196780,1,8,0:0:0:0:
143,233,196898,6,0,L|133:90,1,135.000001573563,6|2,0:0|0:0,0:0:0:0:
203,88,197249,1,2,0:0:0:0:
349,101,197366,1,10,0:0:0:0:
410,138,197483,1,0,0:0:0:0:
411,212,197601,1,2,0:0:0:0:
341,235,197718,1,2,0:0:0:0:
197,270,197835,1,2,0:0:0:0:
182,333,197952,1,2,0:0:0:0:
325,332,198069,1,8,0:0:0:0:
384,343,198187,1,8,0:0:0:0:
99,344,198304,1,10,0:0:0:0:
26,291,198538,2,0,L|129:289,1,67.5000007867814,8|8,0:0|0:0,0:0:0:0:
312,283,198773,5,2,0:0:0:0:
455,283,199007,1,2,0:0:0:0:
91,321,199241,2,0,L|79:45,1,270.000003147125,10|2,0:0|0:0,0:0:0:0:
148,59,199827,1,8,0:3:0:0:
362,125,199944,1,8,0:0:0:0:
426,137,200062,1,8,0:0:0:0:
424,219,200179,1,10,0:0:0:0:
362,249,200296,1,0,0:0:0:0:
222,270,200413,1,8,0:3:0:0:
144,276,200530,1,0,0:0:0:0:
390,323,200648,5,2,0:0:0:0:
390,323,200882,2,0,L|255:322,2,135.000001573563,2|2|2,0:0|0:0|0:0,0:0:0:0:
249,317,201819,2,0,L|114:316,2,135.000001573563,2|2|2,0:0|0:0|0:0,0:0:0:0:
99,320,202757,1,2,0:0:0:0:
216,285,202991,1,2,0:0:0:0:
331,245,203226,1,0,0:0:0:0:
215,194,203460,1,2,0:0:0:0:
104,144,203694,1,2,0:0:0:0:
219,81,203929,1,2,0:0:0:0:
337,38,204163,1,0,0:0:0:0:
35,23,204398,5,2,0:0:0:0:
209,62,204632,1,2,0:0:0:0:
324,138,205335,1,0,0:0:0:0:
32,146,205569,2,0,L|36:307,1,135.000001573563,2|0,0:0|0:0,0:0:0:0:
402,341,206038,5,2,0:0:0:0:
249,264,206507,1,2,0:0:0:0:
402,162,207210,1,2,0:0:0:0:
104,111,207444,2,0,P|30:187|124:307,1,270.000003147125,2|2,0:0|0:0,0:0:0:0:
426,330,208148,5,2,0:0:0:0:
423,297,208382,2,0,L|256:291,2,135.000001573563,2|2|2,0:0|0:0|0:0,0:0:0:0:
97,209,209319,2,0,L|261:200,2,135.000001573563,2|2|2,0:0|0:0|0:0,0:0:0:0:
255,61,210257,5,2,0:0:0:0:
168,122,210491,1,2,0:0:0:0:
118,194,210726,1,0,0:0:0:0:
154,275,210960,1,2,0:0:0:0:
262,320,211194,1,2,0:0:0:0:
61,349,211429,2,0,L|212:354,1,135.000001573563,10|0,0:0|0:0,0:0:0:0:
507,290,211898,6,0,L|332:284,1,135.000001573563,2|2,0:0|0:0,0:0:0:0:
301,279,212249,1,2,0:0:0:0:
84,246,212366,2,0,P|51:173|100:107,1,135.000001573563,10|8,0:0|0:3,0:0:0:0:
159,106,212718,1,0,0:0:0:0:
309,101,212835,1,2,0:0:0:0:
370,148,212952,1,0,0:0:0:0:
392,217,213069,1,8,0:0:0:0:
367,283,213187,1,2,0:0:0:0:
301,313,213304,1,10,0:0:0:0:
226,320,213421,1,8,0:3:0:0:
341,338,213538,1,8,0:0:0:0:
456,354,213655,1,2,0:0:0:0:
456,354,213773,1,2,0:0:0:0:
68,282,214007,6,0,L|222:262,1,135.000001573563,2|10,0:0|0:0,0:0:0:0:
489,217,214710,2,0,L|315:184,1,135.000001573563,2|2,0:0|0:0,0:0:0:0:
226,161,215062,1,8,0:0:0:0:
356,120,215179,2,0,L|499:100,1,135.000001573563,10|8,0:0|0:3,0:0:0:0:
416,64,215530,1,8,0:3:0:0:
151,45,215648,6,0,L|11:45,2,135.000001573563,6|0|10,0:0|0:0|0:0,0:0:0:0:
364,173,216351,2,0,L|203:177,1,135.000001573563,0|2,0:0|0:0,0:0:0:0:
452,241,216819,2,0,L|276:251,2,135.000001573563,0|10|0,0:0|0:0|0:0,0:0:0:0:
233,307,217523,6,0,L|384:307,1,135.000001573563,2|0,0:0|0:0,0:0:0:0:
139,245,217991,2,0,L|144:104,1,135.000001573563,10|0,0:0|0:0,0:0:0:0:
367,127,218460,2,0,L|526:122,3,135.000001573563,2|0|10|0,0:0|0:0|0:0|0:0,0:0:0:0:
169,117,219398,6,0,P|85:141|191:235,1,270.000003147125,2|10,0:0|0:0,0:0:0:0:
285,260,220101,1,0,0:0:0:0:
491,305,220335,2,0,L|187:315,1,270.000003147125,2|10,0:0|0:0,0:0:0:0:
424,232,221038,2,0,L|448:72,1,135.000001573563,0|2,0:0|0:0,0:0:0:0:
227,205,221507,2,0,L|196:41,1,135.000001573563,0|10,0:0|0:0,0:0:0:0:
510,73,221976,6,0,L|203:71,1,270.000003147125,0|8,0:0|0:0,0:0:0:0:
133,72,222562,1,8,0:0:0:0:
34,77,222679,2,0,L|39:222,1,135.000001573563,10|8,0:0|0:0,0:0:0:0:
144,226,223030,1,2,0:0:0:0:
381,235,223148,5,2,0:0:0:0:
381,235,223382,2,0,L|215:254,3,135.000001573563,2|10|8|2,0:0|0:0|0:0|0:0,0:0:0:0:
462,214,224319,2,0,L|456:-37,1,202.500002360344,2|2,0:0|0:0,0:0:0:0:
35,36,225023,5,2,0:0:0:0:
37,89,225257,1,2,0:0:0:0:
66,156,225374,1,2,0:0:0:0:
147,163,225491,1,10,0:0:0:0:
71,214,225608,1,0,0:0:0:0:
68,283,225726,1,8,0:0:0:0:
152,323,225843,1,8,0:0:0:0:
333,339,225960,2,0,L|483:339,1,135.000001573563,2|8,0:0|0:0,0:0:0:0:
261,267,226429,2,0,L|247:97,1,135.000001573563,10|8,0:0|0:0,0:0:0:0:
336,113,226780,1,8,0:0:0:0:
88,72,226898,6,0,L|72:213,1,135.000001573563,2|2,0:0|0:0,0:0:0:0:
146,206,227249,1,2,0:0:0:0:
353,235,227366,1,10,0:0:0:0:
352,297,227483,1,0,0:0:0:0:
293,324,227601,1,2,0:0:0:0:
231,324,227718,1,8,0:0:0:0:
101,334,227835,1,2,0:0:0:0:
38,332,227952,1,2,0:0:0:0:
168,267,228069,1,8,0:0:0:0:
233,268,228187,1,2,0:0:0:0:
435,270,228304,6,0,P|491:208|429:116,1,202.500002360344,10|0,0:0|0:0,0:0:0:0:
221,99,228773,1,2,0:0:0:0:
21,101,229007,1,2,0:0:0:0:
337,86,229241,2,0,P|335:231|260:285,1,202.500002360344,10|0,0:0|0:0,0:0:0:0:
120,272,229710,2,0,P|61:200|109:111,1,202.500002360344,2|2,0:0|0:0,0:0:0:0:
241,104,230179,1,10,0:0:0:0:
392,148,230413,1,8,0:0:0:0:
455,144,230530,1,2,0:0:0:0:
154,88,230648,5,2,0:0:0:0:
154,165,231819,1,2,0:0:0:0:
432,226,232171,1,2,0:0:0:0:
15,147,232523,5,2,0:0:0:0:
252,137,233460,1,2,0:0:0:0:
43,158,233929,1,10,0:0:0:0:
411,230,234398,5,4,0:0:0:0:
222,204,239554,5,10,0:0:0:0:
221,246,239671,1,8,0:3:0:0:
275,283,239788,1,8,0:3:0:0:
341,284,239905,1,0,0:0:0:0:
101,338,240023,5,2,0:0:0:0:
11,343,240257,1,2,0:0:0:0:
392,351,240491,2,0,P|453:301|366:185,1,202.500002360344,2|0,0:0|0:0,0:0:0:0:
370,192,240960,1,8,0:0:0:0:
77,163,241194,2,0,P|38:107|82:41,1,135.000001573563,10|10,0:0|0:0,0:0:0:0:
133,35,241546,1,2,0:0:0:0:
192,71,241663,1,8,0:3:0:0:
135,119,241780,1,8,0:3:0:0:
393,120,241898,6,0,L|555:122,1,135.000001573563,2|0,0:0|0:0,0:0:0:0:
303,202,242366,2,0,L|125:216,1,135.000001573563,10|0,0:0|0:0,0:0:0:0:
376,211,242835,2,0,L|398:360,1,135.000001573563,2|0,0:0|0:0,0:0:0:0:
266,199,243304,2,0,L|413:182,1,135.000001573563,10|0,0:0|0:0,0:0:0:0:
31,92,243773,6,0,L|325:82,1,270.000003147125,2|10,0:0|0:0,0:0:0:0:
490,130,244476,2,0,L|171:150,1,270.000003147125,0|0,0:0|0:0,0:0:0:0:
23,185,245179,2,0,L|6:343,1,135.000001573563,10|2,0:0|0:0,0:0:0:0:
90,330,245530,1,2,0:0:0:0:
298,333,245648,6,0,P|391:302|408:227,1,135.000001573563,2|0,0:0|0:0,0:0:0:0:
203,226,246116,2,0,L|364:230,1,135.000001573563,10|0,0:0|0:0,0:0:0:0:
139,176,246585,2,0,L|124:1,1,135.000001573563,2|0,0:0|0:0,0:0:0:0:
256,34,247054,2,0,L|111:41,1,135.000001573563,10|0,0:0|0:0,0:0:0:0:
333,76,247523,5,2,0:0:0:0:
127,60,247757,2,0,L|113:203,1,135.000001573563,0|10,0:0|0:0,0:0:0:0:
321,246,248226,2,0,L|-2:248,1,270.000003147125,0|0,0:0|0:0,0:0:0:0:
255,322,248929,2,0,L|423:334,1,135.000001573563,10|0,0:0|0:0,0:0:0:0:
22,206,249398,6,0,L|39:71,1,135.000001573563,2|0,0:0|0:0,0:0:0:0:
251,176,249866,2,0,L|412:166,1,135.000001573563,10|0,0:0|0:0,0:0:0:0:
182,199,250335,2,0,L|190:56,1,135.000001573563,2|0,0:0|0:0,0:0:0:0:
285,45,250804,2,0,L|425:49,1,135.000001573563,10|0,0:0|0:0,0:0:0:0:
117,94,251273,6,0,P|35:120|117:229,1,270.000003147125,2|10,0:0|0:0,0:0:0:0:
220,228,251976,1,0,0:0:0:0:
422,286,252210,2,0,B|425:360|425:360|209:353,1,270.000003147125,2|10,0:0|0:0,0:0:0:0:
230,278,252913,1,0,0:0:0:0:
437,253,253148,6,0,L|456:70,1,135.000001573563,2|0,0:0|0:0,0:0:0:0:
245,93,253616,2,0,L|425:89,1,135.000001573563,10|0,0:0|0:0,0:0:0:0:
178,164,254085,2,0,L|36:182,1,135.000001573563,2|0,0:0|0:0,0:0:0:0:
156,224,254554,2,0,L|293:255,2,135.000001573563,10|0|2,0:0|0:3|0:0,0:0:0:0:
352,247,255257,5,2,0:0:0:0:
27,175,255491,1,10,0:0:0:0:
26,120,255608,1,2,0:0:0:0:
75,83,255726,1,2,0:0:0:0:
142,77,255843,1,8,0:0:0:0:
373,112,255960,1,10,0:0:0:0:
424,157,256077,1,8,0:3:0:0:
453,213,256194,1,10,0:0:0:0:
424,265,256312,1,0,0:0:0:0:
292,291,256429,1,10,0:0:0:0:
229,311,256546,1,0,0:3:0:0:
291,337,256663,1,2,0:0:0:0:
359,359,256780,1,2,0:0:0:0:
155,332,256898,6,0,L|-11:343,1,143.999996185303,6|0,0:0|0:0,0:0:0:0:
82,320,257249,1,0,0:0:0:0:
211,296,257366,2,0,L|367:288,1,143.999996185303,10|0,0:0|0:0,0:0:0:0:
135,235,257835,1,2,0:0:0:0:
88,179,257952,1,2,0:0:0:0:
136,127,258069,1,2,0:0:0:0:
204,95,258187,1,2,0:0:0:0:
279,95,258304,2,0,L|276:14,1,71.9999980926514,10|0,0:0|0:0,0:0:0:0:
206,17,258538,2,0,L|122:22,1,71.9999980926514,2|2,0:0|0:0,0:0:0:0:
359,56,258773,6,0,P|457:112|354:220,1,287.999992370606,2|10,0:0|0:0,0:0:0:0:
156,281,259476,2,0,L|384:66,1,287.999992370606,0|0,0:0|0:0,0:0:0:0:
51,185,260179,2,0,L|27:15,1,143.999996185303,10|0,0:0|0:0,0:0:0:0:
343,51,260648,6,0,L|65:218,1,287.999992370606,2|10,0:0|0:0,0:0:0:0:
221,231,261351,1,0,0:0:0:0:
432,298,261585,2,0,L|514:308,2,71.9999980926514,2|0|2,0:0|0:0|0:0,0:0:0:0:
357,286,261937,1,2,0:0:0:0:
438,242,262054,2,0,L|452:88,1,143.999996185303,8|0,0:0|0:0,0:0:0:0:
149,71,262523,5,2,0:0:0:0:
457,103,262757,2,0,L|452:259,1,143.999996185303,0|10,0:0|0:0,0:0:0:0:
225,304,263226,2,0,L|69:294,2,143.999996185303,0|2|0,0:0|0:0|0:0,0:0:0:0:
466,101,263929,2,0,L|312:91,1,143.999996185303,10|0,0:0|0:0,0:0:0:0:
15,70,264398,6,0,P|74:231|189:259,1,287.999992370606,2|10,0:0|0:0,0:0:0:0:
77,285,265101,1,0,0:0:0:0:
274,350,265335,2,0,L|454:350,1,143.999996185303,2|0,0:0|0:0,0:0:0:0:
315,300,265804,2,0,P|282:247|278:116,1,143.999996185303,10|0,0:0|0:0,0:0:0:0:
488,107,266273,6,0,L|197:237,1,287.999992370606,2|10,0:0|0:0,0:0:0:0:
351,249,266976,1,0,0:0:0:0:
130,328,267210,2,0,P|88:264|212:118,1,287.999992370606,2|10,0:0|0:0,0:0:0:0:
96,101,267913,1,0,0:0:0:0:
411,82,268148,6,0,L|432:276,1,143.999996185303,2|2,0:0|0:0,0:0:0:0:
310,268,268499,1,2,0:0:0:0:
195,291,268616,2,0,L|78:196,1,143.999996185303,10|2,0:0|0:0,0:0:0:0:
164,174,268968,1,8,0:0:0:0:
234,126,269085,1,2,0:0:0:0:
256,60,269202,1,2,0:0:0:0:
234,126,269319,1,2,0:0:0:0:
164,174,269437,1,2,0:0:0:0:
32,192,269554,1,10,0:0:0:0:
32,255,269671,1,2,0:0:0:0:
79,293,269788,1,8,0:3:0:0:
144,296,269905,1,8,0:3:0:0:
277,304,270023,6,0,L|387:309,1,71.9999980926514,2|0,0:0|0:0,0:0:0:0:
131,256,270257,2,0,L|123:164,1,71.9999980926514,6|0,0:0|0:0,0:0:0:0:
352,165,270491,1,10,0:0:0:0:
423,165,270608,1,8,0:3:0:0:
495,165,270726,1,2,0:0:0:0:
429,170,270843,1,8,0:0:0:0:
281,213,270960,2,0,L|124:236,1,143.999996185303,6|0,0:0|0:0,0:0:0:0:
183,273,271312,1,8,0:0:0:0:
332,334,271429,1,10,0:0:0:0:
403,335,271546,1,2,0:0:0:0:
406,289,271663,1,2,0:0:0:0:
114,336,271898,6,0,L|37:325,2,71.9999980926514,6|0|0,0:0|0:0|0:0,0:0:0:0:
331,302,272366,2,0,L|157:290,1,143.999996185303,10|0,0:0|0:0,0:0:0:0:
174,242,272718,1,0,0:0:0:0:
313,234,272835,2,0,P|405:143|293:72,1,287.999992370606,2|10,0:0|0:0,0:0:0:0:
196,70,273538,1,0,0:0:0:0:
510,174,273773,6,0,B|491:260|491:260|247:276,1,287.999992370606,2|10,0:0|0:0,0:0:0:0:
392,297,274476,1,0,0:0:0:0:
182,327,274710,2,0,L|-4:332,1,143.999996185303,2|0,0:0|0:0,0:0:0:0:
249,248,275179,2,8,L|400:254,1,143.999996185303,10|0,0:0|0:0,0:0:0:0:
23,133,275648,6,0,B|72:100|72:100|116:134|116:134|150:118,1,143.999996185303,2|2,0:0|0:0,0:0:0:0:
207,132,275999,1,2,0:0:0:0:
415,144,276116,2,0,P|475:192|427:298,1,143.999996185303,10|2,0:0|0:0,0:0:0:0:
400,270,276468,1,8,0:0:0:0:
269,300,276585,1,2,0:0:0:0:
200,320,276702,1,2,0:0:0:0:
268,335,276819,1,8,0:0:0:0:
338,347,276937,1,8,0:3:0:0:
216,348,277054,2,0,B|137:348|137:348|227:346,1,143.999996185303,10|0,0:0|0:0,0:0:0:0:
415,172,277523,5,2,0:0:0:0:
107,206,277757,2,0,P|68:133|129:71,1,143.999996185303,2|10,0:0|0:0,0:0:0:0:
149,83,278108,1,8,0:3:0:0:
298,85,278226,1,2,0:0:0:0:
352,86,278343,1,0,0:0:0:0:
47,60,278460,2,0,L|35:221,1,143.999996185303,2|0,0:0|0:0,0:0:0:0:
263,295,278929,2,0,L|424:273,1,143.999996185303,10|8,0:0|0:0,0:0:0:0:
355,241,279280,1,0,0:0:0:0:
108,237,279398,6,0,L|29:222,1,71.9999980926514,6|0,0:0|0:0,0:0:0:0:
114,238,279632,1,0,0:0:0:0:
318,175,279866,2,0,L|160:175,1,143.999996185303,10|0,0:0|0:0,0:0:0:0:
318,161,280335,2,0,L|314:13,1,143.999996185303,2|0,0:0|0:0,0:0:0:0:
182,36,280804,2,0,L|351:34,1,143.999996185303,10|0,0:0|0:0,0:0:0:0:
6,67,281273,6,0,L|280:163,1,287.999992370606,2|10,0:0|0:0,0:0:0:0:
211,100,281976,1,0,0:0:0:0:
299,169,282210,1,2,0:0:0:0:
288,269,282444,1,0,0:0:0:0:
190,335,282679,1,10,0:0:0:0:
83,338,282913,1,0,0:0:0:0:
477,248,283148,6,0,L|174:254,1,287.999992370606,2|10,0:0|0:0,0:0:0:0:
273,191,283851,1,0,0:0:0:0:
337,156,283968,1,8,0:0:0:0:
273,125,284085,1,2,0:0:0:0:
80,99,284319,1,8,0:3:0:0:
82,78,284437,1,8,0:3:0:0:
156,84,284554,1,10,0:0:0:0:
156,41,284671,1,0,0:0:0:0:
79,34,284788,1,8,0:0:0:0:
459,122,285023,6,0,P|441:235|283:293,2,287.999992370606,6|8|2,0:0|0:0|0:0,0:0:0:0:
139,144,286429,2,0,L|371:143,1,215.999994277954,8|0,0:0|0:0,0:0:0:0:
151,92,286898,2,0,L|-2:93,2,143.999996185303,6|0|8,0:0|0:0|0:0,0:0:0:0:
490,180,287601,2,0,B|480:312|480:312|274:316,1,287.999992370606,0|0,0:0|0:0,0:0:0:0:
122,312,288304,1,8,0:0:0:0:
58,329,288421,1,0,0:0:0:0:
121,340,288538,1,0,0:0:0:0:
455,324,288773,6,0,L|459:232,1,71.9999980926514,6|0,0:0|0:0,0:0:0:0:
229,87,289007,2,0,L|155:76,2,71.9999980926514,2|2|10,0:0|0:0|0:0,0:0:0:0:
334,108,289476,1,2,0:0:0:0:
395,142,289593,1,8,0:0:0:0:
420,212,289710,1,2,0:0:0:0:
394,268,289827,1,8,0:0:0:0:
330,299,289944,1,2,0:0:0:0:
262,297,290062,1,2,0:0:0:0:
116,300,290179,2,0,B|42:282|-82:249|225:182,1,287.999992370606,10|2,0:0|0:0,0:0:0:0:
412,151,290882,5,2,0:0:0:0:
53,86,291116,1,8,0:0:0:0:
154,141,291585,1,10,0:0:0:0:
458,180,291819,1,10,0:0:0:0:
473,234,291937,1,8,0:0:0:0:
438,288,292054,1,2,0:0:0:0:
374,289,292171,1,8,0:3:0:0:
233,299,292288,2,0,L|113:194,1,143.999996185303,8|2,0:3|0:0,0:0:0:0:
365,210,292757,5,2,0:0:0:0:
42,187,292991,2,0,B|67:117|67:117|180:108,2,143.999996185303,10|2|2,0:0|0:0|0:0,0:0:0:0:
361,221,293694,2,0,B|453:219|453:219|541:238,1,143.999996185303,10|2,0:0|0:0,0:0:0:0:
128,258,294536,1,6,0:0:0:0:
256,192,294770,12,2,298286,0:0:0:0:
