osu file format v14

[General]
AudioFilename: audio.ogg
AudioLeadIn: 0
PreviewTime: 72503
Countdown: 0
SampleSet: Soft
StackLeniency: 1
Mode: 0
LetterboxInBreaks: 0
WidescreenStoryboard: 0

[Editor]
DistanceSpacing: 0.5
BeatDivisor: 8
GridSize: 32
TimelineZoom: 3.099999

[Metadata]
Title:TOBIRA
TitleUnicode:扉
Artist:VALZ
ArtistUnicode:VΔLZ
Creator:Ryuusei Aika
Version:Rainbow
Source:
Tags:gokugohan12468 KittyAdventure Kyouren arronchu1207 AirinCat killian Japanese Rock J-Rock JRock バーチャルライバー バーチャルユーチューバー ブイチューバー Virtual Youtuber VTuber V-Tuber にじさんじ Nijisanji JP 2434 ANYCOLOR ヴァルツ 弦月藤士郎 Genzuki Tojiro 長尾景 Nagao Kei 甲斐田晴 Kaida Haru げんづきとうじろう ながおけい かいだはる
BeatmapID:4431232
BeatmapSetID:2110897

[Difficulty]
HPDrainRate:5.4
CircleSize:4
OverallDifficulty:9.4
ApproachRate:9.4
SliderMultiplier:1.8
SliderTickRate:1

[Events]
//Background and Video events
0,0,"bg.jpg",0,0
//Break Periods
2,102551,111074
//Storyboard Layer 0 (Background)
//Storyboard Layer 1 (Fail)
//Storyboard Layer 2 (Pass)
//Storyboard Layer 3 (Foreground)
//Storyboard Layer 4 (Overlay)
//Storyboard Sound Samples

[TimingPoints]
588,319.148936170213,4,2,1,50,1,0
588,-125,4,2,1,50,0,0
827,-125,4,2,1,5,0,0
907,307.692307692308,4,2,2,80,1,0
907,-100,4,2,2,80,0,0
4599,310.880829015544,4,2,2,80,1,0
5220,-100,4,2,1,70,0,0
5842,309.278350515464,4,2,1,70,1,0
5842,-100,4,2,1,70,0,0
10790,-100,4,2,1,50,0,0
11099,-100,4,2,1,100,0,0
12336,-100,4,2,1,60,0,0
13264,313.31592689295,4,2,1,60,1,0
13264,-125,4,2,1,60,0,0
14360,-125,4,2,1,60,0,0
14517,309.278350515464,4,2,1,60,1,0
15135,-125,4,2,1,60,0,0
16681,297.029702970297,4,2,1,60,1,0
16681,-125,4,2,1,60,0,0
16978,309.278350515464,4,2,1,60,1,0
16978,-125,4,2,1,60,0,0
28112,312.5,4,2,1,60,1,0
28112,-125,4,2,1,60,0,0
29987,303.030303030303,4,2,1,60,1,0
29987,-125,4,2,1,60,0,0
30593,312.5,4,2,1,60,1,0
31843,297.029702970297,4,2,1,60,1,0
32585,333.333333333333,4,2,1,60,1,0
32585,-100,4,2,1,60,0,0
32751,309.278350515464,4,2,1,65,1,0
32751,-111.111111111111,4,2,1,65,0,0
33060,309.278350515464,4,2,1,70,1,0
33060,-111.111111111111,4,2,1,70,0,0
34142,-100,4,2,1,70,0,0
52699,-125,4,2,1,60,0,0
52853,-100,4,2,1,60,0,0
53163,-125,4,2,1,60,0,0
54090,-100,4,2,1,60,0,0
55173,-125,4,2,1,60,0,0
62596,-100,4,2,1,70,0,0
67389,-100,4,2,1,70,0,0
67621,-100,4,2,1,5,0,0
67699,-100,4,2,2,80,0,0
68936,-100,4,2,2,80,0,0
69864,-100,4,2,1,70,0,0
70173,310.679611650485,4,2,1,70,1,0
70173,-90.9090909090909,4,2,1,75,0,0
71415,-83.3333333333333,4,2,1,80,0,0
72658,309.278350515464,4,2,1,80,1,1
72658,-83.3333333333333,4,2,1,80,0,1
80080,310.880829015544,4,2,1,80,1,1
80080,-74.0740740740741,4,2,1,80,0,1
81945,303.030303030303,4,2,1,80,1,1
82096,-74.0740740740741,4,2,2,100,0,1
82248,-74.0740740740741,4,2,1,80,0,1
82551,306.122448979592,4,2,1,80,1,0
82551,-100,4,2,1,80,0,0
82857,-83.3333333333333,4,2,1,80,0,1
84999,310.880829015544,4,2,1,80,1,1
86087,-83.3333333333333,4,2,1,80,0,1
91216,305.927342256214,4,2,1,80,1,1
92439,309.278350515464,4,2,1,80,1,1
92439,-100,4,2,1,70,0,0
102335,-100,4,2,1,60,0,0
112232,-142.857142857143,4,2,1,60,0,0
120892,-125,4,2,1,60,0,0
121201,-125,4,2,1,65,0,0
121511,-125,4,2,1,70,0,0
121820,-100,4,2,1,70,0,0
122129,-100,4,2,1,70,0,0
123212,-100,4,2,1,70,0,0
123366,314.13612565445,4,2,1,70,1,0
123994,-100,4,2,1,70,0,0
124308,-100,4,2,1,70,0,0
124622,306.122448979592,4,2,1,70,1,0
124622,-100,4,2,1,70,0,0
125846,309.278350515464,4,2,1,70,1,0
127083,-100,4,2,1,70,0,0
141773,-125,4,2,1,60,0,0
151670,-100,4,2,1,70,0,0
156773,-100,4,2,1,80,0,0
158938,-100,4,2,1,80,0,0
159093,-90.9090909090909,4,2,1,80,0,0
159248,312.5,4,2,1,75,1,0
159248,-90.9090909090909,4,2,1,75,0,0
160498,304.568527918782,4,2,1,80,1,0
160498,-83.3333333333333,4,2,1,80,0,0
161107,-83.3333333333333,4,2,2,100,0,0
161411,-83.3333333333333,4,2,1,80,0,0
161716,307.692307692308,4,2,1,80,1,1
161716,-83.3333333333333,4,2,1,80,0,1
164177,312.5,4,2,1,80,1,1
164177,-83.3333333333333,4,2,1,80,0,1
165427,-100,4,2,1,80,0,1
165739,-83.3333333333333,4,2,1,80,0,1
166677,309.278350515464,4,2,1,80,1,1
166677,-83.3333333333333,4,2,1,80,0,1
169151,-74.0740740740741,4,2,1,80,0,1
171006,303.030303030303,4,2,1,80,1,1
171157,-74.0740740740741,4,2,2,100,0,1
171309,-74.0740740740741,4,2,1,80,0,1
171612,309.877340219496,4,2,1,80,1,1
171612,-100,4,2,1,80,0,0
171921,-83.3333333333333,4,2,1,80,0,1
174091,309.278350515464,4,2,1,80,1,1
175173,-83.3333333333333,4,2,1,80,0,1
181049,-100,4,2,1,80,0,1
181513,-100,4,2,1,75,0,0
182286,-90.9090909090909,4,2,1,75,0,0
186462,-90.9090909090909,4,2,1,70,0,0
186771,-100,4,2,1,70,0,0
191410,-100,4,2,1,75,0,0
192183,-90.9090909090909,4,2,1,75,0,0
196359,-95.2380952380952,4,2,1,75,0,0
198833,-90.9090909090909,4,2,1,80,0,0
201307,-86.9565217391304,4,2,1,80,0,1
201384,-86.9565217391304,4,2,1,80,0,0
208884,-83.3333333333333,4,2,1,80,0,0
209967,306.122448979592,4,2,1,80,1,0
210426,-83.3333333333333,4,2,1,80,0,0
210579,292.682926829268,4,2,1,80,1,0
211164,342.857142857143,4,2,1,80,1,0
211164,-135.135135135135,4,2,1,60,0,0
211506,309.278350515464,4,2,1,60,1,0
212433,309.278350515464,4,2,1,60,1,0
212433,-142.857142857143,4,2,1,60,0,0
214907,312.5,4,2,1,60,1,0
216157,310.880829015544,4,2,1,65,1,0
216157,-111.111111111111,4,2,1,65,0,0
217400,-100,4,2,1,65,0,0
217711,-111.111111111111,4,2,1,65,0,0
218644,309.278350515464,4,2,1,75,1,0
218644,-100,4,2,1,75,0,0
220035,-83.3333333333333,4,2,1,80,0,0
220499,300,4,2,2,100,1,0
220499,-83.3333333333333,4,2,2,100,0,0
220799,-83.3333333333333,4,2,1,80,0,0
221099,306.122448979592,4,2,1,80,1,0
221099,-100,4,2,1,80,0,0
221405,-83.3333333333333,4,2,1,80,0,1
221711,309.278350515464,4,2,1,80,1,1
222174,-83.3333333333333,4,2,1,80,0,1
222329,309.278350515464,4,2,1,80,1,1
222329,-100,4,2,1,80,0,1
222638,-83.3333333333333,4,2,1,80,0,1
225731,319.148936170213,4,2,1,80,1,1
225731,-100,4,2,1,80,0,1
226050,309.278350515464,4,2,1,80,1,1
226050,-76.9230769230769,4,2,1,90,0,1
227905,319.148936170213,4,2,1,90,1,1
228543,308.880308880309,4,2,1,90,1,1
229778,302.267002518892,4,2,1,90,1,1
230684,-100,4,2,1,90,0,1
230987,310.077519379845,4,2,1,90,1,1
230987,-100,4,2,1,75,0,0
238428,303.030303030303,4,2,1,75,1,0
239640,312.5,4,2,1,75,1,0
240890,309.677419354839,4,2,1,75,1,0
240890,-111.111111111111,4,2,1,70,0,0
244296,303.030303030303,4,2,1,70,1,0
244447,-111.111111111111,4,2,1,70,0,0
244599,303.030303030303,4,2,1,70,1,0
245508,322.58064516129,4,2,1,70,1,0
245508,-111.111111111111,4,2,1,70,0,0
245830,312.5,4,2,1,70,1,0
245830,-111.111111111111,4,2,1,70,0,0
248330,304.568527918782,4,2,1,75,1,0
248330,-111.111111111111,4,2,1,75,0,0
248482,-99.9999999999999,4,2,1,75,0,0
249548,310.880829015544,4,2,1,75,1,0
250169,320,4,2,1,75,1,0
250809,307.692307692308,4,2,1,60,1,0
250809,-200,4,2,1,60,0,0
252039,309.278350515464,4,2,1,60,1,0
252502,-200,4,2,1,60,0,0
253430,-204.081632653061,4,2,1,40,0,0
255750,-204.081632653061,4,2,1,30,0,0
256987,-204.081632653061,4,2,1,20,0,0
258224,-204.081632653061,4,2,1,15,0,0
258843,-204.081632653061,4,2,1,10,0,0
259461,-204.081632653061,4,2,1,5,0,0

[Colours]
Combo1 : 173,255,95
Combo2 : 193,132,255
Combo3 : 17,254,176
Combo4 : 255,138,108

[HitObjects]
24,34,588,6,0,L|34:142,1,108,0|0,2:0|2:0,2:0:0:0:
50,285,907,5,8,2:0:0:0:
85,318,983,1,8,2:0:0:0:
132,329,1060,1,8,2:0:0:0:
179,316,1137,1,8,2:0:0:0:
214,281,1214,1,8,2:0:0:0:
227,233,1291,1,8,2:0:0:0:
211,186,1368,1,8,2:0:0:0:
172,154,1445,1,8,2:0:0:0:
158,106,1522,1,8,2:0:0:0:
183,63,1599,1,8,2:0:0:0:
225,36,1676,1,8,2:0:0:0:
274,41,1753,1,8,2:0:0:0:
316,65,1830,1,8,2:0:0:0:
343,106,1907,1,8,2:0:0:0:
349,154,1983,1,8,2:0:0:0:
330,199,2060,1,8,2:0:0:0:
286,223,2137,1,8,2:0:0:0:
249,256,2214,1,8,2:0:0:0:
233,302,2291,1,8,2:0:0:0:
242,351,2368,1,8,2:0:0:0:
282,378,2445,1,8,2:0:0:0:
330,367,2522,1,8,2:0:0:0:
358,326,2599,1,8,2:0:0:0:
353,276,2676,1,8,2:0:0:0:
319,239,2753,1,8,2:0:0:0:
279,210,2830,1,8,2:0:0:0:
262,162,2907,1,8,2:0:0:0:
277,115,2983,1,8,2:0:0:0:
310,79,3060,1,8,2:0:0:0:
357,63,3137,1,8,2:0:0:0:
406,67,3214,1,8,2:0:0:0:
450,88,3291,1,8,2:0:0:0:
474,131,3368,1,8,2:0:0:0:
473,180,3445,1,8,2:0:0:0:
441,217,3522,1,8,2:0:0:0:
392,228,3599,1,8,2:0:0:0:
346,209,3676,1,8,2:0:0:0:
310,174,3753,1,8,2:0:0:0:
264,152,3830,1,8,2:0:0:0:
215,159,3907,1,8,2:0:0:0:
176,189,3983,1,8,2:0:0:0:
153,233,4060,1,8,2:0:0:0:
161,281,4137,1,8,2:0:0:0:
183,325,4214,1,8,2:0:0:0:
225,350,4291,1,8,2:0:0:0:
274,351,4368,1,8,2:0:0:0:
313,321,4445,1,8,2:0:0:0:
331,274,4522,1,8,2:0:0:0:
322,225,4599,1,8,2:0:0:0:
292,185,4676,1,8,2:0:0:0:
250,159,4754,1,8,2:0:0:0:
222,117,4832,1,8,2:0:0:0:
228,68,4909,1,8,2:0:0:0:
255,26,4987,1,8,2:0:0:0:
301,8,5065,1,8,2:0:0:0:
349,14,5143,1,8,2:0:0:0:
389,42,5220,2,0,L|377:107,1,45.2331606217616,8|0,2:3|2:0,2:0:0:0:
349,196,5376,5,4,2:3:0:0:
320,241,5453,1,4,2:3:0:0:
273,270,5531,1,4,2:3:0:0:
219,278,5609,1,4,2:3:0:0:
165,276,5687,1,4,2:3:0:0:
117,249,5764,1,4,2:3:0:0:
80,209,5842,6,0,B|53:148|61:111|61:111|89:80,1,135,4|0,3:2|2:0,2:0:0:0:
155,36,6151,2,0,L|267:50,1,90,8|0,2:0|2:0,2:0:0:0:
412,68,6460,1,0,3:0:0:0:
264,182,6615,1,0,3:0:0:0:
348,13,6769,1,8,2:0:0:0:
468,149,6924,1,0,3:0:0:0:
264,182,7079,6,0,L|371:164,1,90,0|0,2:0|3:0,2:0:0:0:
388,161,7311,1,0,3:0:0:0:
423,155,7388,2,0,P|453:214|445:287,1,135,8|0,2:0|2:0,2:0:0:0:
401,343,7697,5,0,3:0:0:0:
505,217,7852,1,0,3:0:0:0:
324,255,8006,2,0,P|259:277|203:321,1,135,12|0,2:0|2:0,2:0:0:0:
151,372,8316,5,4,3:2:0:0:
37,166,8470,2,0,L|47:271,1,90,0|8,3:0|2:0,2:0:0:0:
228,194,8780,2,0,P|265:139|266:66,1,135,0|0,3:0|2:0,2:0:0:0:
239,0,9089,1,0,3:0:0:0:
95,107,9244,1,8,2:0:0:0:
312,137,9398,6,0,B|387:149|437:182|437:182|464:227,1,180,4|0,3:2|3:0,2:0:0:0:
471,255,9785,1,0,3:0:0:0:
476,290,9862,1,8,2:0:0:0:
394,66,10017,1,8,2:0:0:0:
345,42,10094,1,8,2:0:0:0:
291,42,10171,1,8,2:0:0:0:
246,72,10249,1,8,2:0:0:0:
218,118,10326,1,8,2:0:0:0:
221,172,10403,1,8,2:0:0:0:
246,219,10481,1,8,2:0:0:0:
286,254,10558,1,8,2:0:0:0:
340,258,10635,1,8,2:0:0:0:
391,242,10713,1,8,2:0:0:0:
432,207,10790,5,4,3:2:0:0:
419,314,11099,5,0,2:0:0:0:
327,371,11409,5,0,2:0:0:0:
219,362,11718,5,0,2:0:0:0:
123,310,12027,5,0,2:0:0:0:
40,45,12336,5,8,2:0:0:0:
125,144,12491,1,8,2:0:0:0:
146,173,12568,1,8,2:0:0:0:
168,204,12646,1,8,2:0:0:0:
231,76,12800,5,8,2:3:0:0:
53,163,12955,1,4,2:3:0:0:
193,277,13110,1,4,2:3:0:0:
83,332,13264,6,0,L|70:254,1,72,4|0,3:2|2:0,2:0:0:0:
116,129,13577,1,0,3:0:0:0:
153,286,13733,1,0,2:0:0:0:
246,184,13890,1,0,3:0:0:0:
211,336,14047,5,0,2:0:0:0:
174,179,14203,1,0,3:0:0:0:
304,234,14360,2,0,P|270:250|239:274,1,72,0|0,2:0|3:0,2:0:0:0:
443,213,14671,5,0,2:0:0:0:
322,313,14826,1,0,3:0:0:0:
474,373,14980,1,0,2:0:0:0:
397,276,15135,2,0,L|393:363,1,72,0|0,3:0|2:0,2:0:0:0:
457,195,15444,2,0,P|470:165|472:112,1,72,0|0,3:0|2:0,2:0:0:0:
468,111,15676,1,0,2:0:0:0:
468,111,15754,6,0,L|374:119,1,72,0|0,3:0|2:0,2:0:0:0:
236,23,16063,2,0,L|307:16,1,72,0|0,3:0|2:0,2:0:0:0:
328,155,16372,2,0,L|234:163,1,72,0|0,3:0|2:0,2:0:0:0:
104,75,16681,2,0,L|175:68,1,72,0|0,3:0|2:0,2:0:0:0:
175,68,16903,1,0,2:0:0:0:
175,68,16978,6,0,P|183:138|171:222,1,144,0|0,3:0|3:0,2:0:0:0:
382,380,17596,2,0,P|374:310|385:225,1,144,0|0,3:0|3:0,2:0:0:0:
286,318,18060,2,0,L|251:340,1,36,0|0,2:0|2:0,2:0:0:0:
244,345,18215,6,0,P|170:360|88:337,1,144,0|0,3:0|3:0,2:0:0:0:
7,249,18679,1,0,2:0:0:0:
94,200,18833,2,0,L|80:286,1,72,0|0,3:0|2:0,2:0:0:0:
18,142,19142,1,0,3:0:0:0:
155,114,19297,1,0,2:0:0:0:
93,25,19452,6,0,L|170:30,1,72,0|0,3:0|2:0,2:0:0:0:
319,140,19761,2,0,L|247:135,1,72,0|0,3:0|2:0,2:0:0:0:
418,88,20070,2,0,P|430:118|428:174,1,72,0|0,3:0|2:0,2:0:0:0:
299,313,20380,2,0,P|287:283|289:227,1,72,0|0,3:0|2:0,2:0:0:0:
294,226,20612,1,0,2:0:0:0:
294,226,20689,6,0,P|359:214|441:258,1,144,0|0,3:0|3:0,2:0:0:0:
339,344,21153,1,0,2:0:0:0:
368,203,21307,1,0,3:0:0:0:
81,373,21617,6,0,B|98:337|101:272|43:219,2,144,0|0|0,3:0|3:0|3:0,2:0:0:0:
165,288,22390,2,0,L|173:245,1,36,0|0,2:0|2:0,2:0:0:0:
176,236,22545,2,0,P|215:241|265:260,1,72,0|0,3:0|2:0,2:0:0:0:
284,90,22854,2,0,P|245:85|195:66,1,72,0|2,3:0|2:0,2:0:0:0:
341,214,23163,6,0,B|369:264|362:314|331:352,1,144,0|0,3:0|3:0,2:0:0:0:
211,154,23627,2,0,L|119:170,1,72,0|0,2:0|3:0,2:0:0:0:
361,101,23936,2,0,L|431:88,1,72,0|0,2:0|3:0,2:0:0:0:
253,221,24246,1,0,2:0:0:0:
310,25,24400,6,0,B|339:67|335:129|299:177,1,144,0|0,3:0|3:0,2:0:0:0:
231,244,24864,1,0,2:0:0:0:
184,107,25019,2,0,L|171:201,1,72,0|0,3:0|2:0,2:0:0:0:
62,270,25328,2,0,L|71:198,1,72,0|0,3:0|2:0,2:0:0:0:
172,307,25637,6,0,B|201:343|259:356|306:332,1,144,0|0,3:0|3:0,2:0:0:0:
509,157,26256,2,0,B|480:121|422:108|375:132,1,144,0|0,3:0|3:0,2:0:0:0:
317,183,26720,1,0,2:0:0:0:
292,34,26874,6,0,L|280:138,1,72,0|0,3:0|2:0,2:0:0:0:
263,265,27184,1,0,3:0:0:0:
199,139,27338,1,0,2:0:0:0:
122,220,27493,2,0,P|156:218|200:235,1,72,0|0,3:0|2:0,2:0:0:0:
191,229,27725,1,0,2:0:0:0:
191,229,27802,5,0,3:0:0:0:
19,280,27957,1,0,2:0:0:0:
70,160,28112,2,0,B|102:192|114:249|87:311,1,144,0|0,3:0|3:0,2:0:0:0:
36,379,28580,1,0,2:0:0:0:
177,294,28737,2,0,L|166:390,1,72.75,2|0,3:2|2:0,2:0:0:0:
186,205,29049,1,0,3:0:0:0:
259,340,29205,2,0,P|326:364|397:359,1,144,2|0,2:0|2:0,2:0:0:0:
289,204,29674,6,0,P|253:207|219:218,1,72.75,0|0,3:0|2:0,2:0:0:0:
438,288,29987,2,0,P|473:284|508:274,1,72,0|0,3:0|2:0,2:0:0:0:
375,139,30290,2,0,L|366:215,1,72,0|0,3:0|2:0,2:0:0:0:
366,211,30517,1,0,2:0:0:0:
366,211,30593,1,2,2:0:0:0:
373,218,32585,5,0,3:0:0:0:
269,384,32751,2,0,B|248:351|239:305|256:264,1,121.5,8|0,2:3|2:0,2:0:0:0:
283,193,33060,5,4,3:2:0:0:
353,328,33214,1,0,2:0:0:0:
171,288,33369,1,8,2:0:0:0:
351,232,33523,1,0,2:0:0:0:
214,128,33678,1,0,3:0:0:0:
252,305,33833,1,0,3:0:0:0:
306,152,33987,1,8,2:0:0:0:
138,221,34142,2,0,P|96:238|45:246,1,90,0|0,2:0|3:0,2:0:0:0:
150,70,34451,2,0,P|192:53|243:45,1,90,0|8,3:0|2:0,2:0:0:0:
59,158,34761,5,0,2:0:0:0:
211,188,34915,1,0,3:0:0:0:
77,269,35070,1,0,3:0:0:0:
110,97,35224,2,0,P|152:80|196:72,1,90,8|0,2:0|2:0,2:0:0:0:
432,61,35534,6,0,B|412:23|353:2|312:22,1,135,0|0,3:0|2:0,2:0:0:0:
294,98,35843,2,0,L|283:191,1,90,8|0,2:0|2:0,2:0:0:0:
261,351,36152,1,0,3:0:0:0:
373,227,36307,1,0,3:0:0:0:
207,283,36462,2,0,P|169:299|105:300,1,90,8|0,2:0|2:0,2:0:0:0:
364,318,36771,5,0,3:0:0:0:
244,212,36925,1,0,3:0:0:0:
400,153,37080,2,0,L|499:144,1,90,8|0,2:0|2:0,2:0:0:0:
292,271,37389,5,0,3:0:0:0:
324,122,37544,1,0,3:0:0:0:
454,232,37699,1,8,2:0:0:0:
134,339,38008,6,0,B|96:290|96:204|148:167,1,180,0|8,3:0|2:0,2:0:0:0:
301,55,38472,1,0,2:0:0:0:
97,99,38627,5,0,3:0:0:0:
308,175,38781,1,0,3:0:0:0:
196,36,38936,2,0,P|208:77|202:140,1,90,8|0,2:0|2:0,2:0:0:0:
155,281,39245,5,0,3:0:0:0:
261,202,39400,1,0,3:0:0:0:
92,234,39554,2,0,L|3:250,1,90,8|0,2:0|2:0,0:0:0:0:
228,278,39864,5,0,3:0:0:0:
101,337,40018,1,0,3:0:0:0:
171,144,40173,2,0,L|164:233,1,90,8|0,2:0|2:0,2:0:0:0:
6,179,40482,6,0,B|-28:143|-45:54|7:5,2,180,0|8|0,3:0|2:0|3:0,2:0:0:0:
6,179,41255,1,0,3:0:0:0:
101,63,41410,5,8,2:0:0:0:
200,152,41565,2,0,L|92:170,1,90,0|0,2:0|3:0,2:0:0:0:
111,166,41874,1,0,3:0:0:0:
214,70,42029,1,8,2:0:0:0:
485,188,42338,5,0,3:0:0:0:
392,65,42492,1,0,3:0:0:0:
373,276,42647,2,0,L|385:178,1,90,8|0,2:0|2:0,2:0:0:0:
356,160,42879,1,0,2:0:0:0:
356,160,42956,6,0,P|283:201|272:313,1,180,4|8,3:2|2:0,2:0:0:0:
70,235,43420,2,0,P|121:241|170:267,1,90,0|0,2:0|3:0,2:0:0:0:
294,379,43730,1,0,3:0:0:0:
81,348,43884,2,0,P|132:340|185:353,1,90,8|0,2:0|2:0,2:0:0:0:
0,263,44194,2,0,B|41:213|52:145|13:86,1,180,0|8,3:0|2:0,2:0:0:0:
18,95,44812,5,0,3:0:0:0:
206,52,44967,1,0,3:0:0:0:
115,204,45121,2,0,L|125:105,1,90,8|0,2:0|2:0,2:0:0:0:
240,214,45431,2,0,P|297:245|400:249,1,135,0|0,3:0|2:0,2:0:0:0:
442,244,45740,2,0,P|495:226|538:190,1,90,8|0,2:0|2:0,2:0:0:0:
289,281,46049,5,0,3:0:0:0:
411,170,46204,1,0,3:0:0:0:
279,51,46358,2,0,L|268:152,1,90,8|0,2:0|2:0,2:0:0:0:
246,355,46668,5,0,3:0:0:0:
393,248,46822,1,0,3:0:0:0:
191,184,46977,2,0,P|149:196|103:220,1,90,8|0,2:0|2:0,2:0:0:0:
350,321,47286,5,0,3:0:0:0:
205,265,47441,1,0,3:0:0:0:
328,190,47596,2,0,P|368:170|411:156,1,90,8|0,2:0|2:0,2:0:0:0:
134,299,47905,5,4,3:2:0:0:
134,299,48214,2,0,L|121:209,1,90,8|0,2:0|2:0,2:0:0:0:
151,112,48523,1,0,3:0:0:0:
238,194,48678,1,0,3:0:0:0:
38,259,48833,2,0,L|25:169,1,90,8|0,2:0|2:0,2:0:0:0:
243,64,49142,5,4,3:2:0:0:
243,64,49451,2,0,P|233:118|242:160,1,90,8|0,2:0|2:0,2:0:0:0:
295,302,49761,1,0,3:0:0:0:
324,188,49915,1,0,3:0:0:0:
135,239,50070,1,8,2:0:0:0:
342,100,50379,5,4,3:2:0:0:
342,100,50534,1,0,3:0:0:0:
406,220,50688,2,0,L|389:316,1,90,8|0,2:0|2:0,2:0:0:0:
452,145,50998,5,0,3:0:0:0:
452,145,51152,1,0,3:0:0:0:
275,205,51307,1,8,2:0:0:0:
328,77,51462,1,0,3:0:0:0:
463,328,51616,5,12,2:0:0:0:
217,272,51771,1,0,3:0:0:0:
408,71,51925,5,12,2:0:0:0:
316,316,52080,1,0,3:0:0:0:
133,91,52235,5,8,3:2:0:0:
406,252,52389,1,8,3:2:0:0:
0,384,52699,6,0,L|16:231,1,144,4|0,3:2|2:0,2:0:0:0:
100,160,53163,2,0,P|109:199|105:243,1,72,0|0,3:0|2:0,2:0:0:0:
197,349,53472,2,0,P|197:295|227:202,1,144,8|0,2:0|2:0,2:0:0:0:
314,314,53936,2,0,P|365:289|438:288,1,108,0|0,3:0|2:0,2:0:0:0:
458,292,54245,1,8,2:0:0:0:
347,179,54400,1,0,3:0:0:0:
69,330,54709,5,8,2:0:0:0:
78,24,55018,5,0,2:0:0:0:
153,79,55173,2,0,B|184:118|184:118|188:222|125:292,1,216,0|0,3:0|3:0,2:0:0:0:
374,355,55946,6,0,L|400:124,1,216,8|0,2:0|3:0,2:0:0:0:
310,232,56565,1,0,2:0:0:0:
259,23,56719,2,0,P|240:77|251:181,1,144,8|0,2:0|3:0,2:0:0:0:
349,330,57183,5,8,2:0:0:0:
432,208,57338,1,0,3:0:0:0:
173,288,57492,1,8,2:0:0:0:
323,102,57647,6,0,B|351:145|345:199|311:246,1,144,4|0,3:2|2:0,2:0:0:0:
261,365,58111,2,0,L|247:265,1,72,0|0,3:0|2:0,2:0:0:0:
81,192,58420,2,0,L|100:334,1,144,8|0,2:0|2:0,2:0:0:0:
184,200,58884,2,0,P|209:147|196:85,1,108,0|0,3:0|2:0,2:0:0:0:
186,62,59194,1,8,2:0:0:0:
30,97,59348,2,0,P|67:98|119:112,1,72,0|0,3:0|2:0,2:0:0:0:
282,194,59657,6,0,P|245:193|193:179,1,72,10|2,2:0|2:0,2:0:0:0:
370,143,59967,1,0,2:0:0:0:
367,366,60121,2,0,B|340:327|326:273|360:215,1,144,0|0,3:0|2:0,2:0:0:0:
442,284,60585,1,0,3:0:0:0:
142,384,60895,6,0,B|85:381|17:282|42:214,1,216,8|0,2:0|3:0,2:0:0:0:
87,74,61513,1,0,2:0:0:0:
140,279,61668,2,0,L|152:144,1,108,8|0,2:0|2:0,2:0:0:0:
156,124,61977,1,0,3:0:0:0:
156,124,62054,2,0,L|225:129,1,36,0|0,3:0|2:0,2:0:0:0:
302,137,62209,5,8,2:3:0:0:
343,157,62286,1,8,2:3:0:0:
360,200,62364,1,4,2:3:0:0:
351,245,62441,1,4,2:3:0:0:
187,352,62596,6,0,B|216:324|216:324|278:308|373:346,1,180,4|0,3:2|2:0,2:0:0:0:
512,255,63060,2,0,L|406:267,1,90,8|0,2:0|2:0,2:0:0:0:
235,285,63369,1,0,3:0:0:0:
424,371,63523,1,0,3:0:0:0:
351,227,63678,1,8,2:0:0:0:
288,373,63833,6,0,B|251:344|228:264|258:207,1,180,0|0,3:0|3:0,2:0:0:0:
340,41,64297,2,0,L|329:130,1,90,8|0,2:0|2:0,2:0:0:0:
304,300,64606,1,0,3:0:0:0:
425,191,64761,1,0,3:0:0:0:
247,125,64915,1,8,2:0:0:0:
367,384,65070,6,0,B|388:345|400:299|377:249,1,135,0|0,3:0|2:0,2:0:0:0:
344,188,65379,1,0,3:0:0:0:
131,314,65534,2,0,L|244:328,1,90,8|0,2:0|2:0,2:0:0:0:
428,341,65843,5,8,2:3:0:0:
249,248,65998,1,4,2:3:0:0:
426,173,66152,1,0,3:0:0:0:
312,0,66307,1,4,3:2:0:0:
323,11,67235,5,0,3:0:0:0:
323,11,67312,1,0,3:0:0:0:
323,11,67389,2,0,P|314:89|270:149,1,135,8|0,2:0|2:0,2:0:0:0:
226,197,67699,5,8,2:0:0:0:
183,230,67776,1,8,2:0:0:0:
129,241,67853,1,8,2:0:0:0:
75,228,67931,1,8,2:0:0:0:
31,196,68008,1,8,2:0:0:0:
15,143,68085,1,8,2:0:0:0:
38,93,68163,1,8,2:0:0:0:
82,62,68240,1,8,2:0:0:0:
135,56,68317,1,8,2:0:0:0:
188,66,68395,1,8,2:0:0:0:
231,98,68472,1,8,2:0:0:0:
262,142,68549,1,8,2:0:0:0:
270,195,68627,1,8,2:0:0:0:
252,246,68704,1,8,2:0:0:0:
252,300,68781,1,8,2:0:0:0:
285,342,68858,1,8,2:0:0:0:
332,369,68936,1,8,2:0:0:0:
385,363,69013,1,8,2:0:0:0:
426,327,69090,1,8,2:0:0:0:
447,276,69168,1,8,2:0:0:0:
446,221,69245,1,8,2:0:0:0:
419,173,69322,1,8,2:0:0:0:
375,139,69400,1,8,2:0:0:0:
321,128,69477,1,8,2:0:0:0:
269,143,69554,1,8,2:0:0:0:
228,179,69632,1,8,2:0:0:0:
206,228,69709,1,8,2:0:0:0:
168,267,69786,1,8,2:0:0:0:
117,291,69864,5,8,2:0:0:0:
60,287,69941,1,8,2:0:0:0:
22,245,70018,1,8,2:0:0:0:
4,192,70096,1,8,2:0:0:0:
13,135,70173,6,0,B|46:110|46:110|128:114|162:139,1,149.17281553398,4|0,3:2|2:0,2:0:0:0:
236,206,70483,2,0,L|256:99,1,99.4485436893202,8|0,2:0|2:0,2:0:0:0:
98,305,70794,5,0,3:0:0:0:
308,265,70949,1,0,3:0:0:0:
181,61,71105,2,0,L|162:158,1,99.4485436893202,8|0,2:0|3:0,2:0:0:0:
155,202,71338,1,0,3:0:0:0:
148,246,71415,6,0,P|198:288|251:285,1,108.489320388349,8|0,3:2|2:0,2:0:0:0:
435,230,71648,2,0,P|384:187|331:190,1,108.489320388349,8|0,3:2|2:0,2:0:0:0:
177,157,71881,2,0,L|254:150,1,54.2446601941747,8|0,3:2|2:0,2:0:0:0:
482,132,72037,1,4,3:2:0:0:
486,136,72658,6,0,L|366:123,1,108,4|0,3:2|2:0,2:0:0:0:
176,37,72967,2,0,B|135:75|123:143|174:201,1,162,8|0,2:0|2:0,2:0:0:0:
208,249,73276,1,0,3:0:0:0:
293,83,73431,1,0,3:0:0:0:
59,138,73585,1,8,2:0:0:0:
276,333,73740,6,0,B|306:299|306:299|318:256|272:185,1,162,0|0,3:0|2:0,2:0:0:0:
224,128,74049,1,0,3:0:0:0:
34,272,74204,1,8,2:0:0:0:
373,367,74359,1,0,2:0:0:0:
136,192,74513,1,0,3:0:0:0:
340,267,74668,1,0,3:0:0:0:
172,384,74822,2,0,P|162:328|165:273,1,108,8|0,2:0|2:0,2:0:0:0:
414,190,75132,6,0,P|423:242|421:296,1,108,0|0,3:0|2:0,2:0:0:0:
240,347,75441,2,0,B|209:302|205:232|205:232|236:187,1,162,8|0,2:0|2:0,2:0:0:0:
273,142,75750,1,0,3:0:0:0:
108,231,75905,1,0,3:0:0:0:
314,285,76060,1,8,2:0:0:0:
143,17,76214,6,0,P|169:92|148:190,1,162,0|0,3:0|2:0,2:0:0:0:
112,235,76523,1,0,3:0:0:0:
245,161,76678,1,8,2:0:0:0:
32,213,76833,1,0,2:0:0:0:
234,359,76987,1,0,3:0:0:0:
301,215,77142,1,0,3:0:0:0:
155,333,77297,2,0,P|111:350|37:359,1,108,12|0,2:0|2:0,2:0:0:0:
361,133,77606,6,0,B|333:183|336:240|367:286,1,162,4|0,3:2|2:0,2:0:0:0:
428,352,77915,2,0,P|443:307|441:232,1,108,8|0,2:0|2:0,2:0:0:0:
382,117,78225,1,0,3:0:0:0:
269,229,78379,1,0,3:0:0:0:
448,335,78534,1,8,2:0:0:0:
461,65,78688,6,0,P|371:72|291:110,1,162,2|0,3:2|2:0,2:0:0:0:
243,143,78998,1,0,3:0:0:0:
505,184,79152,2,0,P|457:159|403:152,1,108,8|0,2:0|2:0,2:0:0:0:
172,176,79462,5,0,3:0:0:0:
372,283,79616,1,0,3:0:0:0:
188,384,79771,2,0,P|198:331|192:278,1,108,8|0,2:0|2:0,2:0:0:0:
59,48,80080,6,0,B|20:83|20:83|6:149|48:215,1,183.194300518135,4|0,3:2|2:0,2:0:0:0:
81,270,80390,1,0,3:0:0:0:
363,167,80546,2,0,P|303:174|245:192,1,122.129533678756,12|0,2:0|3:0,2:0:0:0:
64,284,80857,5,0,2:0:0:0:
270,49,81012,1,12,2:0:0:0:
420,317,81168,1,0,2:0:0:0:
166,176,81323,5,0,3:0:0:0:
373,383,81478,1,12,2:0:0:0:
445,79,81634,2,0,B|486:128|493:195|463:256,1,183.194300518135,0|0,3:0|2:0,2:0:0:0:
424,312,81945,5,8,2:0:0:0:
265,127,82096,1,8,2:0:0:0:
212,98,82172,1,8,2:0:0:0:
151,89,82248,1,8,2:0:0:0:
95,111,82323,1,8,2:0:0:0:
55,158,82399,1,8,2:0:0:0:
47,218,82475,1,8,2:0:0:0:
63,276,82551,6,0,P|75:301|106:325,2,44.5408163265306,2|0|0,2:0|2:0|2:0,2:0:0:0:
303,381,82857,6,0,B|339:337|351:285|317:224,1,160.34693877551,12|0,2:0|2:0,2:0:0:0:
286,160,83163,1,0,3:0:0:0:
156,288,83316,1,0,3:0:0:0:
379,342,83469,1,8,2:0:0:0:
196,187,83622,6,0,P|292:193|396:267,1,215.999993408203,0|0,3:0|3:0,2:0:0:0:
485,30,84081,2,0,L|364:44,1,106.897959183674,8|0,2:0|2:0,2:0:0:0:
222,58,84387,1,0,3:0:0:0:
419,141,84540,1,0,3:0:0:0:
292,274,84693,2,0,P|277:224|292:154,1,106.897959183674,8|0,2:0|2:0,2:0:0:0:
478,365,84999,5,0,3:0:0:0:
358,189,85154,1,0,2:0:0:0:
282,384,85309,1,8,2:0:0:0:
438,242,85465,1,0,2:0:0:0:
213,312,85620,1,0,3:0:0:0:
388,370,85776,1,0,3:0:0:0:
265,204,85931,1,8,2:0:0:0:
90,376,86087,6,0,B|58:337|40:285|81:218,1,162.839378238342,2|0,3:2|2:0,2:0:0:0:
124,159,86397,1,2,2:0:0:0:
375,246,86553,1,10,2:0:0:0:
184,367,86708,1,2,2:0:0:0:
216,86,86864,2,0,L|230:207,1,108.559585492228,2|0,3:2|3:0,2:0:0:0:
228,193,87097,1,0,3:0:0:0:
228,193,87175,1,8,2:0:0:0:
345,114,87330,1,0,2:0:0:0:
142,294,87486,2,0,B|189:267|251:277|297:328,1,162.839378238342,4|0,3:2|2:0,2:0:0:0:
345,377,87796,5,8,2:0:0:0:
264,109,87952,1,0,3:0:0:0:
27,298,88107,5,8,2:0:0:0:
294,211,88263,1,0,3:0:0:0:
63,17,88418,5,8,2:0:0:0:
106,295,88574,1,0,3:0:0:0:
342,105,88729,5,8,2:0:0:0:
73,184,88885,1,0,3:0:0:0:
346,315,89040,5,8,2:0:0:0:
216,67,89195,1,0,3:0:0:0:
165,365,89351,5,8,2:0:0:0:
291,113,89506,1,0,3:0:0:0:
17,239,89662,6,0,L|201:217,1,162.839378238342,12|0,2:0|2:0,2:0:0:0:
194,59,89973,5,8,2:0:0:0:
165,113,90050,1,8,2:0:0:0:
167,172,90128,1,8,2:0:0:0:
208,219,90206,1,8,2:0:0:0:
265,236,90283,1,8,2:0:0:0:
319,209,90361,1,8,2:0:0:0:
356,161,90439,5,8,2:0:0:0:
302,188,90517,1,8,2:0:0:0:
272,239,90594,1,8,2:0:0:0:
280,301,90672,1,8,2:0:0:0:
311,351,90750,1,8,2:0:0:0:
363,378,90828,1,8,2:0:0:0:
422,379,90905,5,8,2:0:0:0:
435,320,90983,1,8,2:0:0:0:
445,259,91061,1,8,2:0:0:0:
457,199,91138,1,8,2:0:0:0:
470,141,91216,1,8,2:0:0:0:
474,145,92439,6,0,P|429:156|376:159,1,90,4|0,3:2|2:0,2:0:0:0:
239,172,92748,1,8,2:0:0:0:
311,41,92902,2,0,B|353:95|357:166|315:214,1,180,0|0,2:0|3:0,2:0:0:0:
163,289,93366,2,0,L|152:194,1,90,8|0,2:0|3:0,2:0:0:0:
228,355,93676,1,0,2:0:0:0:
78,265,93830,5,0,3:0:0:0:
226,134,93985,2,0,L|236:223,1,90,8|0,2:0|2:0,2:0:0:0:
139,363,94294,1,0,3:0:0:0:
267,288,94449,1,0,3:0:0:0:
133,188,94603,2,0,P|85:167|30:165,1,90,8|0,2:0|2:0,2:0:0:0:
152,21,94913,6,0,B|197:61|255:69|323:44,1,180,0|8,3:0|2:0,2:0:0:0:
500,0,95377,2,0,L|396:10,1,90,0|0,2:0|3:0,2:0:0:0:
247,24,95686,1,0,3:0:0:0:
419,112,95841,1,8,2:0:0:0:
282,229,95995,2,0,B|262:202|262:202|247:147|287:99,1,135,0|0,3:0|2:0,2:0:0:0:
325,48,96304,1,0,3:0:0:0:
409,212,96459,2,0,L|400:314,1,90,8|0,2:0|2:0,2:0:0:0:
213,187,96768,5,0,3:0:0:0:
417,135,96923,1,0,3:0:0:0:
318,320,97078,1,8,2:0:0:0:
293,133,97232,2,0,L|303:202,1,45,0|0,2:0|2:0,2:0:0:0:
318,320,97387,6,0,B|283:367|198:382|154:352,1,180,4|8,3:2|2:0,2:0:0:0:
27,259,97851,1,0,2:0:0:0:
195,188,98006,1,0,3:0:0:0:
79,355,98160,1,0,3:0:0:0:
97,191,98315,1,8,2:0:0:0:
218,272,98469,1,0,3:0:0:0:
291,62,98624,6,0,L|281:151,1,90,0|0,2:0|3:0,2:0:0:0:
158,321,98933,2,0,P|123:304|98:208,1,135,8|0,2:0|2:0,2:0:0:0:
116,146,99243,1,0,3:0:0:0:
289,233,99397,1,0,3:0:0:0:
110,384,99552,1,4,3:2:0:0:
464,179,99861,5,4,3:2:0:0:
385,342,100016,2,0,P|373:298|379:244,1,90,0|8,3:0|2:0,2:0:0:0:
207,113,100325,2,0,B|240:146|247:204|221:245,1,135,0|0,3:0|2:0,2:0:0:0:
176,303,100634,1,0,3:0:0:0:
56,120,100789,1,8,2:0:0:0:
289,186,100944,6,0,L|151:203,1,135,4|0,3:2|2:0,2:0:0:0:
83,210,101253,1,8,2:0:0:0:
394,174,101408,1,8,2:0:0:0:
398,177,102335,5,4,3:2:0:0:
261,370,111614,5,0,2:0:0:0:
253,372,111923,5,0,2:0:0:0:
246,374,112232,6,0,P|191:344|112:350,1,126,4|0,3:2|2:0,2:0:0:0:
285,287,112696,2,0,L|359:275,1,62.9999999999999,0|0,2:0|2:0,2:0:0:0:
489,141,113006,2,0,L|426:151,1,62.9999999999999,0|0,2:0|3:0,2:0:0:0:
418,357,113315,2,0,P|431:296|414:212,1,126,0|0,2:0|2:0,2:0:0:0:
422,233,113779,1,0,3:0:0:0:
317,201,113933,6,0,P|325:263|312:324,1,126,0|2,2:0|3:2,2:0:0:0:
236,368,114397,2,0,L|228:302,1,62.9999999999999,0|0,2:0|2:0,2:0:0:0:
181,131,114707,6,0,P|170:163|174:213,1,62.9999999999999,0|0,3:0|2:0,2:0:0:0:
331,253,115016,2,0,P|342:221|338:171,1,62.9999999999999,0|0,2:0|2:0,2:0:0:0:
221,101,115325,6,0,P|196:123|174:169,1,62.9999999999999,0|0,2:0|2:0,2:0:0:0:
290,282,115634,2,0,P|315:260|337:214,1,62.9999999999999,0|0,3:0|2:0,2:0:0:0:
176,237,115944,6,0,L|190:379,1,126,0|0,2:0|3:0,2:0:0:0:
256,192,116408,1,0,2:0:0:0:
163,223,116562,2,0,L|170:294,1,62.9999999999999,0|2,2:0|3:2,2:0:0:0:
255,318,116871,5,0,2:0:0:0:
92,261,117026,1,0,2:0:0:0:
252,231,117181,2,0,P|319:246|377:279,1,126,2|0,3:2|2:0,2:0:0:0:
369,273,117645,1,0,2:0:0:0:
401,117,117799,5,2,2:0:0:0:
454,283,117954,1,0,2:0:0:0:
478,160,118109,1,0,2:0:0:0:
337,193,118263,1,2,2:0:0:0:
337,193,118573,5,0,2:0:0:0:
295,52,118727,2,0,L|292:132,1,62.9999999999999,0|0,3:0|2:0,2:0:0:0:
373,87,119036,1,0,2:0:0:0:
230,179,119191,2,0,P|222:150|220:108,1,62.9999999999999,2|0,3:2|2:0,2:0:0:0:
304,212,119500,1,0,2:0:0:0:
300,225,119578,1,0,2:0:0:0:
298,238,119655,6,0,L|175:275,1,126,0|0,3:0|2:0,2:0:0:0:
8,95,120274,2,0,L|68:76,2,62.9999999999999,0|0|0,2:0|2:0|2:0,2:0:0:0:
151,120,120737,1,2,2:0:0:0:
82,223,120892,6,0,P|71:187|76:141,1,72,0|0,2:0|2:0,2:0:0:0:
273,18,121201,1,8,2:0:0:0:
233,175,121356,1,8,2:0:0:0:
226,216,121433,1,8,2:0:0:0:
219,257,121511,5,8,2:0:0:0:
372,124,121665,1,8,2:0:0:0:
138,276,121820,1,8,2:3:0:0:
334,368,121975,1,8,2:3:0:0:
330,192,122129,5,4,3:2:0:0:
451,255,122284,1,0,2:0:0:0:
290,306,122439,1,8,2:0:0:0:
259,179,122593,5,0,2:0:0:0:
380,242,122748,1,0,3:0:0:0:
219,293,122902,1,0,3:0:0:0:
315,123,123057,5,8,2:0:0:0:
167,225,123212,2,0,P|124:247|46:260,1,90,0|0,3:0|2:0,2:0:0:0:
232,84,123523,5,0,3:0:0:0:
397,174,123680,1,8,2:0:0:0:
229,287,123837,1,0,2:0:0:0:
310,118,123994,2,0,P|353:106|393:85,1,90,0|0,3:0|3:0,2:0:0:0:
150,18,124308,2,0,B|124:45|124:45|113:94|147:175,1,135,8|0,2:0|2:0,2:0:0:0:
194,200,124622,6,0,P|211:154|208:94,1,89.0816326530612,0|0,3:0|3:0,2:0:0:0:
45,0,124928,2,0,P|28:46|31:106,1,89.0816326530612,8|0,2:0|2:0,2:0:0:0:
105,246,125234,5,0,3:0:0:0:
121,71,125387,1,0,3:0:0:0:
0,196,125540,1,8,2:0:0:0:
0,196,125846,5,0,2:0:0:0:
177,276,126000,1,0,3:0:0:0:
206,75,126155,2,0,L|109:98,1,90,8|0,2:0|2:0,2:0:0:0:
362,116,126464,5,0,3:0:0:0:
167,187,126619,1,0,3:0:0:0:
291,365,126773,2,0,P|304:320|299:270,1,90,8|0,2:0|2:0,2:0:0:0:
246,14,127083,6,0,B|214:58|219:112|243:146,1,135,0|0,3:0|2:0,2:0:0:0:
295,190,127392,2,0,P|333:208|400:213,1,90,8|0,2:0|2:0,2:0:0:0:
212,273,127701,1,0,3:0:0:0:
360,135,127856,5,0,3:0:0:0:
184,200,128010,1,8,2:0:0:0:
298,305,128165,2,0,P|336:323|403:328,1,90,0|0,3:0|2:0,2:0:0:0:
458,205,128474,1,0,3:0:0:0:
263,208,128629,2,0,B|229:216|229:216|184:251|167:335,1,135,8|0,2:0|2:0,2:0:0:0:
154,370,128938,5,0,3:0:0:0:
113,211,129093,1,0,3:0:0:0:
314,280,129248,1,8,2:0:0:0:
314,280,129557,6,0,B|275:330|199:349|149:313,2,180,0|8|0,3:0|2:0|3:0,2:0:0:0:
185,239,130330,1,0,3:0:0:0:
372,348,130485,1,8,2:0:0:0:
285,208,130639,2,0,P|277:253|283:303,1,90,0|0,3:0|2:0,2:0:0:0:
429,173,130949,5,2,3:2:0:0:
224,138,131103,1,8,2:0:0:0:
385,255,131258,1,0,2:0:0:0:
335,110,131413,2,0,P|332:71|342:11,1,90,0|0,3:0|3:0,2:0:0:0:
128,105,131722,2,0,B|158:148|160:200|131:248,1,135,12|0,2:0|2:0,2:0:0:0:
68,292,132031,6,0,P|59:251|70:189,1,90,4|0,3:2|2:0,2:0:0:0:
175,47,132340,1,8,2:0:0:0:
313,185,132495,2,0,L|223:198,1,90,0|0,2:0|3:0,2:0:0:0:
395,66,132804,2,0,L|485:53,1,90,0|8,3:0|2:0,2:0:0:0:
387,260,133114,6,0,B|357:228|347:178|368:133,1,135,0|0,3:0|2:0,2:0:0:0:
395,66,133423,1,0,3:0:0:0:
497,192,133577,2,0,P|499:238|485:295,1,90,8|0,2:0|2:0,2:0:0:0:
347,383,133887,1,0,3:0:0:0:
289,238,134041,1,0,3:0:0:0:
129,359,134196,2,0,L|228:354,1,90,8|0,2:0|2:0,2:0:0:0:
413,343,134505,5,0,3:0:0:0:
176,50,134815,2,0,B|141:81|131:140|169:184,1,135,8|0,2:0|2:0,2:0:0:0:
204,233,135124,1,0,3:0:0:0:
272,102,135278,1,0,3:0:0:0:
76,182,135433,1,8,2:0:0:0:
270,199,135588,1,0,3:0:0:0:
117,365,135742,6,0,P|103:322|106:269,1,90,0|0,2:0|3:0,2:0:0:0:
293,179,136052,2,0,P|307:222|304:275,1,90,8|0,2:0|2:0,2:0:0:0:
191,381,136361,1,0,3:0:0:0:
374,298,136516,1,0,3:0:0:0:
181,161,136670,2,0,P|115:171|36:217,1,135,8|0,2:0|2:0,2:0:0:0:
7,260,136980,6,0,L|-1:362,1,90,4|0,3:2|2:0,2:0:0:0:
148,235,137289,2,0,P|161:191|156:144,1,90,8|0,2:0|2:0,2:0:0:0:
250,347,137598,1,0,3:0:0:0:
81,296,137753,1,0,3:0:0:0:
236,182,137907,2,0,B|288:171|324:182|369:231,1,135,8|0,2:0|2:0,2:0:0:0:
411,272,138217,6,0,L|425:165,1,90,4|0,3:2|2:0,2:0:0:0:
270,89,138526,2,0,B|224:112|204:144|201:197,1,135,8|0,2:0|2:0,2:0:0:0:
213,273,138835,1,0,3:0:0:0:
116,142,138990,1,0,3:0:0:0:
291,245,139144,2,0,L|279:334,1,90,12|0,2:0|2:0,2:0:0:0:
42,367,139454,2,0,L|24:233,1,135,4|0,3:2|2:0,2:0:0:0:
15,158,139763,5,8,2:0:0:0:
168,329,139918,1,0,3:0:0:0:
247,89,140072,5,8,2:0:0:0:
101,273,140227,1,0,3:0:0:0:
184,35,140382,5,8,2:0:0:0:
339,235,140536,1,0,3:0:0:0:
82,157,140691,5,12,2:0:0:0:
330,104,140846,1,0,3:0:0:0:
72,234,141000,5,12,2:0:0:0:
318,318,141155,1,0,3:0:0:0:
202,90,141309,5,8,3:2:0:0:
111,383,141464,1,10,3:2:0:0:
111,383,141773,6,0,B|148:355|165:299|144:227,1,144,4|0,3:2|2:0,2:0:0:0:
226,190,142237,2,0,L|235:276,1,72,0|0,3:0|2:0,2:0:0:0:
399,370,142547,2,0,L|251:357,1,144,8|0,2:0|2:0,2:0:0:0:
321,181,143010,2,0,P|342:234|329:322,1,144,0|2,3:0|2:3,2:0:0:0:
330,318,143397,1,2,2:3:0:0:
330,318,143474,5,0,3:0:0:0:
480,37,143784,2,0,L|473:123,1,72,8|0,2:0|2:0,2:0:0:0:
466,191,144093,1,0,3:0:0:0:
348,147,144248,2,0,B|432:158|484:226|479:297,1,216,0|0,3:0|3:0,2:0:0:0:
204,384,145021,6,0,B|119:372|68:305|72:233,1,216,8|0,2:0|3:0,2:0:0:0:
205,189,145639,1,0,2:0:0:0:
144,312,145794,2,0,L|-29:331,1,144,8|0,2:0|2:0,2:0:0:0:
233,267,146258,5,8,2:0:0:0:
33,173,146413,1,0,3:0:0:0:
265,61,146567,1,8,2:0:0:0:
109,0,146722,6,0,B|71:44|69:96|101:136,1,144,4|0,3:2|2:0,2:0:0:0:
237,141,147186,2,0,L|308:133,1,72,0|0,3:0|2:0,2:0:0:0:
301,301,147495,2,0,L|157:285,1,144,8|0,2:0|3:0,2:0:0:0:
27,271,147959,2,0,B|-3:244|-3:244|-19:198|20:139,1,144,0|2,3:0|2:3,2:0:0:0:
15,145,148346,1,2,2:3:0:0:
15,145,148423,1,0,3:0:0:0:
262,216,148732,6,0,L|386:229,1,108,8|0,2:0|2:0,2:0:0:0:
408,234,149041,1,0,2:0:0:0:
157,162,149196,2,0,B|182:194|192:228|174:267,1,108,0|0,3:0|2:0,2:0:0:0:
155,309,149505,1,8,2:0:0:0:
276,136,149660,1,0,3:0:0:0:
276,136,149969,6,0,P|205:175|120:175,1,144,8|0,2:0|3:0,2:0:0:0:
212,78,150433,1,0,3:0:0:0:
66,155,150588,1,0,2:0:0:0:
213,273,150742,2,0,L|220:177,1,72,8|0,2:0|2:0,2:0:0:0:
300,63,151052,5,4,2:3:0:0:
336,91,151129,1,4,2:3:0:0:
360,131,151206,1,4,2:3:0:0:
370,176,151284,1,4,2:3:0:0:
370,222,151361,1,4,2:3:0:0:
362,268,151438,1,4,2:3:0:0:
339,308,151516,1,4,2:3:0:0:
133,316,151670,6,0,P|207:318|268:344,1,135,4|0,3:2|2:0,2:0:0:0:
324,384,151980,1,0,3:0:0:0:
214,194,152134,2,0,L|209:286,1,90,8|0,2:0|2:0,2:0:0:0:
332,96,152443,5,0,3:0:0:0:
149,155,152598,1,0,3:0:0:0:
329,274,152753,1,8,2:0:0:0:
243,86,152907,6,0,B|200:42|129:32|53:74,1,180,0|0,3:0|3:0,2:0:0:0:
310,183,153371,2,0,P|354:201|414:200,1,90,8|0,2:0|2:0,2:0:0:0:
201,222,153681,1,0,3:0:0:0:
362,124,153835,1,0,3:0:0:0:
191,20,153990,1,8,2:0:0:0:
310,242,154144,6,0,B|340:217|340:217|362:152|303:62,1,180,0|0,3:0|3:0,2:0:0:0:
292,60,154531,1,0,3:0:0:0:
265,42,154608,2,0,L|164:58,1,90,8|0,2:0|2:0,2:0:0:0:
0,82,154918,5,0,3:0:0:0:
219,144,155072,1,0,3:0:0:0:
48,239,155227,1,8,2:0:0:0:
116,96,155382,2,0,P|109:140|118:184,1,90,0|0,3:0|2:0,2:0:0:0:
211,299,155691,5,0,3:0:0:0:
35,165,155846,1,10,2:0:0:0:
243,45,156000,1,0,3:0:0:0:
295,33,156077,1,0,3:0:0:0:
347,44,156155,1,8,2:3:0:0:
381,85,156232,1,8,2:3:0:0:
394,137,156309,1,4,2:3:0:0:
380,189,156387,1,4,2:3:0:0:
341,227,156464,2,0,L|237:219,1,90,12|0,2:0|2:0,2:0:0:0:
43,198,156773,5,8,2:0:0:0:
287,326,156928,1,0,3:0:0:0:
163,55,157083,5,8,2:0:0:0:
77,319,157237,1,0,3:0:0:0:
88,23,157392,5,8,2:0:0:0:
336,146,157547,1,0,3:0:0:0:
54,244,157701,5,8,2:0:0:0:
279,85,157856,1,0,3:0:0:0:
165,370,158010,5,8,2:0:0:0:
126,104,158165,1,0,3:0:0:0:
387,242,158320,5,8,2:0:0:0:
115,301,158474,1,0,3:0:0:0:
372,155,158629,5,12,2:0:0:0:
85,176,158784,1,0,3:0:0:0:
348,334,158938,5,8,2:0:0:0:
416,46,159093,2,0,P|389:37|353:35,1,50.2654639175257,0|0,3:0|3:0,2:0:0:0:
189,40,159248,5,8,2:3:0:0:
140,64,159326,1,8,2:3:0:0:
120,115,159404,1,4,2:3:0:0:
133,167,159482,1,4,2:3:0:0:
168,207,159560,1,4,2:3:0:0:
222,214,159638,1,4,2:3:0:0:
271,191,159716,5,8,2:3:0:0:
324,183,159794,1,8,2:3:0:0:
368,213,159873,1,4,2:3:0:0:
394,259,159951,1,4,2:3:0:0:
389,313,160029,1,4,2:3:0:0:
349,349,160107,1,4,2:3:0:0:
298,368,160185,5,8,2:3:0:0:
288,315,160263,1,8,2:3:0:0:
277,261,160341,1,4,2:3:0:0:
267,208,160419,1,4,2:3:0:0:
255,154,160498,6,0,P|241:103|208:49,1,107.451776649746,8|0,3:2|2:0,2:0:0:0:
34,91,160726,2,0,P|21:143|21:197,1,107.451776649746,8|0,3:2|2:0,2:0:0:0:
140,231,160954,2,0,L|148:151,1,53.7258883248731,8|0,3:2|2:0,2:0:0:0:
290,0,161107,5,8,2:0:0:0:
330,42,161183,1,8,2:0:0:0:
332,100,161259,1,8,2:0:0:0:
308,154,161335,1,8,2:0:0:0:
258,180,161411,1,8,2:0:0:0:
213,218,161487,1,8,2:0:0:0:
200,276,161563,1,8,2:0:0:0:
215,333,161640,1,8,2:0:0:0:
259,375,161716,6,0,B|315:391|370:385|410:335,1,161.169230769231,4|0,3:2|2:0,2:0:0:0:
446,274,162023,2,0,P|462:221|456:146,1,107.446153846154,8|0,2:0|2:0,2:0:0:0:
281,249,162331,1,0,3:0:0:0:
475,374,162485,1,0,3:0:0:0:
355,170,162639,1,8,2:0:0:0:
184,350,162792,6,0,P|142:368|55:373,1,107.446153846154,0|0,3:0|2:0,2:0:0:0:
328,308,163100,1,0,3:0:0:0:
38,176,163254,1,8,2:0:0:0:
265,110,163408,1,0,2:0:0:0:
68,263,163562,1,0,3:0:0:0:
185,58,163716,1,0,3:0:0:0:
307,234,163869,2,0,B|268:194|202:183|147:219,1,161.169230769231,8|0,2:0|2:0,2:0:0:0:
91,251,164177,6,0,P|70:310|73:389,1,109.125,0|0,3:0|2:0,2:0:0:0:
250,300,164489,2,0,B|283:270|283:270|293:193|240:152,1,161.999995056153,8|0,2:0|2:0,2:0:0:0:
189,115,164802,1,0,3:0:0:0:
350,208,164958,1,0,3:0:0:0:
154,321,165114,1,8,2:0:0:0:
321,122,165270,6,0,B|363:89|433:101|464:149,1,163.6875,0|0,3:0|2:0,2:0:0:0:
505,208,165583,1,0,3:0:0:0:
301,372,165739,2,0,L|291:250,1,108,8|0,2:0|2:0,2:0:0:0:
400,60,166052,1,0,3:0:0:0:
217,184,166208,1,0,3:0:0:0:
440,289,166364,2,0,P|494:316|543:324,1,108,12|0,2:0|2:0,2:0:0:0:
325,38,166677,6,0,B|357:67|357:67|368:136|318:205,1,162,4|0,3:2|2:0,2:0:0:0:
268,229,166986,2,0,L|246:117,1,108,8|0,2:0|2:0,2:0:0:0:
462,211,167295,1,0,3:0:0:0:
290,315,167450,1,0,3:0:0:0:
455,130,167604,1,8,2:0:0:0:
271,233,167759,6,0,B|230:277|165:287|108:254,1,162,2|0,3:2|2:0,2:0:0:0:
58,231,168068,1,0,3:0:0:0:
199,61,168223,2,0,P|248:60|313:79,1,108,8|0,2:0|2:0,2:0:0:0:
94,142,168532,1,0,3:0:0:0:
335,182,168687,1,0,3:0:0:0:
162,384,168841,2,0,B|130:347|115:277|153:222,1,162,8|0,2:0|2:0,2:0:0:0:
246,123,169151,6,0,L|268:326,1,182.25,4|0,3:2|2:0,2:0:0:0:
273,379,169460,1,0,3:0:0:0:
403,127,169615,2,0,P|421:187|399:251,1,121.5,12|0,2:0|3:0,2:0:0:0:
184,323,169924,5,0,2:0:0:0:
280,31,170079,1,12,2:0:0:0:
499,257,170233,1,0,2:0:0:0:
359,48,170388,5,0,3:0:0:0:
263,339,170542,2,0,B|203:302|188:232|229:182,1,182.25,8|0,0:0|0:0,0:0:0:0:
283,125,170852,5,0,2:0:0:0:
108,318,171006,1,8,2:0:0:0:
367,310,171157,5,8,2:0:0:0:
405,262,171233,1,8,2:0:0:0:
418,203,171309,1,8,2:0:0:0:
400,145,171384,1,8,2:0:0:0:
356,102,171460,1,8,2:0:0:0:
296,92,171536,1,8,2:0:0:0:
248,120,171612,6,0,P|230:139|221:168,2,45.0871530019366,2|0|0,2:0|2:0|2:0,2:0:0:0:
268,383,171921,6,0,B|233:333|179:320|122:347,1,162.313750806972,12|0,2:0|2:0,2:0:0:0:
55,372,172231,1,0,3:0:0:0:
196,260,172386,1,0,3:0:0:0:
26,146,172541,1,8,2:0:0:0:
195,0,172696,6,0,B|224:34|224:34|233:98|182:145,1,162.313750806972,0|0,3:0|2:0,2:0:0:0:
135,193,173006,1,0,3:0:0:0:
354,66,173161,2,0,P|404:49|476:50,1,108.209167204648,8|0,2:0|2:0,2:0:0:0:
204,133,173471,5,0,3:0:0:0:
322,321,173626,1,0,3:0:0:0:
472,129,173781,2,0,P|418:130|367:147,1,108.209167204648,8|0,2:0|2:0,2:0:0:0:
165,274,174091,5,0,3:0:0:0:
377,228,174245,1,0,2:0:0:0:
190,363,174400,1,8,2:0:0:0:
258,159,174554,5,0,2:0:0:0:
400,316,174709,1,0,3:0:0:0:
200,229,174864,1,0,3:0:0:0:
338,364,175018,1,8,2:0:0:0:
363,104,175173,6,0,B|350:44|298:3|240:16,1,162,2|0,3:2|2:0,2:0:0:0:
167,28,175482,1,2,3:2:0:0:
360,184,175637,1,10,2:0:0:0:
117,263,175792,1,2,2:0:0:0:
365,381,175946,5,2,3:2:0:0:
283,178,176101,1,0,3:0:0:0:
199,367,176255,2,0,B|159:326|147:258|182:210,1,162,12|0,2:0|2:0,2:0:0:0:
247,97,176565,2,0,B|279:123|279:123|290:174|231:278,1,162,4|0,3:2|2:0,2:0:0:0:
215,313,176874,5,8,2:0:0:0:
134,43,177029,1,0,3:0:0:0:
426,108,177183,5,8,2:0:0:0:
161,204,177338,1,0,3:0:0:0:
406,32,177493,5,8,2:0:0:0:
317,299,177647,1,0,3:0:0:0:
198,20,177802,5,8,2:0:0:0:
410,202,177956,1,0,3:0:0:0:
122,294,178111,5,8,2:0:0:0:
277,59,178266,1,0,3:0:0:0:
18,211,178420,5,8,2:0:0:0:
256,361,178575,1,0,3:0:0:0:
134,84,178730,5,8,2:0:0:0:
31,344,178884,1,0,3:0:0:0:
310,228,179039,5,12,2:0:0:0:
45,136,179194,1,0,3:0:0:0:
331,39,179348,5,8,2:0:0:0:
268,313,179503,1,0,3:0:0:0:
95,67,179658,5,8,2:0:0:0:
360,163,179812,1,0,3:0:0:0:
77,269,179967,5,8,2:0:0:0:
247,46,180121,1,0,3:0:0:0:
347,330,180276,5,12,2:0:0:0:
465,85,180431,1,0,3:0:0:0:
471,48,180508,1,0,3:0:0:0:
477,11,180585,5,12,2:0:0:0:
228,146,180740,1,0,3:0:0:0:
191,172,180817,1,0,3:0:0:0:
154,198,180895,5,0,3:0:0:0:
297,376,181049,2,0,B|346:329|359:229|298:163,1,225,4|0,3:2|2:0,2:0:0:0:
154,349,181513,5,8,3:2:0:0:
407,327,181668,1,8,3:2:0:0:
154,349,181822,1,8,3:2:0:0:
381,29,182132,5,0,3:0:0:0:
337,200,182286,2,0,P|316:153|321:105,1,99,12|0,2:0|2:0,2:0:0:0:
92,211,182596,2,0,B|163:202|229:228|261:314,1,198,12|0,2:0|3:0,2:0:0:0:
267,328,182982,1,0,3:0:0:0:
281,358,183060,2,0,P|338:353|386:322,1,99,8|8,2:0|2:0,2:0:0:0:
437,284,183292,1,8,2:0:0:0:
466,256,183369,5,8,2:0:0:0:
211,202,183523,1,8,2:0:0:0:
402,53,183678,1,8,2:3:0:0:
324,265,183833,1,4,2:3:0:0:
336,8,183987,5,8,3:2:0:0:
400,290,184142,1,8,3:2:0:0:
336,8,184297,1,8,3:2:0:0:
71,312,184606,5,0,3:0:0:0:
111,140,184761,2,0,P|126:183|119:248,1,99,12|0,2:0|2:0,2:0:0:0:
368,187,185070,2,0,B|280:175|233:223|216:318,1,198,12|0,2:0|3:0,2:0:0:0:
227,322,185456,1,0,3:0:0:0:
246,350,185534,2,0,P|298:356|361:319,1,99,8|0,2:0|3:0,2:0:0:0:
402,293,185766,1,0,3:0:0:0:
429,265,185843,5,8,2:0:0:0:
166,215,185998,1,8,2:0:0:0:
412,111,186152,1,8,2:0:0:0:
329,364,186307,1,8,2:0:0:0:
280,123,186462,1,4,3:2:0:0:
280,123,186771,6,0,P|294:161|294:226,1,90,0|0,2:0|3:0,2:0:0:0:
147,357,187080,2,0,B|103:320|82:246|111:192,1,180,8|0,2:0|3:0,2:0:0:0:
212,263,187544,1,0,3:0:0:0:
88,289,187699,6,0,L|0:309,1,90,0|8,2:0|2:0,2:0:0:0:
197,282,188008,1,0,3:0:0:0:
246,174,188163,2,0,B|290:211|311:285|282:339,1,180,0|0,2:0|2:0,2:0:0:0:
180,263,188627,2,0,P|157:220|159:170,1,90,0|0,2:0|2:0,2:0:0:0:
242,78,188936,6,0,B|287:60|287:60|385:75|477:175,1,270,4|0,3:2|3:0,2:0:0:0:
496,200,189477,1,0,3:0:0:0:
512,232,189554,1,8,2:0:0:0:
154,340,189864,2,0,L|253:324,1,90,8|0,2:0|3:0,2:0:0:0:
325,347,190173,6,0,B|369:300|378:232|341:179,1,180,0|0,2:0|3:0,2:0:0:0:
218,62,190637,1,8,2:0:0:0:
183,53,190714,1,8,2:0:0:0:
148,44,190792,5,8,2:0:0:0:
334,90,190946,1,8,2:3:0:0:
170,199,191101,1,8,2:3:0:0:
279,261,191255,1,4,2:3:0:0:
111,120,191410,5,8,3:2:0:0:
83,371,191565,1,8,3:2:0:0:
111,120,191719,1,8,3:2:0:0:
444,331,192029,5,0,3:0:0:0:
263,286,192183,2,0,L|379:269,1,99,12|0,2:0|2:0,2:0:0:0:
350,35,192493,2,0,B|280:59|253:146|287:197,1,198,12|0,2:0|3:0,2:0:0:0:
309,224,192879,1,0,3:0:0:0:
338,241,192956,2,0,P|387:217|406:163,1,99,8|8,2:0|2:0,2:0:0:0:
421,105,193188,1,8,2:0:0:0:
427,65,193266,5,8,2:0:0:0:
183,147,193420,1,8,2:3:0:0:
354,312,193575,1,4,2:3:0:0:
334,115,193730,1,4,2:3:0:0:
188,304,193884,5,8,3:2:0:0:
439,347,194039,1,8,3:2:0:0:
188,304,194194,1,8,3:2:0:0:
354,0,194503,5,0,3:0:0:0:
250,213,194658,2,0,L|259:114,1,99,12|0,2:0|2:0,2:0:0:0:
64,49,194967,2,0,B|12:98|26:192|90:225,1,198,12|0,2:0|3:0,2:0:0:0:
112,238,195353,1,0,3:0:0:0:
146,241,195431,2,0,P|154:292|117:346,1,99,8|0,2:0|3:0,2:0:0:0:
72,374,195663,1,0,3:0:0:0:
33,384,195740,5,8,2:0:0:0:
130,161,195895,1,8,2:0:0:0:
294,335,196049,1,8,2:0:0:0:
50,293,196204,1,8,2:0:0:0:
245,150,196359,6,0,L|237:257,1,94.5,4|0,3:2|2:0,2:0:0:0:
435,181,196668,2,0,B|467:155|467:155|472:105|426:49,1,141.75,8|0,2:0|2:0,2:0:0:0:
392,0,196977,1,0,3:0:0:0:
205,81,197132,1,0,3:0:0:0:
338,279,197286,2,0,L|344:184,1,94.5,8|0,2:0|3:0,2:0:0:0:
135,42,197596,6,0,B|79:69|62:165|120:210,1,189,0|8,2:0|2:0,2:0:0:0:
294,343,198060,1,0,2:0:0:0:
247,150,198214,1,0,3:0:0:0:
114,329,198369,1,0,3:0:0:0:
367,381,198523,1,8,2:0:0:0:
212,226,198678,1,0,3:0:0:0:
401,64,198833,2,0,B|436:84|436:84|449:143|418:196,1,148.5,12|0,2:0|2:0,2:0:0:0:
396,260,199142,5,8,2:0:0:0:
200,91,199297,1,0,3:0:0:0:
180,356,199451,5,8,2:0:0:0:
314,135,199606,1,0,3:0:0:0:
109,305,199761,5,8,2:0:0:0:
360,369,199915,2,0,P|367:303|277:202,1,198,4|8,3:2|2:0,2:0:0:0:
239,196,200302,1,8,2:0:0:0:
191,208,200379,5,8,2:0:0:0:
433,92,200534,1,8,2:0:0:0:
264,310,200688,5,8,2:0:0:0:
175,46,200843,1,8,2:0:0:0:
438,184,200998,1,8,2:0:0:0:
159,288,201152,1,8,2:0:0:0:
317,15,201307,6,0,B|362:49|371:130|330:176,1,155.25,4|0,3:2|2:0,2:0:0:0:
286,227,201616,2,0,P|263:172|262:125,1,103.5,8|0,2:0|2:0,2:0:0:0:
133,277,201926,5,0,3:0:0:0:
218,61,202080,1,2,3:2:0:0:
218,61,202158,1,0,2:0:0:0:
218,61,202235,1,8,2:0:0:0:
174,154,202389,6,0,P|113:112|28:136,1,155.25,0|0,3:0|2:0,2:0:0:0:
0,193,202699,1,0,3:0:0:0:
127,34,202853,2,0,L|137:88,1,51.75,8|0,2:0|2:0,2:0:0:0:
178,158,203008,2,0,P|190:223|126:317,1,155.25,0|0,2:0|2:0,2:0:0:0:
92,345,203317,1,0,3:0:0:0:
272,258,203472,1,8,2:0:0:0:
98,231,203627,1,0,2:0:0:0:
225,378,203781,5,0,3:0:0:0:
267,181,203936,1,0,2:0:0:0:
388,367,204091,5,8,2:0:0:0:
487,196,204245,1,0,2:0:0:0:
284,290,204400,5,0,3:0:0:0:
494,328,204554,1,0,3:0:0:0:
359,165,204709,1,8,2:0:0:0:
396,384,204864,6,0,B|426:337|436:284|407:227,1,155.25,0|0,3:0|2:0,2:0:0:0:
362,178,205173,2,0,L|286:195,1,51.75,2|0,3:2|2:0,2:0:0:0:
236,205,205328,1,8,2:0:0:0:
277,46,205482,2,0,L|378:68,1,103.5,0|0,2:0|3:0,2:0:0:0:
472,86,205792,1,0,3:0:0:0:
272,128,205946,2,0,B|247:153|247:153|249:211|298:292,1,155.25,8|0,2:0|2:0,2:0:0:0:
348,345,206255,5,4,3:2:0:0:
290,368,206359,2,0,P|255:365|209:338,1,69,2|0,0:0|0:0,0:0:0:0:
187,301,206565,5,8,2:0:0:0:
188,243,206668,2,0,P|197:212|229:184,1,69,2|0,0:0|0:0,0:0:0:0:
272,156,206874,5,0,3:0:0:0:
276,101,206977,2,0,P|265:69|232:41,1,69,2|0,0:0|0:0,0:0:0:0:
190,20,207183,5,8,2:0:0:0:
148,50,207286,2,0,P|133:82|138:124,1,69,2|0,0:0|0:0,0:0:0:0:
163,158,207493,5,0,2:0:0:0:
189,198,207596,2,0,P|190:233|168:282,1,69,2|0,0:0|0:0,0:0:0:0:
141,296,207802,5,8,2:0:0:0:
89,276,207905,1,2,2:0:0:0:
72,223,208008,1,2,2:0:0:0:
81,168,208111,5,0,3:0:0:0:
303,197,208266,1,2,2:3:0:0:
343,204,208343,1,2,2:3:0:0:
383,212,208420,5,8,2:3:0:0:
171,288,208575,1,8,2:3:0:0:
345,369,208730,1,4,2:3:0:0:
240,105,208884,6,0,B|270:151|273:213|245:266,1,162,12|0,2:0|2:0,2:0:0:0:
202,318,209194,1,0,3:0:0:0:
168,59,209348,6,0,B|220:41|280:55|324:95,1,162,12|0,2:0|2:0,2:0:0:0:
364,149,209658,1,0,3:0:0:0:
160,384,209812,6,0,B|118:354|83:251|149:174,1,215.3016,12|0,2:0|3:0,2:0:0:0:
192,125,210196,1,0,3:0:0:0:
232,98,210273,1,8,2:0:0:0:
14,286,210426,2,0,L|87:270,1,53.4489795918368,2|2,2:3|2:3,2:0:0:0:
188,244,210579,5,8,2:0:0:0:
250,232,210676,5,8,2:0:0:0:
304,250,210774,5,8,2:0:0:0:
325,295,210871,5,4,2:3:0:0:
325,338,210969,5,4,2:3:0:0:
306,369,211066,5,4,2:3:0:0:
299,384,211164,6,0,B|409:352|542:220|420:22,1,433,4|0,3:2|2:0,2:0:0:0:
56,98,212433,6,0,B|28:209|76:390|309:383,1,441,4|0,3:2|2:0,2:0:0:0:
456,286,213670,6,0,B|483:174|435:-6|202:0,1,441,4|0,3:2|2:0,2:0:0:0:
54,118,214907,5,8,2:0:0:0:
428,167,215375,5,8,2:3:0:0:
211,302,215688,5,4,2:3:0:0:
257,144,215844,1,4,2:3:0:0:
370,248,216000,1,4,2:3:0:0:
162,184,216157,6,0,L|58:200,1,80.5803108808291,4|0,3:2|2:0,2:0:0:0:
284,333,216467,2,0,L|364:320,1,80.5803108808291,0|0,3:0|2:0,2:0:0:0:
233,223,216778,1,0,3:0:0:0:
330,97,216934,2,0,P|340:137|331:187,1,80.5803108808291,0|0,2:0|3:0,2:0:0:0:
175,310,217245,6,0,B|134:270|122:214|145:158,1,161.160621761658,0|0,2:0|2:0,2:0:0:0:
256,0,217711,2,0,L|245:107,1,81.419689119171,0|0,3:0|2:0,2:0:0:0:
70,115,218022,2,0,L|78:34,1,81.419689119171,0|0,3:0|2:0,2:0:0:0:
265,167,218333,2,0,P|275:205|255:262,1,81.419689119171,2|0,3:2|2:0,2:0:0:0:
244,269,218566,1,0,2:0:0:0:
244,269,218644,6,0,P|306:272|392:308,1,135,12|0,2:0|2:0,2:0:0:0:
435,335,218953,1,0,3:0:0:0:
309,93,219107,2,0,P|336:128|350:171,1,90,12|0,2:0|3:0,2:0:0:0:
376,384,219417,5,0,2:0:0:0:
476,150,219571,1,12,2:0:0:0:
195,213,219726,1,0,2:0:0:0:
406,221,219881,5,0,3:0:0:0:
196,352,220035,2,1,B|178:317|179:295|179:295|123:279|100:224|124:171,1,216,10|0,2:0|2:0,2:0:0:0:
362,44,220499,5,8,2:0:0:0:
418,60,220574,1,8,2:0:0:0:
450,110,220649,1,8,2:0:0:0:
447,169,220724,1,8,2:0:0:0:
416,219,220799,1,8,2:0:0:0:
361,244,220874,1,8,2:0:0:0:
306,220,220949,1,8,2:0:0:0:
281,166,221024,1,8,2:0:0:0:
287,111,221099,6,0,L|294:42,2,45,2|0|0,2:0|2:0|2:0,2:0:0:0:
124,384,221405,6,0,B|80:345|71:283|95:228,1,160.34693877551,12|0,2:0|2:0,2:0:0:0:
121,163,221711,1,0,3:0:0:0:
277,277,221865,1,0,3:0:0:0:
48,332,222020,1,8,2:0:0:0:
189,88,222174,6,0,B|226:105|226:105|243:155|201:259,1,162.6984,0|0,3:0|2:0,2:0:0:0:
184,293,222483,1,0,3:0:0:0:
378,133,222638,2,0,L|266:145,1,108,8|0,2:0|2:0,2:0:0:0:
39,173,222947,5,0,3:0:0:0:
219,227,223102,1,0,3:0:0:0:
56,384,223256,2,0,P|46:331|59:275,1,108,8|0,2:0|2:0,2:0:0:0:
197,119,223566,5,4,3:2:0:0:
25,203,223720,1,0,2:0:0:0:
228,308,223875,1,8,2:0:0:0:
117,99,224030,5,0,2:0:0:0:
153,335,224184,1,0,3:0:0:0:
309,176,224339,1,0,3:0:0:0:
115,234,224493,1,8,2:0:0:0:
354,76,224648,6,0,B|399:110|415:173|371:237,1,162,2|0,3:2|2:0,2:0:0:0:
346,291,224957,1,2,3:2:0:0:
202,77,225112,1,10,2:0:0:0:
472,171,225267,1,2,2:0:0:0:
182,264,225421,1,2,3:2:0:0:
280,22,225576,1,0,3:0:0:0:
60,113,225731,5,12,2:0:0:0:
261,274,225890,1,0,3:0:0:0:
140,11,226050,2,0,B|101:51|101:51|97:117|134:166,1,175.5,4|0,3:2|2:0,2:0:0:0:
178,227,226359,5,8,2:0:0:0:
512,101,226513,1,2,3:2:0:0:
153,233,226668,5,8,2:0:0:0:
491,353,226823,1,0,3:0:0:0:
128,239,226977,5,10,2:0:0:0:
464,117,227132,1,0,3:0:0:0:
103,245,227287,5,8,2:0:0:0:
451,337,227441,1,2,3:2:0:0:
78,251,227596,5,8,2:0:0:0:
414,136,227751,1,0,3:0:0:0:
53,257,227905,5,10,2:0:0:0:
407,320,228064,1,0,3:0:0:0:
28,263,228224,5,8,2:0:0:0:
364,155,228383,1,2,3:2:0:0:
21,176,228543,5,8,2:0:0:0:
12,110,228620,1,8,2:0:0:0:
53,62,228697,1,8,2:0:0:0:
115,56,228774,1,8,2:0:0:0:
166,93,228851,1,8,2:0:0:0:
178,155,228929,1,8,2:0:0:0:
142,204,229006,5,10,2:0:0:0:
104,155,229083,1,8,2:0:0:0:
113,92,229160,1,8,2:0:0:0:
165,55,229237,1,8,2:0:0:0:
229,63,229315,1,8,2:0:0:0:
268,108,229392,1,8,2:0:0:0:
265,172,229469,5,8,2:0:0:0:
225,222,229546,1,8,2:0:0:0:
183,276,229624,1,8,2:0:0:0:
142,328,229701,1,8,2:0:0:0:
99,381,229778,1,10,2:0:0:0:
126,370,230987,6,0,P|148:321|129:231,1,135.348837209302,6|0,3:2|2:0,2:0:0:0:
98,177,231297,1,8,2:0:0:0:
261,247,231452,1,2,2:0:0:0:
71,314,231607,1,0,3:0:0:0:
192,181,231762,1,0,3:0:0:0:
18,122,231917,1,10,2:0:0:0:
192,181,232072,6,0,P|257:201|325:205,1,135.348837209302,0|0,3:0|2:0,2:0:0:0:
397,201,232382,1,0,3:0:0:0:
250,326,232537,1,8,2:0:0:0:
250,326,232847,6,0,L|347:340,1,90.2325581395348,2|0,3:2|3:0,2:0:0:0:
490,196,233157,2,0,L|400:183,1,90.2325581395348,10|0,2:0|2:0,2:0:0:0:
239,167,233467,6,0,P|211:240|227:338,1,180.46511627907,2|8,3:2|2:0,2:0:0:0:
425,354,233932,2,0,P|397:321|335:296,1,90.2325581395348,2|0,2:0|3:0,2:0:0:0:
173,266,234242,1,0,3:0:0:0:
347,384,234397,1,10,2:0:0:0:
255,272,234552,2,0,B|205:256|120:281|109:360,1,180.46511627907,0|0,3:0|3:0,2:0:0:0:
234,127,235018,1,8,2:0:0:0:
234,127,235328,6,0,L|348:140,1,90.2325581395348,2|0,3:2|3:0,2:0:0:0:
70,60,235638,2,0,B|96:81|96:81|107:123|70:198,1,135.348837209302,14|0,2:0|2:0,2:0:0:0:
15,237,235948,6,0,L|-1:148,1,90.2325581395348,6|0,3:2|2:0,2:0:0:0:
235,185,236258,1,8,2:0:0:0:
174,38,236413,2,0,B|122:83|117:157|165:209,1,180.46511627907,2|0,2:0|3:0,2:0:0:0:
352,77,236878,2,0,P|309:81|253:104,1,90.2325581395348,10|0,2:0|3:0,2:0:0:0:
377,338,237188,6,0,L|391:227,1,90.2325581395348,2|0,2:0|3:0,2:0:0:0:
388,248,237421,1,0,3:0:0:0:
388,248,237498,2,0,B|361:287|311:302|242:284,1,135.348837209302,10|0,2:0|2:0,2:0:0:0:
195,279,237808,1,2,3:2:0:0:
366,363,237963,1,0,3:0:0:0:
291,170,238118,2,0,L|158:194,1,135.348837209302,10|0,2:0|2:0,2:0:0:0:
87,207,238428,5,6,3:2:0:0:
247,97,238579,1,0,3:0:0:0:
188,301,238731,1,8,2:0:0:0:
343,101,238882,6,0,P|362:198|347:242,1,135,2|0,3:2|2:0,2:0:0:0:
311,292,239185,1,0,3:0:0:0:
170,160,239337,1,8,2:0:0:0:
262,374,239488,6,0,P|272:307|251:244,1,136,6|0,3:2|2:0,2:0:0:0:
199,190,239796,1,0,3:0:0:0:
41,325,239952,1,10,2:0:0:0:
98,136,240108,5,8,2:0:0:0:
129,97,240186,1,8,2:0:0:0:
177,86,240265,1,8,2:0:0:0:
225,95,240343,1,8,2:0:0:0:
267,121,240421,1,8,2:0:0:0:
298,158,240499,1,8,2:0:0:0:
341,181,240577,1,8,2:0:0:0:
390,180,240655,1,8,2:0:0:0:
435,161,240733,1,8,2:0:0:0:
461,119,240811,1,8,2:0:0:0:
451,75,240890,6,0,L|345:85,1,81.1045161290324,0|0,3:0|2:0,2:0:0:0:
254,95,241199,1,0,2:0:0:0:
326,227,241354,6,0,L|316:121,1,81.1045161290324,0|8,3:0|2:0,2:0:0:0:
306,30,241664,1,0,2:0:0:0:
443,71,241819,6,0,L|337:81,1,81.1045161290324,0|0,3:0|3:0,2:0:0:0:
246,91,242128,1,0,2:0:0:0:
318,223,242283,6,0,L|308:117,1,81.1045161290324,8|0,2:0|3:0,2:0:0:0:
298,26,242593,1,0,2:0:0:0:
147,113,242748,5,10,2:0:0:0:
244,212,242902,1,0,2:0:0:0:
224,79,243057,1,6,3:2:0:0:
140,199,243212,1,0,2:0:0:0:
89,21,243367,6,0,P|78:57|77:117,1,81.1045161290324,4|0,3:2|2:0,2:0:0:0:
104,213,243677,1,0,2:0:0:0:
7,134,243831,1,0,3:0:0:0:
213,175,243986,5,8,2:0:0:0:
40,312,244141,2,0,L|30:218,1,81.5238000000001,8|0,2:0|3:0,2:0:0:0:
157,298,244447,6,0,P|214:328|290:327,1,121.499996292114,0|0,3:0|2:0,2:0:0:0:
314,325,244750,1,8,2:0:0:0:
449,211,244902,1,0,3:0:0:0:
416,366,245053,1,0,3:0:0:0:
323,195,245205,5,10,2:0:0:0:
480,287,245356,1,2,2:0:0:0:
295,350,245508,2,0,P|258:364|188:367,1,80.9999975280763,6|0,3:2|2:0,2:0:0:0:
383,239,245830,6,0,B|356:207|356:207|339:141|386:82,1,161.999995056153,4|0,3:1|2:0,2:0:0:0:
280,262,246298,1,0,3:0:0:0:
438,177,246455,1,8,2:0:0:0:
135,281,246767,2,0,P|177:283|236:320,1,81.8437500000001,0|0,3:0|3:0,2:0:0:0:
293,358,247080,5,2,2:0:0:0:
258,234,247236,1,8,2:0:0:0:
249,203,247314,1,8,2:0:0:0:
240,172,247392,1,2,3:2:0:0:
352,248,247548,1,0,3:0:0:0:
147,187,247705,5,14,2:0:0:0:
324,85,247861,1,0,3:0:0:0:
66,185,248017,1,14,2:0:0:0:
66,185,248330,5,0,3:0:0:0:
187,11,248482,2,0,P|199:46|200:109,1,90,0|8,3:0|2:0,2:0:0:0:
141,320,248786,2,0,B|109:285|107:242|142:196,1,135,2|0,3:2|2:0,2:0:0:0:
176,167,249091,1,0,3:0:0:0:
45,268,249243,1,8,2:0:0:0:
286,321,249395,5,6,3:2:0:0:
236,104,249548,1,2,2:0:0:0:
361,262,249703,1,2,3:2:0:0:
385,293,249781,1,0,3:0:0:0:
409,324,249858,1,10,2:0:0:0:
481,159,250014,2,0,L|414:169,1,45.2331606217617,2|2,2:3|2:3,2:0:0:0:
310,185,250169,5,8,2:0:0:0:
258,200,250275,5,8,2:0:0:0:
219,237,250382,5,8,2:0:0:0:
211,266,250489,5,4,2:3:0:0:
182,276,250595,5,4,2:3:0:0:
153,286,250702,5,4,2:3:0:0:
124,296,250809,6,0,B|210:258|311:294|369:389,1,270,4|0,3:2|2:0,2:0:0:0:
359,374,251885,1,0,2:0:0:0:
181,193,252502,6,0,P|170:145|180:101,1,90,0|0,2:0|2:0,2:0:0:0:
174,0,253121,2,0,L|233:0,1,45,0|2,2:0|2:0,2:0:0:0:
238,0,253353,1,0,0:0:0:0:
257,0,253430,6,1,B|157:-2|63:85|64:192|64:192|66:254|95:296|95:296|62:388|62:388|151:353|151:353|199:383|256:384|256:384|331:383|409:344|448:262|448:192|448:192|256:192|256:192|256:72|256:72|328:65|331:-8|331:-8|435:28|447:118|447:118|347:118,1,1719.9,0|0,2:0|2:0,2:0:0:0:
