osu file format v14

[General]
AudioFilename: audio.mp3
AudioLeadIn: 0
PreviewTime: 60784
Countdown: 0
SampleSet: Soft
StackLeniency: 0.4
Mode: 0
LetterboxInBreaks: 0
WidescreenStoryboard: 0

[Editor]
DistanceSpacing: 1.4
BeatDivisor: 4
GridSize: 8
TimelineZoom: 1.7

[Metadata]
Title:Butterfly Core (TV Size)
TitleUnicode:Butterfly Core (TV Size)
Artist:VALSHE
ArtistUnicode:VALSHE
Creator:Smoke
Version:Truth
Source:名探偵コナン
Tags:op opening 37 japanese anime case closed rock jrock j-rock detective mystery Shinichi Kudo 工藤新一 Conan Edogawa 江戸川 コナン Kogoro Mouri 毛利 小五郎 Yusaku Kudo 工藤 優作 Yukiko Kudo 工藤 有希子 Eri Kisaki 妃 英理 Heiji Hattori 服部 平次 Kaitou Kid 怪盗キッド Shuichi Akai 赤井 秀一 Sharon Vineyard シャロン・ヴィンヤード Vermouth ベルモット Ai Haibara 灰原 哀 Shiho Miyano 宮野 志保
BeatmapID:2252199
BeatmapSetID:1076376

[Difficulty]
HPDrainRate:6.2
CircleSize:4.3
OverallDifficulty:8.5
ApproachRate:9
SliderMultiplier:1.8
SliderTickRate:1

[Events]
//Background and Video events
0,0,"detective conan wallpaper blacksuits.jpg",0,0
Video,-600,"vid.mp4"
//Break Periods
//Storyboard Layer 0 (Background)
//Storyboard Layer 1 (Fail)
//Storyboard Layer 2 (Pass)
//Storyboard Layer 3 (Foreground)
//Storyboard Layer 4 (Overlay)
//Storyboard Sound Samples

[TimingPoints]
521,350.877192982456,4,2,1,50,1,0
521,-125,4,2,1,50,0,0
12450,-111.111111111111,4,2,1,65,0,0
13152,-166.666666666667,4,2,1,70,0,0
13503,-71.4285714285714,4,2,1,70,0,0
13854,-100,4,2,1,70,0,0
15082,-125,4,2,1,70,0,0
15433,-83.3333333333333,4,2,1,70,0,0
15959,-166.666666666667,4,2,1,70,0,0
16310,-71.4285714285714,4,2,1,70,0,0
16661,-100,4,2,1,70,0,0
18415,-83.3333333333333,4,2,1,70,0,0
18766,-166.666666666667,4,2,1,70,0,0
19117,-71.4285714285714,4,2,1,70,0,0
19468,-100,4,2,1,70,0,0
20696,-125,4,2,1,70,0,0
21047,-83.3333333333333,4,2,1,70,0,0
21573,-166.666666666667,4,2,1,70,0,0
21924,-71.4285714285714,4,2,1,70,0,0
22275,-100,4,2,1,70,0,0
24029,-83.3333333333333,4,2,1,70,0,0
24292,-83.3333333333333,4,2,1,5,0,0
24380,-111.111111111111,4,2,1,60,0,0
25608,-99.9999999999999,4,2,1,65,0,0
26661,-83.3333333333333,4,2,1,65,0,0
27187,-125,4,2,1,55,0,0
36836,-111.111111111111,4,2,1,60,0,0
38240,-99.9999999999999,4,2,1,65,0,0
49643,-125,4,2,1,65,0,0
58064,-90.9090909090909,4,2,1,65,0,0
59292,-86.9565217391304,4,2,1,65,0,0
60784,-86.9565217391304,4,2,1,5,0,0
60871,-80,4,2,1,80,0,1
84731,-86.9565217391304,4,2,1,65,0,0
86135,-166.666666666667,4,2,1,70,0,0
86485,-71.4285714285714,4,2,1,70,0,0
86836,-100,4,2,1,70,0,0
88064,-125,4,2,1,70,0,0
88416,-83.3333333333333,4,2,1,70,0,0
88942,-166.666666666667,4,2,1,70,0,0
89292,-71.4285714285714,4,2,1,70,0,0
89643,-100,4,2,1,70,0,0
91398,-83.3333333333333,4,2,1,70,0,0
91749,-166.666666666667,4,2,1,70,0,0
92099,-71.4285714285714,4,2,1,70,0,0
92451,-100,4,2,1,70,0,0
93678,-125,4,2,1,70,0,0
94030,-83.3333333333333,4,2,1,70,0,0
94556,-166.666666666667,4,2,1,70,0,0
94906,-71.4285714285714,4,2,1,70,0,0
95258,-100,4,2,1,70,0,0
96119,350.877192982456,4,2,1,50,1,0
96119,-100,4,2,1,70,0,0
96996,-83.3333333333333,4,2,1,70,0,0
97349,350.877192982456,4,2,1,50,1,0
97349,-166.666666666667,4,2,1,70,0,0
97699,-71.4285714285714,4,2,1,70,0,0
98050,-100,4,2,1,70,0,0
99278,-125,4,2,1,70,0,0
99629,-100,4,2,1,70,0,0
100156,-166.666666666667,4,2,1,70,0,0
100506,-71.4285714285714,4,2,1,70,0,0
100857,-100,4,2,1,70,0,0
102085,-83.3333333333333,4,2,1,70,0,0
102436,-100,4,2,1,70,0,0
102963,-166.666666666667,4,2,1,70,0,0
103313,-71.4285714285714,4,2,1,70,0,0
103664,-100,4,2,1,70,0,0
104892,-125,4,2,1,70,0,0
105243,-100,4,2,1,70,0,0
105770,-166.666666666667,4,2,1,70,0,0
106120,-71.4285714285714,4,2,1,70,0,0
106471,-100,4,2,1,70,0,0
107699,-83.3333333333333,4,2,1,70,0,0
108050,-100,4,2,1,70,0,0

[Colours]
Combo1 : 202,162,100
Combo2 : 162,162,162
Combo3 : 115,115,115
Combo4 : 225,201,104

[HitObjects]
127,363,521,6,0,L|206:351,1,72,2|2,0:0|0:0,0:0:0:0:
87,220,871,2,0,L|57:294,1,72,2|2,0:0|0:0,0:0:0:0:
231,257,1222,2,0,L|181:194,1,72,2|0,0:0|0:0,0:0:0:0:
127,363,1573,2,0,L|206:351,1,72,2|0,0:0|0:0,0:0:0:0:
298,338,1924,1,2,0:0:0:0:
398,324,2099,1,2,0:0:0:0:
298,338,2275,2,0,P|307:300|314:251,1,72,2|0,0:0|0:0,0:0:0:0:
368,183,2626,2,0,P|359:145|346:36,1,144,2|0,0:0|0:0,0:0:0:0:
191,127,3152,1,2,0:0:0:0:
140,58,3328,6,0,P|194:42|265:88,1,144,2|2,0:0|0:0,0:0:0:0:
249,186,3854,1,2,0:0:0:0:
178,258,4029,2,0,P|193:304|201:335,1,72,2|2,0:0|0:0,0:0:0:0:
289,371,4380,1,2,0:0:0:0:
289,371,4556,2,0,P|298:336|310:302,1,72,2|0,0:0|0:0,0:0:0:0:
391,243,4906,1,2,0:0:0:0:
391,243,5082,1,2,0:0:0:0:
493,371,5257,2,0,P|483:336|471:302,1,72,2|0,0:0|0:0,0:0:0:0:
391,243,5608,1,2,0:0:0:0:
391,243,5784,1,2,0:0:0:0:
442,156,5959,1,2,0:0:0:0:
377,78,6135,38,0,P|343:87|303:93,1,72,0|2,0:0|0:0,0:0:0:0:
226,153,6485,1,2,0:0:0:0:
226,153,6661,2,0,P|192:144|152:138,1,72,2|0,0:0|0:0,0:0:0:0:
19,119,7012,1,2,0:0:0:0:
19,119,7187,1,2,0:0:0:0:
108,1,7363,2,0,L|95:82,1,72,2|0,0:0|0:0,0:0:0:0:
77,195,7713,2,0,L|90:276,1,72,2|0,0:0|0:0,0:0:0:0:
236,245,8064,2,0,P|203:225|151:228,1,72,2|0,0:0|0:0,0:0:0:0:
266,344,8415,1,2,0:0:0:0:
337,272,8591,1,2,0:0:0:0:
310,176,8766,1,2,0:0:0:0:
375,98,8942,6,0,P|451:103|334:269,1,432,2|0,0:0|0:0,0:0:0:0:
415,203,10170,1,0,3:2:0:0:
415,203,10257,1,0,3:2:0:0:
415,203,10345,1,8,3:2:0:0:
58,164,12450,37,0,3:2:0:0:
226,184,12626,1,8,3:2:0:0:
147,103,12801,1,8,3:2:0:0:
143,138,12888,1,8,3:2:0:0:
140,174,12976,1,8,3:2:0:0:
137,210,13064,1,8,3:2:0:0:
133,246,13152,38,0,L|127:302,1,53.9999983520508,12|0,3:2|0:0,0:0:0:0:
444,175,13503,38,0,L|429:300,1,125.999996154785,10|0,3:2|0:0,0:0:0:0:
220,289,13854,1,2,3:2:0:0:
303,102,14029,2,0,P|348:94|392:117,1,90,2|8,3:2|3:2,0:0:0:0:
494,6,14380,2,0,P|477:49|466:93,1,90,2|0,3:2|0:0,0:0:0:0:
192,15,14731,2,0,P|208:56|219:100,1,90,2|8,3:2|3:2,0:0:0:0:
60,249,15082,2,0,P|114:228|186:286,1,144,2|0,3:2|3:2,0:0:0:0:
21,347,15608,1,10,3:2:0:0:
60,113,15784,1,8,3:2:0:0:
57,129,15871,1,8,3:2:0:0:
52,146,15959,6,0,L|43:88,1,53.9999983520508,0|0,3:2|0:0,0:0:0:0:
361,200,16310,38,0,L|343:63,1,125.999996154785,10|0,3:2|0:0,0:0:0:0:
271,349,16661,1,2,3:2:0:0:
512,295,16836,2,0,P|478:267|431:262,1,90,2|8,3:2|3:2,0:0:0:0:
158,367,17187,2,0,P|149:328|130:271,1,90,2|0,3:2|0:0,0:0:0:0:
361,200,17538,2,0,P|346:242|336:286,1,90,2|8,3:2|3:2,0:0:0:0:
446,376,17889,1,2,3:2:0:0:
447,362,17977,1,0,3:2:0:0:
449,348,18065,1,8,3:2:0:0:
361,200,18240,1,0,3:2:0:0:
476,0,18415,2,0,B|481:37|481:37|504:57|504:57|509:96,1,107.999996704102,10|0,3:2|3:2,0:0:0:0:
256,175,18766,6,0,L|263:110,1,53.9999983520508,0|0,3:2|0:0,0:0:0:0:
0,231,19117,38,0,L|15:89,1,125.999996154785,10|0,3:2|0:0,0:0:0:0:
203,244,19468,1,2,3:2:0:0:
335,152,19643,2,0,P|296:148|249:185,1,90,2|8,3:2|3:2,0:0:0:0:
97,16,19994,2,0,P|119:56|132:106,1,90,2|0,3:2|0:0,0:0:0:0:
419,2,20345,2,0,P|397:42|384:92,1,90,2|8,3:2|3:2,0:0:0:0:
506,249,20696,2,0,P|450:213|365:237,1,144,2|0,3:2|3:2,0:0:0:0:
503,134,21222,1,10,3:2:0:0:
428,340,21398,1,8,3:2:0:0:
430,323,21486,1,8,3:2:0:0:
432,307,21573,6,0,L|443:364,1,53.9999983520508,0|0,3:2|0:0,0:0:0:0:
111,230,21924,38,0,L|134:367,1,125.999996154785,10|0,3:2|0:0,0:0:0:0:
348,301,22275,1,2,3:2:0:0:
134,147,22450,2,0,P|89:144|50:168,1,90,2|8,3:2|3:2,0:0:0:0:
230,16,22801,2,0,P|215:66|208:114,1,90,2|0,3:2|0:0,0:0:0:0:
4,44,23152,1,2,3:2:0:0:
197,211,23328,1,8,3:2:0:0:
323,147,23503,1,2,3:2:0:0:
310,144,23591,1,0,3:2:0:0:
297,141,23678,1,8,3:2:0:0:
479,185,23854,1,8,3:2:0:0:
492,188,23942,1,8,3:2:0:0:
504,191,24029,2,0,L|342:222,1,161.999995056153,10|0,3:2|0:0,0:0:0:0:
344,221,24380,21,0,3:2:0:0:
368,124,24556,1,0,0:0:0:0:
392,27,24731,2,0,L|498:7,1,80.9999975280763,0|0,3:2|0:0,0:0:0:0:
344,221,25082,1,0,3:2:0:0:
247,197,25258,1,0,3:2:0:0:
368,124,25433,1,0,3:2:0:0:
320,318,25608,6,0,B|212:290|212:290|176:305|176:305|129:293,1,180,4|0,3:2|3:2,0:0:0:0:
108,284,26047,1,0,3:2:0:0:
95,279,26135,1,8,3:2:0:0:
189,135,26310,2,0,P|164:178|170:227,1,90,2|0,3:2|0:0,0:0:0:0:
0,87,26661,6,0,B|47:78|47:78|59:83|59:83|103:62|103:62|154:68|154:68|164:60|164:60|218:52,1,215.999993408203,2|0,3:2|0:0,0:0:0:0:
316,17,27187,22,0,L|306:97,1,72,0|0,3:2|0:0,0:0:0:0:
353,178,27538,1,2,3:2:0:0:
353,178,27713,1,2,0:0:0:0:
283,251,27889,2,0,L|274:322,1,72,2|2,3:2|0:0,0:0:0:0:
426,328,28240,2,0,P|394:309|347:314,1,72,2|0,3:2|0:0,0:0:0:0:
217,384,28591,1,2,3:2:0:0:
217,384,28766,1,2,0:0:0:0:
154,304,28942,1,2,3:2:0:0:
181,207,29117,2,0,L|172:135,1,72,2|0,0:0|3:2,0:0:0:0:
19,233,29468,2,0,P|55:242|91:231,1,72,2|0,0:0|3:2,0:0:0:0:
73,94,29819,1,0,3:2:0:0:
59,92,29906,1,0,3:2:0:0:
45,90,29994,6,0,L|55:190,1,72,0|0,3:2|0:0,0:0:0:0:
149,57,30345,1,2,3:2:0:0:
149,57,30520,1,2,0:0:0:0:
237,105,30696,1,2,3:2:0:0:
237,105,30871,1,2,0:0:0:0:
331,69,31047,1,2,3:2:0:0:
420,114,31222,2,0,P|455:103|497:94,1,72,2|0,0:0|3:2,0:0:0:0:
410,14,31573,1,2,0:0:0:0:
331,69,31749,1,2,3:2:0:0:
346,168,31924,2,0,L|360:252,1,72,2|0,0:0|3:2,0:0:0:0:
376,346,32275,1,2,0:0:0:0:
379,361,32362,1,0,3:2:0:0:
382,375,32450,1,0,3:2:0:0:
445,281,32626,1,0,3:2:0:0:
287,307,32801,38,0,L|205:293,1,72,0|0,3:2|0:0,0:0:0:0:
137,217,33152,1,2,3:2:0:0:
137,217,33328,1,2,0:0:0:0:
33,248,33503,1,2,3:2:0:0:
33,248,33678,1,2,0:0:0:0:
110,323,33854,1,2,3:2:0:0:
137,217,34029,1,2,0:0:0:0:
59,143,34205,1,2,3:2:0:0:
59,143,34380,2,0,L|43:60,1,72,2|2,0:0|3:2,0:0:0:0:
199,74,34731,2,0,B|164:69|164:69|128:92,1,72,2|0,0:0|3:2,0:0:0:0:
254,177,35082,2,0,P|292:167|352:158,1,72,2|0,0:0|3:2,0:0:0:0:
432,166,35433,1,0,3:2:0:0:
445,169,35520,1,0,3:2:0:0:
458,172,35608,6,0,L|444:86,1,72,0|0,3:2|0:0,0:0:0:0:
315,261,35959,1,2,3:2:0:0:
315,261,36135,1,2,0:0:0:0:
459,369,36310,1,2,3:2:0:0:
439,252,36486,1,2,0:0:0:0:
430,263,36573,1,0,3:2:0:0:
420,274,36661,1,10,3:2:0:0:
245,337,36836,6,0,P|201:328|137:321,1,80.9999975280763,2|0,3:2|0:0,0:0:0:0:
303,180,37187,2,0,P|311:225|315:267,1,80.9999975280763,2|0,3:2|0:0,0:0:0:0:
86,344,37538,2,0,P|92:282|204:247,1,161.999995056153,2|2,3:2|3:2,0:0:0:0:
190,241,37977,1,0,3:2:0:0:
204,248,38064,1,0,3:2:0:0:
32,120,38240,6,0,B|27:230|27:230|8:253|8:253|5:303,1,180,6|0,3:2|3:2,0:0:0:0:
126,155,38766,1,10,3:2:0:0:
126,155,38942,1,2,0:0:0:0:
245,216,39117,1,2,3:2:0:0:
355,139,39292,1,2,3:2:0:0:
236,29,39468,1,10,3:2:0:0:
343,127,39643,1,2,0:0:0:0:
471,69,39819,38,0,P|451:117|437:161,1,90,2|2,3:2|3:2,0:0:0:0:
364,316,40170,1,10,3:2:0:0:
303,244,40345,2,0,P|341:223|410:232,1,90,2|0,3:2|0:0,0:0:0:0:
270,337,40696,1,2,3:2:0:0:
146,270,40871,1,8,3:2:0:0:
62,304,41047,1,2,0:0:0:0:
48,301,41135,1,2,0:0:0:0:
34,298,41222,6,0,L|49:179,1,90,0|0,3:2|0:0,0:0:0:0:
178,111,41573,1,10,3:2:0:0:
178,111,41749,1,2,0:0:0:0:
59,43,41924,1,2,3:2:0:0:
176,126,42099,1,2,3:2:0:0:
329,19,42275,1,10,3:2:0:0:
329,19,42450,1,2,0:0:0:0:
446,102,42626,38,0,P|428:143|417:195,1,90,2|2,3:2|3:2,0:0:0:0:
252,71,42977,1,10,3:2:0:0:
296,152,43152,2,0,P|314:193|324:236,1,90,2|0,3:2|0:0,0:0:0:0:
126,296,43503,1,2,3:2:0:0:
201,149,43678,1,8,3:2:0:0:
133,73,43854,1,2,0:0:0:0:
119,76,43942,1,2,0:0:0:0:
106,80,44030,6,0,P|58:71|8:64,1,90,4|0,3:2|0:0,0:0:0:0:
178,232,44380,1,10,3:2:0:0:
290,138,44556,1,2,0:0:0:0:
433,232,44731,1,2,3:2:0:0:
512,148,44906,1,2,3:2:0:0:
423,242,45082,2,0,P|445:294|457:337,1,90,10|0,3:2|0:0,0:0:0:0:
248,202,45433,37,2,3:2:0:0:
320,290,45608,1,2,3:2:0:0:
145,250,45784,1,10,3:2:0:0:
268,114,45959,2,0,L|247:203,1,90,2|0,3:2|0:0,0:0:0:0:
328,303,46310,1,2,3:2:0:0:
132,256,46485,1,8,3:2:0:0:
274,88,46661,1,2,0:0:0:0:
271,101,46749,1,2,0:0:0:0:
268,114,46836,5,4,3:2:0:0:
85,37,47012,1,0,3:2:0:0:
229,280,47187,37,10,3:2:0:0:
392,207,47363,1,2,3:2:0:0:
215,289,47538,5,10,3:2:0:0:
436,359,47713,1,2,3:2:0:0:
433,345,47801,1,0,3:2:0:0:
430,331,47889,1,10,3:2:0:0:
512,111,48064,38,0,P|468:123|424:131,1,90,6|0,3:2|0:0,0:0:0:0:
262,8,48415,1,10,3:2:0:0:
278,11,48503,1,8,3:2:0:0:
294,15,48591,1,8,3:2:0:0:
336,119,48766,1,10,3:2:0:0:
274,229,48942,1,8,3:2:0:0:
116,235,49117,5,10,3:0:0:0:
120,261,49292,1,10,3:0:0:0:
124,287,49468,1,10,3:0:0:0:
15,276,49643,6,0,L|26:185,1,72,4|0,3:2|3:2,0:0:0:0:
177,170,49994,2,0,P|148:189|102:187,1,72,2|0,0:0|3:2,0:0:0:0:
236,45,50345,2,0,P|249:118|272:205,1,144,10|2,3:2|3:2,0:0:0:0:
396,83,50871,2,0,B|361:67|361:67|328:73,1,72,2|0,3:2|0:0,0:0:0:0:
431,225,51222,1,10,3:2:0:0:
431,225,51398,2,0,L|444:154,1,72,2|2,3:2|3:2,0:0:0:0:
472,38,51749,1,8,3:2:0:0:
472,38,51924,1,0,3:2:0:0:
328,73,52099,2,0,L|339:150,1,72,2|8,0:0|3:2,0:0:0:0:
350,158,52363,1,8,3:2:0:0:
360,172,52450,6,0,L|346:269,1,72,4|0,3:2|3:2,0:0:0:0:
469,328,52801,1,2,0:0:0:0:
469,328,52977,2,0,B|437:309|437:309|399:313,1,72,0|8,3:2|3:2,0:0:0:0:
271,370,53328,2,0,L|282:294,1,72,2|0,0:0|3:2,0:0:0:0:
149,227,53678,2,0,P|185:245|231:241,1,72,2|0,3:2|0:0,0:0:0:0:
103,358,54029,1,10,3:2:0:0:
103,358,54205,2,0,P|95:318|78:261,1,72,2|0,3:2|3:2,0:0:0:0:
165,156,54556,2,0,P|155:190|148:226,1,72,8|0,3:2|3:2,0:0:0:0:
6,104,54906,1,10,3:2:0:0:
28,76,54994,1,8,3:2:0:0:
60,61,55082,1,8,3:2:0:0:
96,62,55170,1,8,3:2:0:0:
127,79,55257,6,0,B|184:68|184:68|215:87|215:87|268:78,1,144,6|10,3:2|3:2,0:0:0:0:
396,58,55784,1,2,0:0:0:0:
413,55,55871,1,0,3:2:0:0:
431,52,55959,1,2,3:2:0:0:
321,0,56135,1,0,3:2:0:0:
344,146,56310,2,0,L|357:228,1,72,8|2,3:2|0:0,0:0:0:0:
501,196,56661,2,0,P|469:177|415:179,1,72,2|0,3:2|3:2,0:0:0:0:
251,288,57012,1,10,3:2:0:0:
251,288,57187,1,2,0:0:0:0:
446,261,57363,1,0,3:2:0:0:
443,278,57450,1,0,3:0:0:0:
440,295,57538,1,0,3:2:0:0:
190,226,57713,2,0,P|220:207|256:203,1,72,14|0,3:2|3:2,0:0:0:0:
303,210,57977,5,0,3:2:0:0:
303,210,58064,2,0,P|295:162|278:110,1,99.0000030212403,14|0,3:2|3:2,0:0:0:0:
125,63,58415,1,2,3:2:0:0:
397,0,58591,38,0,P|381:47|373:95,1,99.0000030212403,10|0,3:2|3:2,0:0:0:0:
512,208,58942,2,0,P|474:180|408:190,1,99.0000030212403,2|8,3:2|3:2,0:0:0:0:
203,260,59292,6,0,P|135:244|-3:226,1,207.000003948212,6|2,3:2|3:2,0:0:0:0:
283,144,59819,1,2,3:2:0:0:
123,343,59994,1,2,3:2:0:0:
3,37,60345,5,0,3:2:0:0:
3,37,60433,1,0,3:2:0:0:
3,37,60520,2,0,P|73:71|149:42,1,155.250002961159,12|0,3:2|0:0,0:0:0:0:
212,2,60871,21,2,3:2:0:0:
132,150,61047,1,2,0:0:0:0:
387,195,61222,1,10,3:2:0:0:
301,29,61398,1,2,0:0:0:0:
396,212,61573,2,0,P|371:278|360:323,1,112.5,2|0,3:2|3:2,0:0:0:0:
183,122,61924,1,10,3:2:0:0:
257,272,62099,1,2,0:0:0:0:
70,360,62275,1,2,3:2:0:0:
138,209,62450,1,2,3:2:0:0:
27,54,62626,2,0,P|50:120|63:178,1,112.5,10|0,3:2|0:0,0:0:0:0:
1,313,62977,2,0,P|45:279|111:290,1,112.5,2|0,3:2|3:2,0:0:0:0:
268,363,63328,1,10,3:2:0:0:
138,209,63503,1,2,0:0:0:0:
335,49,63678,6,8,P|317:105|308:158,1,112.5,4|0,3:2|0:0,0:0:0:0:
512,314,64029,1,10,0:0:0:0:
512,314,64205,1,2,0:0:0:0:
359,237,64380,1,2,3:2:0:0:
245,280,64556,1,2,3:2:0:0:
162,227,64731,1,10,3:2:0:0:
8,307,64906,38,0,P|25:253|31:187,1,112.5,6|0,3:2|0:0,0:0:0:0:
6,51,65257,1,2,3:2:0:0:
146,151,65433,1,10,3:2:0:0:
320,80,65608,2,0,B|374:56|374:56|429:81,1,112.5,2|8,3:2|3:0,0:0:0:0:
511,253,65959,2,0,P|480:247|435:226,1,56.25,10|8,3:2|3:2,0:0:0:0:
295,321,66135,2,0,P|284:291|280:241,1,56.25,10|8,3:2|3:2,0:0:0:0:
382,154,66310,1,10,3:2:0:0:
382,154,66398,1,8,3:2:0:0:
382,154,66485,6,0,P|376:216|367:278,1,112.5,0|2,3:2|0:0,0:0:0:0:
113,375,66836,1,10,3:2:0:0:
45,302,67012,2,0,B|93:271|93:271|157:283,1,112.5,2|0,0:0|3:2,0:0:0:0:
313,311,67363,1,2,3:2:0:0:
113,375,67538,1,10,3:2:0:0:
13,162,67713,2,0,L|139:186,1,112.5,2|0,0:0|3:2,0:0:0:0:
220,21,68064,2,0,P|154:15|103:69,1,112.5,2|8,3:2|3:2,0:0:0:0:
266,112,68415,2,0,P|327:91|380:85,1,112.5,2|0,0:0|3:2,0:0:0:0:
512,138,68766,1,2,3:2:0:0:
366,195,68942,1,10,3:2:0:0:
265,130,69117,1,2,0:0:0:0:
64,231,69292,38,0,P|92:299|109:354,1,112.5,6|0,3:2|0:0,0:0:0:0:
307,376,69643,1,10,3:2:0:0:
265,130,69819,2,0,P|237:198|220:253,1,112.5,2|0,0:0|3:2,0:0:0:0:
453,132,70170,2,0,P|409:101|333:108,1,112.5,2|8,3:2|3:2,0:0:0:0:
142,7,70520,6,0,P|170:75|187:130,1,112.5,6|0,3:2|0:0,0:0:0:0:
141,326,70871,1,2,3:2:0:0:
382,190,71047,2,0,P|354:258|337:313,1,112.5,10|8,3:2|3:2,0:0:0:0:
356,384,71310,1,8,3:2:0:0:
356,384,71398,1,0,3:2:0:0:
312,375,71485,1,0,3:0:0:0:
276,347,71573,2,0,P|260:321|255:290,1,56.25,10|8,3:2|3:2,0:0:0:0:
186,208,71749,2,0,P|200:183|206:156,1,56.25,10|8,3:2|3:2,0:0:0:0:
297,51,71924,2,0,P|282:26|276:0,1,56.25,10|8,3:2|3:2,0:0:0:0:
131,71,72099,37,2,3:2:0:0:
282,209,72275,1,2,0:0:0:0:
42,308,72450,1,10,3:2:0:0:
51,104,72626,1,2,0:0:0:0:
294,216,72801,2,0,P|270:274|257:326,1,112.5,2|0,3:2|3:2,0:0:0:0:
130,173,73152,1,10,3:2:0:0:
237,106,73328,1,2,0:0:0:0:
415,204,73503,1,2,3:2:0:0:
510,150,73678,1,2,3:2:0:0:
313,27,73854,2,0,P|333:91|342:144,1,112.5,10|0,3:2|0:0,0:0:0:0:
135,130,74205,2,0,P|179:101|240:107,1,112.5,2|0,3:2|3:2,0:0:0:0:
493,232,74556,2,0,P|478:260|454:280,1,56.25,10|0,3:2|0:0,0:0:0:0:
317,351,74731,1,2,0:0:0:0:
110,275,74906,6,0,P|62:262|-9:256,1,112.5,4|2,3:2|0:0,0:0:0:0:
246,210,75257,1,10,0:0:0:0:
246,210,75433,1,2,0:0:0:0:
76,384,75608,1,2,3:2:0:0:
32,292,75784,1,2,3:2:0:0:
100,181,75959,1,10,3:2:0:0:
11,0,76135,38,0,L|151:24,1,112.5,6|0,3:2|0:0,0:0:0:0:
333,125,76485,1,2,3:2:0:0:
483,26,76661,1,10,3:2:0:0:
321,135,76836,2,0,P|341:198|351:245,1,112.5,2|8,3:2|3:0,0:0:0:0:
479,334,77187,2,0,P|446:318|405:307,1,56.25,10|8,3:2|3:2,0:0:0:0:
263,274,77363,1,10,3:2:0:0:
187,280,77450,1,8,3:2:0:0:
145,309,77538,1,10,3:2:0:0:
130,340,77626,1,8,3:2:0:0:
131,362,77713,6,0,P|190:386|247:366,1,112.5,0|2,3:2|0:0,0:0:0:0:
348,252,78064,1,10,3:2:0:0:
87,122,78240,2,0,P|106:190|120:247,1,112.5,2|0,0:0|3:2,0:0:0:0:
270,295,78591,1,2,3:2:0:0:
423,212,78766,1,10,3:2:0:0:
509,250,78942,2,0,P|483:307|469:365,1,112.5,2|0,0:0|3:2,0:0:0:0:
353,152,79292,2,0,P|401:120|463:128,1,112.5,2|8,3:2|3:2,0:0:0:0:
281,1,79643,2,0,B|294:59|294:59|270:121,1,112.5,2|0,0:0|3:2,0:0:0:0:
185,199,79994,1,2,3:2:0:0:
61,182,80170,1,10,3:2:0:0:
9,69,80345,1,2,0:0:0:0:
198,207,80520,37,2,3:2:0:0:
123,338,80696,1,0,3:2:0:0:
391,383,80871,5,10,3:2:0:0:
274,138,81047,1,0,3:2:0:0:
438,296,81222,37,0,3:2:0:0:
363,165,81398,1,0,3:2:0:0:
476,12,81573,5,10,3:2:0:0:
359,257,81749,1,0,3:2:0:0:
192,85,81924,37,2,3:2:0:0:
153,65,82011,1,0,3:2:0:0:
111,60,82099,1,0,3:2:0:0:
71,73,82187,1,0,3:2:0:0:
37,98,82275,2,0,P|51:126|61:161,1,56.25,10|0,3:2|0:0,0:0:0:0:
200,211,82450,1,2,3:2:0:0:
240,199,82537,1,0,3:2:0:0:
281,189,82625,1,0,3:2:0:0:
322,181,82713,1,0,3:2:0:0:
364,174,82801,2,0,P|354:206|347:243,1,56.25,10|0,3:2|0:0,0:0:0:0:
189,332,82977,1,0,3:2:0:0:
191,315,83064,1,0,3:2:0:0:
193,298,83152,1,10,3:2:0:0:
483,350,83328,6,0,P|442:319|371:321,1,112.5,4|2,3:2|0:0,0:0:0:0:
122,384,83678,1,10,3:2:0:0:
77,290,83854,1,8,3:2:0:0:
152,174,84029,1,8,3:2:0:0:
64,10,84205,1,8,3:2:0:0:
159,187,84380,1,8,3:2:0:0:
397,94,84556,1,8,3:2:0:0:
397,94,84643,1,8,3:2:0:0:
397,94,84731,37,12,3:2:0:0:
463,143,85784,21,10,3:2:0:0:
457,217,85871,1,8,3:2:0:0:
453,262,85959,1,10,3:2:0:0:
452,285,86047,1,8,3:2:0:0:
451,301,86135,38,0,L|446:363,1,53.9999983520508,12|0,3:2|0:0,0:0:0:0:
172,156,86485,38,0,L|159:289,1,125.999996154785,10|0,3:2|0:0,0:0:0:0:
408,169,86836,1,2,3:2:0:0:
212,82,87012,2,0,P|161:71|120:90,1,90,2|8,3:2|3:2,0:0:0:0:
353,31,87363,2,0,P|333:77|323:125,1,90,2|0,3:2|0:0,0:0:0:0:
19,7,87713,2,0,P|39:53|49:101,1,90,2|8,3:2|3:2,0:0:0:0:
12,274,88064,2,0,P|44:239|134:245,1,144,2|0,3:2|3:2,0:0:0:0:
92,366,88591,1,10,3:2:0:0:
258,230,88766,1,8,3:2:0:0:
255,246,88853,1,8,3:2:0:0:
250,263,88942,6,0,L|241:205,1,53.9999983520508,0|0,3:2|0:0,0:0:0:0:
512,306,89292,38,0,L|493:172,1,125.999996154785,10|0,3:2|0:0,0:0:0:0:
204,336,89643,1,2,3:2:0:0:
322,172,89819,2,0,P|378:151|411:163,1,90,2|8,3:2|3:2,0:0:0:0:
156,32,90170,2,0,P|170:74|182:122,1,90,2|0,3:2|0:0,0:0:0:0:
0,259,90520,2,0,P|11:215|25:172,1,90,2|8,3:2|3:2,0:0:0:0:
219,201,90871,1,2,3:2:0:0:
214,213,90959,1,0,3:2:0:0:
209,225,91047,1,8,3:2:0:0:
339,337,91222,1,0,3:2:0:0:
512,205,91398,2,0,B|500:168|500:168|508:134|508:134|496:87,1,107.999996704102,10|0,3:2|3:2,0:0:0:0:
278,50,91749,6,0,L|287:108,1,53.9999983520508,0|0,3:2|0:0,0:0:0:0:
16,7,92099,38,0,L|35:141,1,125.999996154785,10|0,3:2|0:0,0:0:0:0:
144,274,92450,1,2,3:2:0:0:
326,174,92626,2,0,P|289:185|232:162,1,90,2|8,3:2|3:2,0:0:0:0:
71,336,92977,2,0,P|63:296|45:229,1,90,2|0,3:2|0:0,0:0:0:0:
327,370,93328,2,0,P|335:330|353:263,1,90,2|8,3:2|3:2,0:0:0:0:
512,155,93678,2,0,P|445:164|388:114,1,144,2|0,3:2|3:2,0:0:0:0:
292,190,94205,1,10,3:2:0:0:
477,50,94380,1,8,3:2:0:0:
474,66,94467,1,8,3:2:0:0:
469,83,94556,6,0,L|460:25,1,53.9999983520508,0|0,3:2|0:0,0:0:0:0:
178,181,94906,38,0,L|159:51,1,125.999996154785,10|0,3:2|0:0,0:0:0:0:
389,117,95257,1,2,3:2:0:0:
203,257,95433,2,0,P|149:256|115:228,1,90,2|8,3:2|3:2,0:0:0:0:
331,44,95784,2,0,P|311:92|300:149,1,90,2|0,3:2|0:0,0:0:0:0:
477,311,96120,5,2,3:2:0:0:
269,203,96295,1,8,3:2:0:0:
126,273,96470,1,2,3:2:0:0:
109,269,96558,1,0,3:2:0:0:
92,265,96646,1,8,3:2:0:0:
321,364,96821,37,10,3:2:0:0:
330,333,96909,1,8,3:2:0:0:
337,300,96997,2,0,L|357:221,1,53.9999983520508,10|0,3:2|0:0,0:0:0:0:
382,128,97172,1,10,3:2:0:0:
385,112,97259,1,8,3:2:0:0:
390,95,97349,6,0,L|399:153,1,53.9999983520508,4|0,3:2|3:2,0:0:0:0:
104,40,97699,38,0,L|120:185,1,125.999996154785,10|0,3:2|0:0,0:0:0:0:
139,356,98050,1,2,3:2:0:0:
297,248,98226,2,0,P|252:241|207:260,1,90,2|8,3:2|3:2,0:0:0:0:
424,361,98577,2,0,P|436:307|458:251,1,90,2|0,3:2|3:2,0:0:0:0:
268,75,98927,2,0,P|282:117|291:161,1,90,2|8,3:2|3:2,0:0:0:0:
512,118,99278,2,0,P|465:78|385:98,1,144,2|0,3:2|3:2,0:0:0:0:
211,182,99805,1,10,3:2:0:0:
193,179,99892,1,8,3:2:0:0:
175,176,99980,1,8,3:2:0:0:
157,173,100068,1,8,3:2:0:0:
141,171,100156,6,0,L|151:237,1,53.9999983520508,0|0,3:2|0:0,0:0:0:0:
389,93,100506,38,0,L|410:230,1,125.999996154785,10|0,3:2|0:0,0:0:0:0:
251,361,100857,1,2,3:2:0:0:
80,261,101033,2,0,P|124:253|171:279,1,90,2|8,3:2|3:2,0:0:0:0:
295,122,101384,2,0,P|276:172|265:214,1,90,2|0,3:2|3:2,0:0:0:0:
1,74,101734,2,0,P|17:115|29:159,1,90,2|8,3:2|3:2,0:0:0:0:
386,110,102085,2,0,P|350:49|216:69,1,215.999993408203,2|0,3:2|0:0,0:0:0:0:
190,226,102612,1,10,3:2:0:0:
193,244,102699,1,8,3:2:0:0:
196,262,102787,1,8,3:2:0:0:
199,280,102875,1,8,3:2:0:0:
200,296,102963,6,0,L|207:229,1,53.9999983520508,0|0,3:2|0:0,0:0:0:0:
444,346,103313,38,0,L|462:192,1,125.999996154785,10|0,3:2|0:0,0:0:0:0:
268,185,103664,1,2,3:2:0:0:
511,156,103840,2,0,P|468:137|419:145,1,90,2|8,3:2|3:2,0:0:0:0:
231,21,104191,2,0,P|260:70|272:104,1,90,2|0,3:2|3:2,0:0:0:0:
64,219,104541,2,0,P|80:177|104:139,1,90,2|8,3:2|3:2,0:0:0:0:
299,260,104892,2,0,P|249:221|168:246,1,144,2|8,3:2|3:0,0:0:0:0:
278,384,105419,1,10,3:2:0:0:
296,381,105506,1,8,3:2:0:0:
314,378,105594,1,8,3:2:0:0:
332,375,105682,1,8,3:2:0:0:
348,374,105770,6,0,L|355:318,1,53.9999983520508,0|0,3:2|0:0,0:0:0:0:
12,362,106120,38,0,L|26:233,1,125.999996154785,10|0,3:2|0:0,0:0:0:0:
232,177,106471,1,2,3:2:0:0:
91,355,106647,2,0,L|102:246,1,90,2|8,3:2|3:2,0:0:0:0:
116,87,106998,1,2,3:2:0:0:
336,255,107173,1,8,3:2:0:0:
489,174,107349,1,2,3:2:0:0:
335,271,107524,1,8,3:0:0:0:
428,370,107699,5,10,3:2:0:0:
423,324,107786,1,8,3:2:0:0:
417,273,107874,1,8,3:2:0:0:
410,208,107962,1,8,3:2:0:0:
399,132,108050,1,8,3:0:0:0:
512,21,108226,37,10,3:2:0:0:
66,98,108401,1,10,3:2:0:0:
