osu file format v14

[General]
AudioFilename: audio.mp3
AudioLeadIn: 0
PreviewTime: 60784
Countdown: 0
SampleSet: Soft
StackLeniency: 0.7
Mode: 0
LetterboxInBreaks: 0
WidescreenStoryboard: 1

[Editor]
DistanceSpacing: 1.3
BeatDivisor: 4
GridSize: 8
TimelineZoom: 1.7

[Metadata]
Title:Butterfly Core (TV Size)
TitleUnicode:Butterfly Core (TV Size)
Artist:VALSHE
ArtistUnicode:VALSHE
Creator:Smoke
Version:Normal
Source:名探偵コナン
Tags:op opening 37 japanese anime case closed rock jrock j-rock detective mystery Shinichi Kudo 工藤新一 Conan Edogawa 江戸川 コナン Kogoro Mouri 毛利 小五郎 Yusaku Kudo 工藤 優作 Yukiko Kudo 工藤 有希子 Eri Kisaki 妃 英理 Heiji Hattori 服部 平次 Kaitou Kid 怪盗キッド Shuichi Akai 赤井 秀一 Sharon Vineyard シャロン・ヴィンヤード Vermouth ベルモット Ai Haibara 灰原 哀 Shiho Miyano 宮野 志保
BeatmapID:2252198
BeatmapSetID:1076376

[Difficulty]
HPDrainRate:4.5
CircleSize:3.2
OverallDifficulty:4.5
ApproachRate:5.2
SliderMultiplier:1
SliderTickRate:1

[Events]
//Background and Video events
0,0,"detective conan wallpaper blacksuits.jpg",0,0
Video,-600,"vid.mp4"
//Break Periods
//Storyboard Layer 0 (Background)
//Storyboard Layer 1 (Fail)
//Storyboard Layer 2 (Pass)
//Storyboard Layer 3 (Foreground)
//Storyboard Layer 4 (Overlay)
//Storyboard Sound Samples

[TimingPoints]
521,350.877192982456,4,2,1,50,1,0
521,-100,4,2,1,50,0,0
12450,-100,4,2,1,65,0,0
13152,-100,4,2,1,70,0,0
13503,-100,4,2,1,70,0,0
13854,-100,4,2,1,70,0,0
15082,-100,4,2,1,70,0,0
15433,-100,4,2,1,70,0,0
15959,-100,4,2,1,70,0,0
16310,-100,4,2,1,70,0,0
16661,-100,4,2,1,70,0,0
18415,-100,4,2,1,70,0,0
18766,-100,4,2,1,70,0,0
19117,-100,4,2,1,70,0,0
19468,-100,4,2,1,70,0,0
20696,-100,4,2,1,70,0,0
21047,-100,4,2,1,70,0,0
21573,-100,4,2,1,70,0,0
21924,-100,4,2,1,70,0,0
22275,-100,4,2,1,70,0,0
24029,-100,4,2,1,70,0,0
24380,-100,4,2,1,60,0,0
25608,-100,4,2,1,65,0,0
26661,-100,4,2,1,65,0,0
27187,-100,4,2,1,55,0,0
36836,-100,4,2,1,60,0,0
38240,-100,4,2,1,65,0,0
49643,-100,4,2,1,65,0,0
58064,-100,4,2,1,65,0,0
59292,-100,4,2,1,65,0,0
60784,-100,4,2,1,5,0,0
60871,-100,4,2,1,80,0,1
84731,-100,4,2,1,65,0,0
86135,-100,4,2,1,70,0,0
86485,-100,4,2,1,70,0,0
86836,-100,4,2,1,70,0,0
88064,-100,4,2,1,70,0,0
88416,-100,4,2,1,70,0,0
88942,-100,4,2,1,70,0,0
89292,-100,4,2,1,70,0,0
89643,-100,4,2,1,70,0,0
91398,-100,4,2,1,70,0,0
91749,-100,4,2,1,70,0,0
92099,-100,4,2,1,70,0,0
92450,-100,4,2,1,70,0,0
93678,-100,4,2,1,70,0,0
94030,-100,4,2,1,70,0,0
94556,-100,4,2,1,70,0,0
94906,-100,4,2,1,70,0,0
95257,-100,4,2,1,70,0,0
96119,350.877192982456,4,2,1,50,1,0
96119,-100,4,2,1,70,0,0
96996,-100,4,2,1,70,0,0
97349,350.877192982456,4,2,1,50,1,0
97349,-100,4,2,1,70,0,0
97699,-100,4,2,1,70,0,0
98050,-100,4,2,1,70,0,0
99278,-100,4,2,1,70,0,0
99629,-100,4,2,1,70,0,0
100156,-100,4,2,1,70,0,0
100506,-100,4,2,1,70,0,0
100857,-100,4,2,1,70,0,0
102085,-100,4,2,1,70,0,0
102436,-100,4,2,1,70,0,0
102963,-100,4,2,1,70,0,0
103313,-100,4,2,1,70,0,0
103664,-100,4,2,1,70,0,0
104892,-100,4,2,1,70,0,0
105243,-100,4,2,1,70,0,0
105770,-100,4,2,1,70,0,0
106120,-100,4,2,1,70,0,0
106471,-100,4,2,1,70,0,0
107699,-100,4,2,1,70,0,0
108050,-100,4,2,1,70,0,0

[Colours]
Combo1 : 202,162,100
Combo2 : 162,162,162
Combo3 : 115,115,115
Combo4 : 225,201,104

[HitObjects]
78,150,521,6,0,L|64:251,1,100,2|2,0:0|0:0,0:0:0:0:
138,315,1222,1,2,0:0:0:0:
227,270,1573,1,2,0:0:0:0:
317,312,1924,2,0,L|376:301,1,50,2|2,0:0|0:0,0:0:0:0:
415,293,2275,1,2,0:0:0:0:
475,213,2626,2,0,P|452:174|464:113,1,100,2|0,0:0|0:0,0:0:0:0:
433,78,3152,6,0,P|371:74|281:53,1,150,2|2,0:0|0:0,0:0:0:0:
197,102,4029,1,2,0:0:0:0:
100,76,4380,2,0,L|41:88,1,50,2|2,0:0|0:0,0:0:0:0:
5,175,4906,2,0,L|18:231,1,50,2|2,0:0|0:0,0:0:0:0:
30,271,5257,1,2,0:0:0:0:
117,222,5608,2,0,P|143:225|179:231,1,50,2|2,0:0|0:0,0:0:0:0:
197,268,5959,38,0,P|169:313|176:374,1,100,2|2,0:0|0:0,0:0:0:0:
217,374,6485,2,0,L|275:367,1,50,2|2,0:0|0:0,0:0:0:0:
330,290,7012,2,0,L|391:303,1,50,2|2,0:0|0:0,0:0:0:0:
418,330,7363,2,0,P|461:313|520:294,2,100,2|2|2,0:0|0:0|0:0,0:0:0:0:
330,290,8415,2,0,L|343:222,1,50,2|2,0:0|0:0,0:0:0:0:
355,193,8766,6,0,P|472:122|331:53,1,350,2|0,0:0|0:0,0:0:0:0:
294,68,10170,2,0,L|226:59,1,50,0|8,3:2|3:2,0:0:0:0:
28,20,12450,38,0,L|36:81,1,50,0|8,3:2|3:2,0:0:0:0:
42,119,12801,1,8,3:2:0:0:
106,195,13152,21,12,3:2:0:0:
68,287,13503,1,10,3:2:0:0:
144,351,13854,2,0,L|206:343,1,50,2|2,3:2|3:2,0:0:0:0:
243,338,14205,1,8,3:2:0:0:
243,338,14380,1,2,3:2:0:0:
311,264,14731,2,0,P|306:241|303:211,1,50,2|8,3:2|3:2,0:0:0:0:
325,169,15082,2,0,P|381:157|433:190,1,100,2|0,3:2|3:2,0:0:0:0:
458,143,15608,2,0,P|463:119|467:80,1,50,10|8,3:2|3:2,0:0:0:0:
462,43,15959,5,0,3:2:0:0:
365,67,16310,1,10,3:2:0:0:
274,23,16661,2,0,L|208:30,1,50,2|2,3:2|3:2,0:0:0:0:
175,37,17012,1,8,3:2:0:0:
175,37,17187,1,2,3:2:0:0:
142,131,17538,2,0,P|155:155|164:180,1,50,2|8,3:2|3:2,0:0:0:0:
153,225,17889,2,0,P|134:266|122:324,1,100,2|0,3:2|3:2,0:0:0:0:
81,349,18415,2,0,L|16:335,1,50,10|0,3:2|3:2,0:0:0:0:
6,295,18766,37,0,3:2:0:0:
48,204,19117,1,10,3:2:0:0:
21,107,19468,2,0,L|30:44,1,50,2|2,3:2|3:2,0:0:0:0:
39,8,19819,1,8,3:2:0:0:
39,8,19994,1,2,3:2:0:0:
134,37,20345,2,0,L|186:30,1,50,2|8,3:2|3:2,0:0:0:0:
232,20,20696,2,0,P|218:72|212:124,1,100,2|0,3:2|3:2,0:0:0:0:
244,155,21222,2,0,P|272:155|304:146,1,50,10|8,3:2|3:2,0:0:0:0:
338,129,21573,5,0,3:2:0:0:
428,85,21924,1,10,3:2:0:0:
497,157,22275,2,0,L|486:220,1,50,2|2,3:2|3:2,0:0:0:0:
480,255,22626,1,8,3:2:0:0:
480,255,22801,1,2,3:2:0:0:
457,352,23152,2,0,L|404:338,1,50,2|8,3:2|3:2,0:0:0:0:
366,312,23503,2,0,L|248:332,1,100,2|8,3:2|3:2,0:0:0:0:
227,297,24029,2,0,P|234:275|236:247,1,50,10|8,3:2|3:2,0:0:0:0:
230,198,24380,37,0,3:2:0:0:
155,130,24731,1,0,3:2:0:0:
55,143,25082,2,0,L|64:72,1,50,0|0,3:2|3:2,0:0:0:0:
73,44,25433,1,0,3:2:0:0:
73,44,25608,6,0,P|124:14|181:14,1,100,4|0,3:2|3:2,0:0:0:0:
211,28,26135,2,0,P|204:53|201:83,1,50,8|2,3:2|3:2,0:0:0:0:
301,70,26661,2,0,L|424:55,1,100,2|0,3:2|0:0,0:0:0:0:
449,51,27187,5,0,3:2:0:0:
494,140,27538,1,2,3:2:0:0:
433,219,27889,1,2,3:2:0:0:
335,195,28240,1,2,3:2:0:0:
258,259,28591,2,0,L|265:313,1,50,2|2,3:2|0:0,0:0:0:0:
276,357,28942,1,2,3:2:0:0:
276,357,29117,1,2,0:0:0:0:
178,378,29468,2,0,P|140:365|80:354,1,100,2|0,0:0|3:2,0:0:0:0:
31,345,29994,5,0,3:2:0:0:
78,256,30345,1,2,3:2:0:0:
33,166,30696,2,0,L|38:108,1,50,2|2,3:2|0:0,0:0:0:0:
43,66,31047,1,2,3:2:0:0:
43,66,31222,1,2,0:0:0:0:
133,108,31573,2,0,L|187:102,1,50,2|2,0:0|3:2,0:0:0:0:
232,98,31924,1,2,0:0:0:0:
302,168,32275,2,0,P|346:149|400:144,1,100,2|0,0:0|3:2,0:0:0:0:
447,147,32801,1,0,3:2:0:0:
493,58,33152,37,2,3:2:0:0:
401,16,33503,1,2,3:2:0:0:
312,62,33854,1,2,3:2:0:0:
214,39,34205,2,0,L|222:103,1,50,2|2,3:2|0:0,0:0:0:0:
229,137,34556,1,2,3:2:0:0:
229,137,34731,1,2,0:0:0:0:
161,211,35082,2,0,P|184:275|198:321,1,100,2|0,0:0|3:2,0:0:0:0:
209,353,35608,5,0,3:2:0:0:
291,297,35959,1,2,3:2:0:0:
381,339,36310,2,0,L|444:331,1,50,2|2,3:2|0:0,0:0:0:0:
480,326,36661,1,10,3:2:0:0:
480,326,36836,5,2,3:2:0:0:
427,240,37187,1,2,3:2:0:0:
462,146,37538,2,0,P|424:137|358:163,1,100,2|2,3:2|3:2,0:0:0:0:
327,185,38064,1,0,3:2:0:0:
327,185,38240,6,0,L|226:170,1,100,6|0,3:2|3:2,0:0:0:0:
179,157,38766,1,10,3:2:0:0:
85,192,39117,1,2,3:2:0:0:
13,122,39468,1,10,3:2:0:0:
59,33,39819,2,0,L|122:45,1,50,2|2,3:2|3:2,0:0:0:0:
155,58,40170,1,10,3:2:0:0:
155,58,40345,1,2,3:2:0:0:
254,53,40696,2,0,P|261:28|273:3,2,50,2|8|2,3:2|3:2|0:0,0:0:0:0:
273,99,41222,37,0,3:2:0:0:
348,165,41573,1,10,3:2:0:0:
444,139,41924,1,2,3:2:0:0:
475,44,42275,1,10,3:2:0:0:
377,20,42626,2,0,L|365:75,1,50,2|2,3:2|3:2,0:0:0:0:
355,117,42977,1,10,3:2:0:0:
355,117,43152,1,2,3:2:0:0:
425,188,43503,2,0,L|477:181,2,50,2|8|2,3:2|3:2|0:0,0:0:0:0:
394,227,44029,5,4,3:2:0:0:
415,324,44380,1,10,3:2:0:0:
329,375,44731,1,2,3:2:0:0:
254,308,45082,1,10,3:2:0:0:
161,345,45433,2,0,L|101:336,1,50,2|2,3:2|3:2,0:0:0:0:
61,331,45784,1,10,3:2:0:0:
61,331,45959,1,2,3:2:0:0:
110,244,46310,1,2,3:2:0:0:
110,244,46485,2,0,L|173:237,1,50,8|2,3:2|0:0,0:0:0:0:
199,208,46836,37,4,3:2:0:0:
139,127,47187,2,0,L|130:75,1,50,10|2,3:2|3:2,0:0:0:0:
160,37,47538,2,0,L|212:46,1,50,10|2,3:2|3:2,0:0:0:0:
258,57,47889,1,10,3:2:0:0:
258,57,48064,1,6,3:2:0:0:
324,131,48415,2,0,L|309:183,1,50,10|8,3:2|3:2,0:0:0:0:
293,226,48766,1,10,3:2:0:0:
209,280,49117,2,0,P|185:267|158:255,2,50,10|10|10,3:0|3:0|3:0,0:0:0:0:
236,322,49643,21,4,3:2:0:0:
333,348,49994,2,0,L|443:329,1,100,2|10,0:0|3:2,0:0:0:0:
474,240,50696,1,2,3:2:0:0:
474,240,50871,2,0,P|456:205|474:128,1,100,2|10,3:2|3:2,0:0:0:0:
481,99,51398,1,2,3:2:0:0:
421,18,51749,1,8,3:2:0:0:
329,58,52099,1,2,0:0:0:0:
230,38,52450,6,0,P|245:87|255:140,1,100,4|2,3:2|0:0,0:0:0:0:
259,184,52977,1,0,3:2:0:0:
181,247,53328,1,2,0:0:0:0:
86,215,53678,1,2,3:2:0:0:
9,280,54029,1,10,3:2:0:0:
9,280,54205,2,0,L|16:344,2,50,2|0|8,3:2|3:2|3:2,0:0:0:0:
86,215,54906,2,0,L|78:142,1,50,10|8,3:2|3:2,0:0:0:0:
111,126,55257,6,0,P|161:117|215:144,1,100,6|10,3:2|3:2,0:0:0:0:
244,167,55784,1,2,0:0:0:0:
325,225,56135,2,0,L|382:215,1,50,0|8,3:2|3:2,0:0:0:0:
411,183,56485,1,2,0:0:0:0:
411,183,56661,6,0,P|393:128|415:73,1,100,2|10,3:2|3:2,0:0:0:0:
435,50,57187,1,2,0:0:0:0:
340,16,57538,1,0,3:2:0:0:
340,16,57713,2,0,L|275:27,1,50,14|0,3:2|3:2,0:0:0:0:
256,60,58064,38,0,L|186:48,2,50,14|0|2,3:2|3:2|3:2,0:0:0:0:
276,106,58591,1,10,3:2:0:0:
202,174,58942,2,0,L|215:236,1,50,2|8,3:2|3:2,0:0:0:0:
223,271,59292,1,6,3:2:0:0:
152,342,59643,2,0,L|84:327,2,50,2|2|2,3:2|3:2|3:2,0:0:0:0:
245,379,60345,2,0,L|299:369,1,50,0|12,3:2|3:2,0:0:0:0:
404,369,60871,6,0,L|388:300,1,50,2|2,3:2|0:0,0:0:0:0:
381,266,61222,1,10,3:2:0:0:
423,164,61573,1,2,3:2:0:0:
338,93,61924,2,0,L|274:102,1,50,10|2,3:2|0:0,0:0:0:0:
240,127,62275,2,0,L|176:118,1,50,2|2,3:2|3:2,0:0:0:0:
136,110,62626,1,10,3:2:0:0:
57,187,62977,1,2,3:2:0:0:
116,279,63328,1,10,3:2:0:0:
116,279,63503,38,0,L|231:295,1,100,6|0,0:0|0:0,0:0:0:0:
268,304,64029,1,10,0:0:0:0:
350,231,64380,1,2,3:2:0:0:
452,272,64731,1,10,3:2:0:0:
452,272,64906,2,0,P|461:215|475:171,1,100,6|2,3:2|3:2,0:0:0:0:
490,122,65433,1,10,3:2:0:0:
490,122,65608,1,2,3:2:0:0:
407,48,65959,6,0,L|352:62,1,50,10|10,3:2|3:2,0:0:0:0:
305,76,66310,1,10,3:2:0:0:
206,26,66661,2,0,L|151:40,1,50,2|10,0:0|3:2,0:0:0:0:
104,54,67012,1,2,0:0:0:0:
47,148,67363,2,0,L|61:203,1,50,2|10,3:2|3:2,0:0:0:0:
75,250,67714,1,2,0:0:0:0:
175,293,68064,1,2,3:2:0:0:
255,217,68415,1,2,0:0:0:0:
219,112,68766,1,2,3:2:0:0:
219,112,68942,2,0,L|228:59,1,50,10|2,3:2|0:0,0:0:0:0:
240,9,69292,37,6,3:2:0:0:
332,69,69643,1,10,3:2:0:0:
332,69,69819,1,2,0:0:0:0:
439,45,70170,1,2,3:2:0:0:
447,154,70520,2,0,L|458:266,1,100,6|2,3:2|3:2,0:0:0:0:
460,308,71047,1,10,3:2:0:0:
360,355,71398,1,0,3:2:0:0:
264,302,71749,1,10,3:2:0:0:
158,333,72099,6,0,L|150:279,1,50,2|2,3:2|0:0,0:0:0:0:
143,228,72450,1,10,3:2:0:0:
39,266,72801,1,2,3:2:0:0:
2,162,73152,2,0,L|13:108,1,50,10|2,3:2|0:0,0:0:0:0:
55,79,73503,2,0,L|109:90,1,50,2|2,3:2|3:2,0:0:0:0:
157,100,73854,1,10,3:2:0:0:
250,157,74205,1,2,3:2:0:0:
346,104,74556,1,10,3:2:0:0:
346,104,74731,38,0,P|397:86|447:101,1,100,6|2,0:0|0:0,0:0:0:0:
471,142,75257,1,10,0:0:0:0:
404,229,75608,2,0,L|417:288,1,50,2|2,3:2|3:2,0:0:0:0:
431,330,75959,1,10,3:2:0:0:
431,330,76135,1,6,3:2:0:0:
327,367,76485,2,0,L|269:355,1,50,2|10,3:2|3:2,0:0:0:0:
224,341,76836,1,2,3:2:0:0:
167,246,77187,6,0,L|179:188,1,50,10|10,3:2|3:2,0:0:0:0:
191,143,77538,1,10,3:2:0:0:
282,204,77889,2,0,L|340:192,1,50,2|10,0:0|3:2,0:0:0:0:
385,180,78240,1,2,0:0:0:0:
427,78,78591,2,0,L|369:66,1,50,2|10,3:2|3:2,0:0:0:0:
324,54,78942,1,2,0:0:0:0:
222,96,79292,1,2,3:2:0:0:
118,60,79643,1,2,0:0:0:0:
36,133,79994,2,0,L|49:202,1,50,2|10,3:2|3:2,0:0:0:0:
89,215,80345,1,2,0:0:0:0:
89,215,80520,38,0,L|149:204,1,50,2|0,3:2|3:2,0:0:0:0:
192,195,80871,1,10,3:2:0:0:
267,274,81222,2,0,L|256:334,1,50,0|0,3:2|3:2,0:0:0:0:
247,377,81573,1,10,3:2:0:0:
350,340,81924,5,2,3:2:0:0:
458,356,82275,1,10,3:2:0:0:
458,356,82450,1,2,3:2:0:0:
509,258,82801,1,10,3:2:0:0:
444,168,83152,2,0,L|461:64,1,100,10|2,3:2|0:0,0:0:0:0:
469,14,83678,1,10,3:2:0:0:
360,31,84029,1,8,3:2:0:0:
251,48,84380,1,8,3:2:0:0:
318,134,84731,37,12,3:2:0:0:
93,342,85784,22,0,L|103:269,1,50,10|10,3:2|3:2,0:0:0:0:
109,243,86135,1,12,3:2:0:0:
202,276,86485,21,10,3:2:0:0:
283,217,86836,2,0,L|273:146,1,50,2|2,3:2|3:2,0:0:0:0:
273,117,87187,1,8,3:2:0:0:
273,117,87363,1,2,3:2:0:0:
186,65,87713,2,0,L|130:74,1,50,2|8,3:2|3:2,0:0:0:0:
90,53,88064,2,0,P|106:111|80:166,1,100,2|0,3:2|3:2,0:0:0:0:
57,181,88591,2,0,L|66:244,1,50,10|8,3:2|3:2,0:0:0:0:
69,280,88942,5,0,3:2:0:0:
151,335,89292,1,10,3:2:0:0:
242,295,89643,2,0,L|303:300,1,50,2|2,3:2|3:2,0:0:0:0:
340,309,89994,1,8,3:2:0:0:
340,309,90170,1,2,3:2:0:0:
431,348,90520,2,0,L|439:282,1,50,2|8,3:2|3:2,0:0:0:0:
462,254,90871,2,0,L|448:145,1,100,2|0,3:2|3:2,0:0:0:0:
409,123,91398,2,0,P|384:127|351:116,1,50,10|0,3:2|3:2,0:0:0:0:
319,92,91749,37,0,3:2:0:0:
254,168,92099,1,10,3:2:0:0:
277,265,92450,2,0,L|263:324,1,50,2|2,3:2|3:2,0:0:0:0:
256,363,92801,1,8,3:2:0:0:
256,363,92977,1,2,3:2:0:0:
170,311,93328,2,0,L|115:319,1,50,2|8,3:2|3:2,0:0:0:0:
82,285,93678,2,0,B|77:250|77:250|53:229|53:229|47:187,1,100,2|0,3:2|3:2,0:0:0:0:
38,147,94205,2,0,L|48:89,1,50,10|8,3:2|3:2,0:0:0:0:
54,48,94556,5,0,3:2:0:0:
139,100,94906,1,10,3:2:0:0:
233,67,95257,2,0,L|302:75,1,50,2|2,3:2|3:2,0:0:0:0:
332,81,95608,1,8,3:2:0:0:
332,81,95784,1,2,3:2:0:0:
427,41,96119,2,0,L|434:110,1,50,2|8,3:2|3:2,0:0:0:0:
468,124,96469,2,0,P|449:178|436:221,1,100,2|10,3:2|3:2,0:0:0:0:
395,247,96996,2,0,P|406:278|413:305,1,50,10|10,3:2|3:2,0:0:0:0:
426,341,97349,37,4,3:2:0:0:
334,380,97699,1,10,3:2:0:0:
266,306,98050,2,0,L|278:241,1,50,2|2,3:2|3:2,0:0:0:0:
285,207,98401,1,8,3:2:0:0:
285,207,98577,1,2,3:2:0:0:
187,228,98927,1,2,3:2:0:0:
104,171,99278,2,0,B|110:136|110:136|92:110|92:110|100:66,1,100,2|0,3:2|3:2,0:0:0:0:
138,47,99805,2,0,L|193:55,1,50,10|8,3:2|3:2,0:0:0:0:
236,63,100156,5,0,3:2:0:0:
326,20,100506,1,10,3:2:0:0:
423,42,100857,2,0,L|476:33,1,50,2|2,3:2|3:2,0:0:0:0:
506,70,101208,1,8,3:2:0:0:
506,70,101384,1,2,3:2:0:0:
490,168,101734,1,2,3:2:0:0:
474,266,102085,2,0,B|436:258|436:258|413:270|413:270|368:263,1,100,2|0,3:2|0:0,0:0:0:0:
348,223,102612,2,0,L|356:156,1,50,10|8,3:2|3:2,0:0:0:0:
358,123,102963,37,0,3:2:0:0:
274,68,103313,1,10,3:2:0:0:
204,139,103664,2,0,L|213:201,1,50,2|2,3:2|3:2,0:0:0:0:
224,236,104015,1,8,3:2:0:0:
224,236,104191,1,2,3:2:0:0:
281,317,104541,1,2,3:2:0:0:
204,381,104892,2,0,L|97:362,1,100,2|8,3:2|3:0,0:0:0:0:
73,324,105419,2,0,L|82:266,1,50,10|8,3:2|3:2,0:0:0:0:
89,225,105770,5,0,3:2:0:0:
140,139,106120,1,10,3:2:0:0:
97,48,106471,2,0,L|157:38,1,50,2|2,3:2|3:2,0:0:0:0:
191,17,106822,1,8,3:2:0:0:
191,17,106998,2,0,L|245:26,1,50,2|8,3:2|3:2,0:0:0:0:
289,34,107349,1,2,3:2:0:0:
340,119,107699,2,0,B|331:159|331:159|346:186|346:186|338:222,1,100,10|8,3:2|3:0,0:0:0:0:
333,263,108226,1,10,3:2:0:0:
333,263,108401,1,10,3:2:0:0:
